osu file format v14

[General]
AudioFilename: audio.mp3
AudioLeadIn: 0
PreviewTime: 46366
Countdown: 0
SampleSet: Normal
StackLeniency: 0.7
Mode: 1
LetterboxInBreaks: 0
WidescreenStoryboard: 1

[Editor]
Bookmarks: 596,7330,14064,20798,27532,34266,41000,47734,74670,82875,87224
DistanceSpacing: 1.5
BeatDivisor: 4
GridSize: 32
TimelineZoom: 2.4

[Metadata]
Title:Angel With A Shotgun (Sped Up Ver.)
TitleUnicode:Angel With A Shotgun (Sped Up Ver.)
Artist:The Cab
ArtistUnicode:The Cab
Creator:Sotarks
Version:Ayyri's Oni
Source:
Tags:speed up version cut short english pop symphony soldier armin a_r_m_i_n akitoshi corinn -laura- ayyri eiri- browiec fieryrage kowari lon log_off_now log off now nevo snownino_ reform kujinn elinor eli [_eli_] nightcore mix
BeatmapID:2452378
BeatmapSetID:1174505

[Difficulty]
HPDrainRate:6
CircleSize:2
OverallDifficulty:5
ApproachRate:10
SliderMultiplier:1.4
SliderTickRate:1

[Events]
//Background and Video events
0,0,"bg.jpg",0,0
//Break Periods
//Storyboard Layer 0 (Background)
//Storyboard Layer 1 (Fail)
//Storyboard Layer 2 (Pass)
//Storyboard Layer 3 (Foreground)
//Storyboard Layer 4 (Overlay)
//Storyboard Sound Samples

[TimingPoints]
596,420.875420875421,4,1,0,30,1,0
14064,-100,4,1,0,40,0,0
20798,-100,4,1,0,50,0,0
34266,-100,4,1,0,60,0,0
47734,-100,4,1,0,75,0,1
74670,-100,4,1,0,75,0,0
75301,-100,4,1,0,50,0,0
82875,436.205016357688,4,1,0,50,1,0
82875,-95.2380952380952,4,1,0,50,0,0
83965,449.269936353426,4,1,0,50,1,8
83965,-93.4579439252336,4,1,0,50,0,8
84414,542.740841248304,4,1,0,50,1,0
84414,-78.7401574803149,4,1,0,50,0,0
84685,815.771583956492,4,1,0,50,1,8
84685,-55.5555555555556,4,1,0,50,0,8
85092,1000,4,1,0,50,1,8
85092,-48.780487804878,4,1,0,50,0,8
85592,437.956204379562,4,1,0,50,1,0
85592,-97.0873786407767,4,1,0,50,0,0
85810,521.739130434783,4,1,0,50,1,8
85810,-81.3008130081301,4,1,0,50,0,8
86331,594.059405940594,4,1,0,50,1,8
86331,-74.0740740740741,4,1,0,50,0,0
86628,685.714285714286,4,1,0,50,1,8
86628,-68.0272108843537,4,1,0,50,0,8
86970,508.474576271186,4,1,0,50,1,8
87224,491.803278688525,4,1,0,50,1,0

[Colours]
Combo1 : 81,136,125
Combo2 : 255,206,250
Combo3 : 253,255,206

[HitObjects]
256,192,7330,5,0,0:0:0:0:
256,192,9013,1,0,0:0:0:0:
256,192,10486,1,0,0:0:0:0:
256,192,10697,1,0,0:0:0:0:
256,192,12380,1,0,0:0:0:0:
256,192,13853,1,0,0:0:0:0:
256,192,14064,1,0,0:0:0:0:
256,192,14484,1,0,0:0:0:0:
256,192,14905,1,8,0:0:0:0:
256,192,15537,1,0,0:0:0:0:
256,192,16168,1,0,0:0:0:0:
256,192,16589,1,8,0:0:0:0:
256,192,17431,1,0,0:0:0:0:
256,192,17851,1,0,0:0:0:0:
256,192,18272,1,8,0:0:0:0:
256,192,18904,1,0,0:0:0:0:
256,192,19535,1,0,0:0:0:0:
256,192,19956,1,8,0:0:0:0:
256,192,20798,1,12,0:0:0:0:
256,192,21008,1,0,0:0:0:0:
256,192,21218,1,8,0:0:0:0:
256,192,21429,1,0,0:0:0:0:
256,192,21534,1,0,0:0:0:0:
256,192,21639,1,8,0:0:0:0:
256,192,21850,1,0,0:0:0:0:
256,192,22060,1,8,0:0:0:0:
256,192,22481,1,0,0:0:0:0:
256,192,22691,1,8,0:0:0:0:
256,192,22797,1,0,0:0:0:0:
256,192,22902,1,8,0:0:0:0:
256,192,23112,1,0,0:0:0:0:
256,192,23323,1,8,0:0:0:0:
256,192,23428,1,8,0:0:0:0:
256,192,23533,1,0,0:0:0:0:
256,192,23744,1,8,0:0:0:0:
256,192,23954,1,8,0:0:0:0:
256,192,24165,1,0,0:0:0:0:
256,192,24375,1,0,0:0:0:0:
256,192,24480,1,0,0:0:0:0:
256,192,24585,1,8,0:0:0:0:
256,192,25006,1,0,0:0:0:0:
256,192,25217,1,0,0:0:0:0:
256,192,25427,1,8,0:0:0:0:
256,192,25638,1,0,0:0:0:0:
256,192,25743,1,0,0:0:0:0:
256,192,25848,1,0,0:0:0:0:
256,192,26058,1,0,0:0:0:0:
256,192,26269,1,8,0:0:0:0:
256,192,26479,1,8,0:0:0:0:
256,192,26585,1,8,0:0:0:0:
256,192,26690,1,0,0:0:0:0:
256,192,26900,1,0,0:0:0:0:
256,192,27111,1,8,0:0:0:0:
256,192,27321,1,0,0:0:0:0:
256,192,27532,1,12,0:0:0:0:
256,192,27742,1,0,0:0:0:0:
256,192,27952,1,8,0:0:0:0:
256,192,28163,1,0,0:0:0:0:
256,192,28268,1,0,0:0:0:0:
256,192,28373,1,8,0:0:0:0:
256,192,28584,1,0,0:0:0:0:
256,192,28794,1,8,0:0:0:0:
256,192,29215,1,0,0:0:0:0:
256,192,29425,1,8,0:0:0:0:
256,192,29531,1,0,0:0:0:0:
256,192,29636,1,8,0:0:0:0:
256,192,29846,1,0,0:0:0:0:
256,192,30057,1,0,0:0:0:0:
256,192,30162,1,0,0:0:0:0:
256,192,30267,1,0,0:0:0:0:
256,192,30478,1,8,0:0:0:0:
256,192,30688,1,0,0:0:0:0:
256,192,30899,1,8,0:0:0:0:
256,192,31004,1,8,0:0:0:0:
256,192,31109,1,0,0:0:0:0:
256,192,31319,1,8,0:0:0:0:
256,192,31740,1,0,0:0:0:0:
256,192,31951,1,0,0:0:0:0:
256,192,32161,1,8,0:0:0:0:
256,192,32372,1,8,0:0:0:0:
256,192,32477,1,8,0:0:0:0:
256,192,32582,1,0,0:0:0:0:
256,192,32792,1,0,0:0:0:0:
256,192,33003,1,8,0:0:0:0:
256,192,33634,1,8,0:0:0:0:
256,192,33845,1,8,0:0:0:0:
256,192,34055,1,0,0:0:0:0:
256,192,34266,1,12,0:0:0:0:
256,192,34686,1,8,0:0:0:0:
256,192,34897,1,0,0:0:0:0:
256,192,35002,1,0,0:0:0:0:
256,192,35107,1,8,0:0:0:0:
256,192,35318,1,0,0:0:0:0:
256,192,35528,1,8,0:0:0:0:
256,192,35633,1,0,0:0:0:0:
256,192,35739,1,8,0:0:0:0:
256,192,35949,1,0,0:0:0:0:
256,192,36370,1,8,0:0:0:0:
256,192,36580,1,0,0:0:0:0:
256,192,36686,1,0,0:0:0:0:
256,192,36791,1,0,0:0:0:0:
256,192,37001,1,0,0:0:0:0:
256,192,37212,1,8,0:0:0:0:
256,192,37422,1,0,0:0:0:0:
256,192,37633,1,0,0:0:0:0:
256,192,38053,1,8,0:0:0:0:
256,192,38264,1,0,0:0:0:0:
256,192,38369,1,0,0:0:0:0:
256,192,38474,1,8,0:0:0:0:
256,192,38685,1,0,0:0:0:0:
256,192,38895,1,8,0:0:0:0:
256,192,39106,1,8,0:0:0:0:
256,192,39211,1,8,0:0:0:0:
256,192,39316,1,0,0:0:0:0:
256,192,39526,1,0,0:0:0:0:
256,192,39737,1,8,0:0:0:0:
256,192,39947,1,0,0:0:0:0:
256,192,40053,1,0,0:0:0:0:
256,192,40158,1,0,0:0:0:0:
256,192,40368,1,0,0:0:0:0:
256,192,40579,1,8,0:0:0:0:
256,192,40789,1,0,0:0:0:0:
256,192,41000,1,0,0:0:0:0:
256,192,41420,1,8,0:0:0:0:
256,192,41631,1,8,0:0:0:0:
256,192,41736,1,8,0:0:0:0:
256,192,41841,1,8,0:0:0:0:
256,192,42052,1,0,0:0:0:0:
256,192,42262,1,8,0:0:0:0:
256,192,42367,1,0,0:0:0:0:
256,192,42473,1,8,0:0:0:0:
256,192,42683,1,0,0:0:0:0:
256,192,43104,1,8,0:0:0:0:
256,192,43314,1,0,0:0:0:0:
256,192,43420,1,0,0:0:0:0:
256,192,43525,1,8,0:0:0:0:
256,192,43735,1,0,0:0:0:0:
256,192,43946,1,8,0:0:0:0:
256,192,44156,1,0,0:0:0:0:
256,192,44367,1,8,0:0:0:0:
256,192,44787,1,8,0:0:0:0:
256,192,44998,1,0,0:0:0:0:
256,192,45103,1,0,0:0:0:0:
256,192,45208,1,8,0:0:0:0:
256,192,45419,1,0,0:0:0:0:
256,192,45629,1,8,0:0:0:0:
256,192,45840,1,8,0:0:0:0:
256,192,45945,1,8,0:0:0:0:
256,192,46050,1,0,0:0:0:0:
256,192,46260,1,0,0:0:0:0:
256,192,46471,1,8,0:0:0:0:
256,192,46681,1,0,0:0:0:0:
256,192,46892,1,12,0:0:0:0:
256,192,47734,1,4,0:0:0:0:
256,192,48154,1,8,0:0:0:0:
256,192,48470,1,8,0:0:0:0:
256,192,48575,1,0,0:0:0:0:
256,192,48786,1,0,0:0:0:0:
256,192,48996,1,8,0:0:0:0:
256,192,49207,1,0,0:0:0:0:
256,192,49417,1,4,0:0:0:0:
256,192,49838,1,8,0:0:0:0:
256,192,50154,1,8,0:0:0:0:
256,192,50259,1,0,0:0:0:0:
256,192,50469,1,0,0:0:0:0:
256,192,50680,1,8,0:0:0:0:
256,192,50785,1,0,0:0:0:0:
256,192,50890,1,8,0:0:0:0:
256,192,51101,1,4,0:0:0:0:
256,192,51311,1,0,0:0:0:0:
256,192,51521,1,8,0:0:0:0:
256,192,51837,1,8,0:0:0:0:
256,192,51942,1,0,0:0:0:0:
256,192,52153,1,0,0:0:0:0:
256,192,52363,1,8,0:0:0:0:
256,192,52574,1,0,0:0:0:0:
256,192,52784,1,4,0:0:0:0:
256,192,53205,1,8,0:0:0:0:
256,192,53521,1,8,0:0:0:0:
256,192,53626,1,0,0:0:0:0:
256,192,53836,1,8,0:0:0:0:
256,192,54047,1,0,0:0:0:0:
256,192,54257,1,0,0:0:0:0:
256,192,54468,1,4,0:0:0:0:
256,192,54888,1,8,0:0:0:0:
256,192,55204,1,8,0:0:0:0:
256,192,55309,1,0,0:0:0:0:
256,192,55520,1,0,0:0:0:0:
256,192,55625,1,0,0:0:0:0:
256,192,55730,1,8,0:0:0:0:
256,192,55941,1,0,0:0:0:0:
256,192,56151,1,4,0:0:0:0:
256,192,56572,1,8,0:0:0:0:
256,192,56888,1,8,0:0:0:0:
256,192,56993,1,0,0:0:0:0:
256,192,57203,1,0,0:0:0:0:
256,192,57414,1,8,0:0:0:0:
256,192,57624,1,8,0:0:0:0:
256,192,57835,1,4,0:0:0:0:
256,192,58045,1,0,0:0:0:0:
256,192,58255,1,8,0:0:0:0:
256,192,58571,1,8,0:0:0:0:
256,192,58676,1,0,0:0:0:0:
256,192,58887,1,0,0:0:0:0:
256,192,59097,1,8,0:0:0:0:
256,192,59308,1,0,0:0:0:0:
256,192,59518,1,4,0:0:0:0:
256,192,59728,1,8,0:0:0:0:
256,192,59834,1,8,0:0:0:0:
256,192,59939,1,8,0:0:0:0:
256,192,60149,1,4,0:0:0:0:
256,192,60360,1,8,0:0:0:0:
256,192,60465,1,8,0:0:0:0:
256,192,60570,1,0,0:0:0:0:
256,192,60781,1,8,0:0:0:0:
256,192,60886,1,8,0:0:0:0:
256,192,60991,1,8,0:0:0:0:
256,192,61202,1,4,0:0:0:0:
256,192,61622,1,8,0:0:0:0:
256,192,62043,1,0,0:0:0:0:
256,192,62254,1,0,0:0:0:0:
256,192,62464,1,8,0:0:0:0:
256,192,62885,1,4,0:0:0:0:
256,192,63306,1,8,0:0:0:0:
256,192,63727,1,0,0:0:0:0:
256,192,64042,1,8,0:0:0:0:
256,192,64148,1,0,0:0:0:0:
256,192,64358,1,8,0:0:0:0:
256,192,64569,1,4,0:0:0:0:
256,192,64989,1,8,0:0:0:0:
256,192,65410,1,0,0:0:0:0:
256,192,65621,1,0,0:0:0:0:
256,192,65831,1,8,0:0:0:0:
256,192,66252,1,4,0:0:0:0:
256,192,66673,1,8,0:0:0:0:
256,192,67094,1,0,0:0:0:0:
256,192,67304,1,0,0:0:0:0:
256,192,67515,1,8,0:0:0:0:
256,192,67620,1,8,0:0:0:0:
256,192,67725,1,8,0:0:0:0:
256,192,67936,1,4,0:0:0:0:
256,192,68356,1,8,0:0:0:0:
256,192,68672,1,8,0:0:0:0:
256,192,68777,1,0,0:0:0:0:
256,192,68988,1,0,0:0:0:0:
256,192,69198,1,8,0:0:0:0:
256,192,69409,1,0,0:0:0:0:
256,192,69619,1,4,0:0:0:0:
256,192,70040,1,8,0:0:0:0:
256,192,70356,1,8,0:0:0:0:
256,192,70461,1,0,0:0:0:0:
256,192,70671,1,0,0:0:0:0:
256,192,70882,1,8,0:0:0:0:
256,192,71303,1,12,0:0:0:0:
256,192,71513,1,0,0:0:0:0:
256,192,71723,1,8,0:0:0:0:
256,192,71934,1,0,0:0:0:0:
256,192,72144,1,8,0:0:0:0:
256,192,72355,1,0,0:0:0:0:
256,192,72565,1,8,0:0:0:0:
256,192,72776,1,0,0:0:0:0:
256,192,72986,1,12,0:0:0:0:
256,192,73197,1,0,0:0:0:0:
256,192,73407,1,8,0:0:0:0:
256,192,73617,1,0,0:0:0:0:
256,192,73828,1,8,0:0:0:0:
256,192,74249,1,4,0:0:0:0:
256,192,74670,1,12,0:0:0:0:
256,192,75301,1,0,0:0:0:0:
256,192,75932,1,0,0:0:0:0:
256,192,76143,1,8,0:0:0:0:
256,192,76984,1,0,0:0:0:0:
256,192,77195,1,8,0:0:0:0:
256,192,77405,1,8,0:0:0:0:
256,192,77616,1,0,0:0:0:0:
256,192,78037,1,0,0:0:0:0:
256,192,78457,1,0,0:0:0:0:
256,192,78668,1,8,0:0:0:0:
256,192,79089,1,0,0:0:0:0:
256,192,79510,1,8,0:0:0:0:
256,192,79720,1,0,0:0:0:0:
256,192,80351,1,0,0:0:0:0:
256,192,80562,1,8,0:0:0:0:
256,192,80772,1,8,0:0:0:0:
256,192,80983,1,0,0:0:0:0:
256,192,81193,1,0,0:0:0:0:
256,192,81404,1,8,0:0:0:0:
256,192,81824,1,0,0:0:0:0:
256,192,82035,1,8,0:0:0:0:
256,192,82666,1,8,0:0:0:0:
256,192,82875,1,0,0:0:0:0:
256,192,83747,1,0,0:0:0:0:
256,192,83965,1,8,0:0:0:0:
256,192,84189,1,0,0:0:0:0:
256,192,84414,1,8,0:0:0:0:
256,192,84685,1,0,0:0:0:0:
256,192,85092,1,0,0:0:0:0:
256,192,85592,1,0,0:0:0:0:
256,192,85810,1,8,0:0:0:0:
256,192,86070,1,0,0:0:0:0:
256,192,86331,1,8,0:0:0:0:
256,192,86628,1,8,0:0:0:0:
256,192,87224,1,0,0:0:0:0:
