osu file format v14

[General]
AudioFilename: audio.mp3
AudioLeadIn: 0
PreviewTime: 46366
Countdown: 0
SampleSet: Soft
StackLeniency: 0.7
Mode: 0
LetterboxInBreaks: 0
WidescreenStoryboard: 1

[Editor]
Bookmarks: 14418,75028
DistanceSpacing: 2.3
BeatDivisor: 4
GridSize: 32
TimelineZoom: 2.4

[Metadata]
Title:Angel With A Shotgun (Sped Up Ver.)
TitleUnicode:Angel With A Shotgun (Sped Up Ver.)
Artist:The Cab
ArtistUnicode:The Cab
Creator:Sotarks
Version:Akitoshi's Expert
Source:
Tags:speed up version cut short english pop symphony soldier armin a_r_m_i_n akitoshi corinn -laura- ayyri eiri- browiec fieryrage kowari lon log_off_now log off now nevo snownino_ reform kujinn elinor eli [_eli_] nightcore mix
BeatmapID:2449782
BeatmapSetID:1174505

[Difficulty]
HPDrainRate:5.2
CircleSize:3.8
OverallDifficulty:8.5
ApproachRate:8.4
SliderMultiplier:2
SliderTickRate:2

[Events]
//Background and Video events
0,0,"bg.jpg",0,0
//Break Periods
//Storyboard Layer 0 (Background)
//Storyboard Layer 1 (Fail)
//Storyboard Layer 2 (Pass)
//Storyboard Layer 3 (Foreground)
//Storyboard Layer 4 (Overlay)
//Storyboard Sound Samples

[TimingPoints]
596,420.875420875421,4,2,22,72,1,0
14064,-166.666666666667,4,2,22,72,0,0
14905,-100,4,2,22,72,0,0
15326,-166.666666666667,4,2,22,72,0,0
18272,-100,4,2,22,72,0,0
18693,-166.666666666667,4,2,22,72,0,0
19956,-100,4,2,22,72,0,0
20377,-333.333333333334,4,2,22,72,0,0
20692,-333.333333333334,4,2,22,5,0,0
20798,-125,4,2,22,62,0,0
22376,-125,4,2,22,5,0,0
22481,-125,4,2,22,62,0,0
29110,-125,4,2,22,5,0,0
29215,-125,4,2,22,62,0,0
34266,-111.111111111111,4,2,22,72,0,0
41315,-111.111111111111,4,2,22,5,0,0
41420,-111.111111111111,4,2,22,72,0,0
47734,-83.3333333333333,4,2,22,82,0,1
47944,-83.3333333333333,4,2,22,82,0,0
48154,-83.3333333333333,4,2,22,82,0,0
49733,-83.3333333333333,4,2,22,5,0,0
49838,-83.3333333333333,4,2,22,82,0,0
54468,-83.3333333333333,4,2,22,82,0,1
54678,-83.3333333333333,4,2,22,82,0,0
54888,-83.3333333333333,4,2,22,82,0,0
56467,-83.3333333333333,4,2,22,5,0,0
56572,-83.3333333333333,4,2,22,82,0,0
61202,-83.3333333333333,4,2,22,82,0,1
74670,-200,4,2,22,52,0,0
74775,-200,4,2,22,42,0,0
82875,436.205016357688,4,2,22,42,1,0
82875,-200,4,2,22,42,0,0
83965,449.269936353426,4,2,22,42,1,0
83965,-200,4,2,22,42,0,0
84414,542.740841248304,4,2,22,42,1,0
84414,-200,4,2,22,42,0,0
84685,815.771583956492,4,2,22,42,1,0
84685,-125,4,2,22,42,0,0
85092,1000,4,2,22,42,1,0
85092,-90.9090909090909,4,2,22,42,0,0
85592,437.956204379562,4,2,22,42,1,0
85592,-200,4,2,22,42,0,0
85810,521.739130434783,4,2,22,42,1,0
85810,-142.857142857143,4,2,22,42,0,0
86331,594.059405940594,4,2,22,42,1,0
86331,-133.333333333333,4,2,22,42,0,0
86628,685.714285714286,4,2,22,42,1,0
86970,508.474576271186,4,2,22,42,1,0
87224,491.803278688525,4,2,22,42,1,0
87224,-166.666666666667,4,2,22,42,0,0
88699,-166.666666666667,4,2,22,5,0,0

[Colours]
Combo1 : 81,136,125
Combo2 : 255,206,250
Combo3 : 253,255,206

[HitObjects]
68,113,14064,6,0,P|75:149|81:181,1,59.9999981689454,4|0,1:3|0:0,0:0:0:0:
174,207,14484,2,0,P|179:177|185:148,1,59.9999981689454,4|0,1:3|0:0,0:0:0:0:
290,89,14905,2,0,B|348:137|420:131|420:131|472:82,1,200,8|0,0:0|0:0,0:0:0:0:
383,25,15537,1,8,1:3:0:0:
278,30,15747,6,0,P|289:81|291:98,1,59.9999981689454
171,66,16168,2,0,P|175:36|183:7,1,59.9999981689454,4|0,1:3|0:0,0:0:0:0:
263,195,16589,1,8,0:0:0:0:
127,146,16799,1,0,0:0:0:0:
271,105,17010,1,0,0:0:0:0:
177,221,17220,1,0,0:0:0:0:
271,105,17431,6,0,P|308:109|345:121,1,59.9999981689454,4|0,1:3|0:0,0:0:0:0:
399,189,17851,2,0,P|436:185|473:173,1,59.9999981689454,4|0,1:3|0:0,0:0:0:0:
497,292,18272,2,0,B|364:344|364:344|386:325|405:284,1,200,8|0,0:0|0:0,0:0:0:0:
301,264,18904,1,8,1:3:0:0:
206,302,19114,6,0,P|192:335|193:372,1,59.9999981689454
298,237,19535,2,0,P|295:207|282:180,1,59.9999981689454,4|0,1:3|0:0,0:0:0:0:
154,122,19956,6,0,L|91:135,1,50,8|0,0:0|0:0,0:0:0:0:
211,41,20166,2,0,L|259:51,1,50
351,67,20377,6,0,P|377:58|403:56,1,44.999998626709
427,59,20798,6,0,B|412:99|412:99|424:140,1,80,6|0,1:2|0:0,0:0:0:0:
298,237,21218,2,0,P|305:184|309:147,1,80,8|0,0:2|0:0,0:0:0:0:
211,41,21639,1,0,3:2:0:0:
192,200,21850,1,0,1:2:0:0:
44,139,22060,2,0,P|25:80|59:20,1,120,8|0,0:2|0:0,0:0:0:0:
128,24,22481,6,0,P|122:83|120:113,1,80,2|0,1:2|0:0,0:0:0:0:
107,287,22902,1,8,0:2:0:0:
221,198,23112,1,0,0:0:0:0:
221,198,23218,1,0,0:0:0:0:
221,198,23323,1,0,3:2:0:0:
211,365,23533,1,0,1:2:0:0:
114,196,23744,1,8,0:2:0:0:
280,289,23954,1,0,1:2:0:0:
347,134,24165,6,0,P|350:95|336:54,1,80,2|0,1:2|0:0,0:0:0:0:
180,114,24585,1,8,0:2:0:0:
302,204,24796,1,0,0:0:0:0:
239,39,25006,1,0,3:2:0:0:
87,112,25217,2,0,P|42:118|6:108,1,80,0|8,1:2|0:2,0:0:0:0:
117,227,25638,6,0,P|171:221|202:218,1,80,0|2,0:0|1:2,0:0:0:0:
320,105,26058,2,0,P|298:154|285:183,1,80,0|8,0:0|0:2,0:0:0:0:
324,342,26479,2,0,P|291:298|273:272,1,80,0|0,0:0|3:2,0:0:0:0:
231,380,26900,1,0,1:2:0:0:
364,230,27111,1,8,0:2:0:0:
196,218,27321,1,0,3:2:0:0:
324,342,27532,6,0,B|365:349|365:349|415:335,1,80,6|0,1:2|0:0,0:0:0:0:
495,171,27952,2,0,P|449:165|410:160,1,80,8|0,0:2|0:0,0:0:0:0:
263,147,28373,1,0,3:2:0:0:
378,47,28584,1,0,1:2:0:0:
330,224,28794,2,0,P|270:248|206:228,1,120,8|0,0:2|0:0,0:0:0:0:
153,187,29215,6,0,P|101:195|68:200,1,80,2|0,1:2|0:0,0:0:0:0:
244,129,29636,1,8,0:2:0:0:
146,282,29846,1,0,0:0:0:0:
146,282,29952,1,0,0:0:0:0:
146,282,30057,1,0,3:2:0:0:
156,98,30267,1,0,1:2:0:0:
276,248,30478,1,8,0:2:0:0:
286,64,30688,1,0,1:2:0:0:
424,197,30899,6,0,P|412:241|405:278,1,80,2|0,1:2|0:0,0:0:0:0:
248,151,31319,1,8,0:2:0:0:
400,100,31530,1,0,0:0:0:0:
303,246,31740,1,0,3:2:0:0:
162,139,31951,2,0,P|154:100|173:49,1,80,0|8,1:2|0:2,0:0:0:0:
197,243,32372,6,0,P|137:233|108:230,1,80,0|2,0:0|1:2,0:0:0:0:
250,357,32792,2,0,P|289:352|329:344,2,80,0|8|0,0:0|0:2|0:0,0:0:0:0:
352,202,33424,1,0,3:2:0:0:
433,366,33634,1,8,0:2:0:0:
512,201,33845,1,8,0:2:0:0:
457,378,34055,1,8,1:3:0:0:
331,217,34266,6,0,B|238:247|238:247|185:231|197:173,1,179.999994506836,6|8,1:2|0:2,0:0:0:0:
397,89,34897,2,0,P|451:95|494:100,1,89.9999972534181,0|0,0:0|3:2,0:0:0:0:
407,250,35318,1,0,1:2:0:0:
294,123,35528,1,8,0:2:0:0:
187,259,35739,6,0,P|110:254|75:232,1,89.9999972534181,0|2,0:0|1:2,0:0:0:0:
130,34,36159,2,0,P|172:20|217:24,1,89.9999972534181,0|8,0:0|0:2,0:0:0:0:
371,116,36580,1,0,0:0:0:0:
128,136,36791,1,0,3:2:0:0:
277,250,37001,1,0,1:2:0:0:
319,19,37212,1,8,0:2:0:0:
158,134,37422,1,0,1:2:0:0:
360,211,37633,6,0,P|402:202|470:192,1,89.9999972534181,2|0,1:2|0:0,0:0:0:0:
269,370,38053,1,8,0:2:0:0:
154,220,38264,2,0,P|146:179|168:119,1,89.9999972534181,0|0,0:0|3:2,0:0:0:0:
264,283,38685,2,0,P|276:325|268:369,1,89.9999972534181,0|8,1:2|0:2,0:0:0:0:
12,320,39106,6,0,B|117:291|83:360|186:331,1,179.999994506836
248,142,39737,1,8,0:2:0:0:
63,217,39947,1,0,0:0:0:0:
264,283,40158,1,0,3:2:0:0:
323,85,40368,1,0,1:2:0:0:
165,219,40579,1,8,0:2:0:0:
351,193,40789,1,0,1:2:0:0:
179,46,41000,6,0,B|100:62|126:55|25:76,1,134.999995880127,2|0,1:2|0:0,0:0:0:0:
46,71,41420,1,8,0:2:0:0:
183,202,41631,2,0,P|230:209|274:191,1,89.9999972534181,0|0,0:0|3:2,0:0:0:0:
413,72,42052,1,0,1:2:0:0:
204,41,42262,1,8,0:2:0:0:
372,177,42473,6,0,P|366:223|362:276,1,89.9999972534181,0|2,0:0|1:2,0:0:0:0:
180,381,42893,2,0,P|176:336|170:291,1,89.9999972534181,0|8,0:0|0:2,0:0:0:0:
58,151,43314,1,0,0:0:0:0:
58,151,43420,1,0,0:0:0:0:
58,151,43525,1,0,3:2:0:0:
60,339,43735,1,0,1:2:0:0:
188,176,43946,1,8,0:2:0:0:
0,247,44156,1,0,1:2:0:0:
177,338,44367,6,0,B|278:313|278:313|308:339|348:337,1,179.999994506836,2|8,1:2|0:2,0:0:0:0:
473,183,44998,1,0,0:0:0:0:
278,218,45208,1,0,3:2:0:0:
465,326,45419,1,0,1:2:0:0:
366,144,45629,1,8,0:2:0:0:
264,317,45840,1,0,0:0:0:0:
212,89,46050,5,2,1:2:0:0:
378,252,46260,1,0,1:2:0:0:
316,0,46471,1,10,0:2:0:0:
150,200,46681,1,0,1:2:0:0:
437,93,46892,1,14,0:2:0:0:
437,93,47734,6,0,B|384:120|384:120|301:95,1,119.999996337891,6|0,1:2|0:0,0:0:0:0:
96,33,48154,1,10,0:2:0:0:
243,250,48365,1,8,0:0:0:0:
243,250,48470,1,8,0:2:0:0:
243,250,48575,1,0,1:2:0:0:
230,21,48786,1,0,1:2:0:0:
69,245,48996,1,8,0:0:0:0:
66,28,49207,1,2,0:0:0:0:
326,102,49417,6,0,B|350:158|350:158|331:218,1,119.999996337891,6|0,1:2|0:0,0:0:0:0:
109,357,49838,1,10,0:2:0:0:
195,133,50048,1,8,0:0:0:0:
195,133,50154,1,8,0:2:0:0:
195,133,50259,1,0,1:2:0:0:
293,311,50469,1,0,1:2:0:0:
69,245,50680,2,0,P|54:185|75:125,1,119.999996337891,8|0,0:0|1:2,0:0:0:0:
292,8,51101,5,6,1:2:0:0:
191,242,51311,1,2,0:0:0:0:
191,242,51416,1,2,0:0:0:0:
191,242,51521,2,0,P|205:323|212:370,1,119.999996337891,10|8,0:2|0:0,0:0:0:0:
303,380,51837,1,8,0:2:0:0:
303,380,51942,2,0,P|312:320|322:261,1,119.999996337891,0|0,1:2|1:2,0:0:0:0:
364,36,52363,1,8,0:0:0:0:
156,158,52574,6,0,B|0:190|0:190|68:135,1,239.999992675781,2|0,0:0|0:0,0:0:0:0:
273,1,53205,1,10,0:2:0:0:
204,285,53415,1,8,0:0:0:0:
204,285,53521,1,8,0:2:0:0:
204,285,53626,5,0,1:2:0:0:
418,93,53836,1,8,0:2:0:0:
349,377,54047,1,8,0:0:0:0:
242,110,54257,1,0,1:2:0:0:
484,266,54468,6,0,B|502:326|502:326|484:380,1,119.999996337891,6|0,1:2|0:0,0:0:0:0:
210,260,54888,1,10,0:2:0:0:
459,179,55099,1,8,0:0:0:0:
459,179,55204,1,8,0:2:0:0:
459,179,55309,1,0,1:2:0:0:
324,362,55520,1,0,1:2:0:0:
295,100,55730,1,8,0:0:0:0:
484,266,55941,1,2,0:0:0:0:
210,295,56151,6,0,P|139:346|21:244,1,239.999992675781,6|10,1:2|0:2,0:0:0:0:
270,116,56782,1,8,0:0:0:0:
270,116,56888,1,8,0:2:0:0:
270,116,56993,1,0,1:2:0:0:
335,333,57203,1,0,1:2:0:0:
130,165,57414,1,8,0:0:0:0:
391,196,57624,1,0,1:2:0:0:
214,14,57835,6,0,B|126:29|126:29|84:82|84:82|-3:100,1,239.999992675781,6|10,1:2|0:2,0:0:0:0:
229,275,58466,1,8,0:0:0:0:
229,275,58571,1,8,0:2:0:0:
229,275,58676,1,0,1:2:0:0:
344,63,58887,1,0,1:2:0:0:
106,179,59097,1,8,0:0:0:0:
337,331,59308,6,0,P|408:315|470:309,1,119.999996337891,2|6,0:0|1:2,0:0:0:0:
505,63,59728,1,8,0:0:0:0:
505,63,59834,1,8,0:0:0:0:
505,63,59939,2,0,L|425:52,3,59.9999981689454,8|8|0|0,0:0|0:0|1:2|1:0,0:0:0:0:
350,37,60360,5,8,0:2:0:0:
321,67,60465,1,8,0:0:0:0:
282,84,60570,1,0,1:2:0:0:
241,85,60675,1,0,1:0:0:0:
202,71,60781,2,0,L|127:80,1,59.9999981689454,8|8,0:2|0:2,0:0:0:0:
231,183,60991,2,0,L|290:189,1,59.9999981689454,8|4,1:3|1:3,0:0:0:0:
410,205,61202,5,4,1:2:0:0:
192,354,61412,2,0,P|124:365|74:344,1,119.999996337891,2|8,0:0|0:2,0:0:0:0:
28,85,61833,2,0,P|84:65|142:77,1,119.999996337891,2|0,0:0|1:2,0:0:0:0:
342,254,62254,2,0,P|333:324|327:384,1,119.999996337891,2|8,0:0|0:2,0:0:0:0:
108,241,62675,6,0,B|257:205|213:294|362:248,1,239.999992675781,2|0,0:0|0:0,0:0:0:0:
485,60,63306,2,0,P|428:35|347:43,1,119.999996337891,8|0,0:2|0:0,0:0:0:0:
148,126,63727,1,0,1:2:0:0:
385,157,63937,1,2,0:0:0:0:
201,1,64148,1,8,0:2:0:0:
226,243,64358,6,0,P|215:317|207:375,1,119.999996337891,2|0,0:0|1:2,0:0:0:0:
26,186,64779,2,0,P|87:157|152:169,1,119.999996337891,2|8,0:0|0:2,0:0:0:0:
385,157,65200,2,0,P|325:161|273:133,1,119.999996337891,2|0,0:0|1:2,0:0:0:0:
478,7,65621,2,0,P|486:66|495:125,1,119.999996337891,2|8,0:0|0:2,0:0:0:0:
369,331,66042,6,0,B|228:295|279:386|119:348,1,239.999992675781,2|2,0:0|0:0,0:0:0:0:
9,162,66673,1,8,0:2:0:0:
245,126,66883,2,0,P|275:181|268:240,1,119.999996337891,2|0,0:0|1:2,0:0:0:0:
33,281,67304,1,2,0:0:0:0:
141,39,67515,1,8,0:2:0:0:
183,35,67620,1,8,0:2:0:0:
225,30,67725,1,8,0:2:0:0:
266,26,67830,1,8,0:2:0:0:
308,21,67935,5,4,1:2:0:0:
478,191,68146,2,0,P|427:219|343:208,1,119.999996337891,2|8,0:0|0:2,0:0:0:0:
127,135,68567,2,0,P|186:133|238:161,1,119.999996337891,2|0,0:0|1:2,0:0:0:0:
49,329,68988,2,0,B|28:272|28:272|52:212,1,119.999996337891,2|8,0:0|0:2,0:0:0:0:
319,114,69409,6,0,B|354:241|354:241|322:288|258:270,1,239.999992675781,2|0,0:0|0:0,0:0:0:0:
102,26,70040,2,0,B|166:34|146:31|222:40,1,119.999996337891,8|0,0:2|0:0,0:0:0:0:
449,174,70461,1,0,1:2:0:0:
166,226,70671,1,2,0:0:0:0:
364,16,70882,1,8,0:2:0:0:
353,291,71092,1,2,0:0:0:0:
166,34,71303,5,14,0:2:0:0:
116,341,71513,1,0,1:2:0:0:
333,70,71723,1,10,0:2:0:0:
283,377,71933,1,0,1:2:0:0:
108,117,72144,5,14,0:2:0:0:
400,227,72355,1,0,1:2:0:0:
102,317,72565,1,10,0:2:0:0:
303,77,72776,1,0,1:2:0:0:
1,171,72986,5,14,0:2:0:0:
274,346,73197,1,0,1:2:0:0:
198,31,73407,1,14,0:2:0:0:
69,327,73617,1,0,1:2:0:0:
363,160,73828,5,14,0:2:0:0:
29,191,74038,1,0,1:2:0:0:
306,47,74249,1,8,1:3:0:0:
183,293,74459,1,4,1:3:0:0:
97,32,74670,6,0,B|43:45|53:43|0:56,1,100,6|0,1:2|0:0,0:0:0:0:
4,146,75301,2,0,B|58:159|48:157|101:170,1,100,2|0,0:0|0:0,0:0:0:0:
188,192,75932,1,0,0:0:0:0:
253,130,76143,2,0,B|346:115|319:164|406:148,1,150,2|0,0:0|0:0,0:0:0:0:
482,119,76984,1,0,0:0:0:0:
510,204,77195,2,0,P|495:233|486:260,2,50,2|0|0,0:0|0:0|0:0,0:0:0:0:
427,43,78037,6,0,P|385:63|330:43,1,100,2|0,0:0|0:0,0:0:0:0:
250,19,78668,2,0,P|203:28|191:31,1,50,2|0,0:0|0:0,0:0:0:0:
174,114,79089,2,0,P|198:119|223:123,1,50
299,171,79510,6,0,B|280:260|283:242|268:328,1,150,2|0,0:0|0:0,0:0:0:0:
190,360,80351,1,0,0:0:0:0:
111,315,80562,2,0,P|79:317|55:307,1,50,2|0,0:0|0:0,0:0:0:0:
24,229,80983,2,0,P|47:222|72:225,1,50
161,239,81404,6,0,B|172:185|184:126,1,100,2|0,0:0|0:0,0:0:0:0:
237,70,82035,2,0,P|285:91|337:80,1,100,2|0,0:0|0:0,0:0:0:0:
412,46,82666,1,0,0:0:0:0:
469,110,82875,6,0,P|459:165|454:220,2,100,2|0|0,0:0|0:0|0:0,0:0:0:0:
412,46,83965,2,0,P|372:43|344:46,1,50,2|0,0:0|0:0,0:0:0:0:
285,75,84414,1,0,0:0:0:0:
343,136,84685,2,0,P|336:167|329:190,1,40,2|0,0:0|0:0,0:0:0:0:
253,203,85092,6,0,P|194:187|146:222,1,110.000003356934,2|0,0:0|0:0,0:0:0:0:
116,282,85810,2,0,P|124:320|132:353,1,69.9999978637696,2|0,0:0|0:0,0:0:0:0:
210,381,86331,1,2,0:0:0:0:
272,334,86628,2,0,P|326:328|373:351,1,100,2|0,0:0|0:0,0:0:0:0:
455,248,87224,6,0,B|533:185|547:53|457:-50|368:106|452:146,1,359.999989013672,2|0,0:0|0:0,0:0:0:0:
