osu file format v14

[General]
AudioFilename: audio.mp3
AudioLeadIn: 0
PreviewTime: 46366
Countdown: 0
SampleSet: Soft
StackLeniency: 0.7
Mode: 0
LetterboxInBreaks: 0
WidescreenStoryboard: 1

[Editor]
Bookmarks: 14418,75028
DistanceSpacing: 1.3
BeatDivisor: 4
GridSize: 4
TimelineZoom: 2.4

[Metadata]
Title:Angel With A Shotgun (Sped Up Ver.)
TitleUnicode:Angel With A Shotgun (Sped Up Ver.)
Artist:The Cab
ArtistUnicode:The Cab
Creator:Sotarks
Version:A r M i N's Extra
Source:
Tags:speed up version cut short english pop symphony soldier armin a_r_m_i_n akitoshi corinn -laura- ayyri eiri- browiec fieryrage kowari lon log_off_now log off now nevo snownino_ reform kujinn elinor eli [_eli_] nightcore mix
BeatmapID:2449781
BeatmapSetID:1174505

[Difficulty]
HPDrainRate:5.2
CircleSize:3.6
OverallDifficulty:8.7
ApproachRate:8.6
SliderMultiplier:2.2
SliderTickRate:1

[Events]
//Background and Video events
0,0,"bg.jpg"
//Break Periods
//Storyboard Layer 0 (Background)
//Storyboard Layer 1 (Fail)
//Storyboard Layer 2 (Pass)
//Storyboard Layer 3 (Foreground)
//Storyboard Layer 4 (Overlay)
//Storyboard Sound Samples

[TimingPoints]
596,420.875420875421,4,2,22,72,1,0
14064,-142.857142857143,4,2,22,72,0,0
20798,-125,4,2,22,62,0,0
34266,-111.111111111111,4,2,22,72,0,0
47734,-100,4,2,22,82,0,1
60781,-100,4,2,22,82,0,0
61202,-100,4,2,22,82,0,1
74670,-166.666666666667,4,2,22,52,0,0
74775,-166.666666666667,4,2,22,42,0,0
82875,436.205016357688,4,2,22,42,1,0
82875,-166.666666666667,4,2,22,42,0,0
83965,449.269936353426,4,2,22,42,1,0
83965,-166.666666666667,4,2,22,42,0,0
84414,542.740841248304,4,2,22,42,1,0
84685,815.771583956492,4,2,22,42,1,0
85092,1000,4,2,22,42,1,0
85592,437.956204379562,4,2,22,42,1,0
85810,521.739130434783,4,2,22,42,1,0
85810,-166.666666666667,4,2,22,42,0,0
86331,594.059405940594,4,2,22,42,1,0
86331,-166.666666666667,4,2,22,42,0,0
86628,685.714285714286,4,2,22,42,1,0
86970,508.474576271186,4,2,22,42,1,0
87224,491.803278688525,4,2,22,42,1,0
87224,-200,4,2,22,42,0,0

[Colours]
Combo1 : 81,136,125
Combo2 : 255,206,250
Combo3 : 253,255,206

[HitObjects]
301,50,14064,6,0,L|225:36,1,76.9999976501466,4|0,1:3|0:0,0:0:0:0:
159,115,14484,2,0,L|172:190,1,76.9999976501466,4|0,1:3|0:0,0:0:0:0:
101,334,14905,2,0,P|159:379|232:364,1,153.999995300293,8|0,0:0|0:0,0:0:0:0:
282,274,15537,1,8,1:3:0:0:
369,328,15747,2,0,L|444:314,1,76.9999976501466
500,228,16168,2,0,L|424:214,1,76.9999976501466,4|0,1:3|0:0,0:0:0:0:
293,125,16589,1,8,0:0:0:0:
338,269,16799,1,0,0:0:0:0:
413,95,17010,1,0,0:0:0:0:
250,218,17220,1,0,0:0:0:0:
437,290,17431,6,0,L|423:214,1,76.9999976501466,4|0,1:3|0:0,0:0:0:0:
338,269,17851,2,0,L|351:344,1,76.9999976501466,4|0,1:3|0:0,0:0:0:0:
250,218,18272,2,0,L|98:191,1,153.999995300293,8|0,0:0|0:0,0:0:0:0:
39,109,18904,1,8,1:3:0:0:
117,46,19114,2,0,L|192:59,1,76.9999976501466
279,5,19535,2,0,P|324:63|309:136,1,153.999995300293,4|8,1:3|0:0,0:0:0:0:
223,188,20166,1,0,0:0:0:0:
285,266,20377,2,0,L|271:341,1,76.9999976501466
432,373,20798,6,0,L|415:286,1,88,6|0,1:2|0:0,0:0:0:0:
484,90,21218,1,8,0:2:0:0:
348,209,21429,1,0,0:0:0:0:
417,13,21639,1,0,3:2:0:0:
501,229,21850,1,0,1:2:0:0:
326,91,22060,2,0,L|239:107,1,88,8|0,0:2|0:0,0:0:0:0:
331,295,22481,6,0,L|347:208,1,88,2|0,1:2|0:0,0:0:0:0:
248,353,22902,1,8,0:2:0:0:
434,270,23112,1,0,0:0:0:0:
258,160,23323,1,0,3:2:0:0:
369,376,23533,1,0,1:2:0:0:
461,166,23744,2,0,L|374:182,1,88,8|0,0:2|1:2,0:0:0:0:
171,99,24165,6,0,L|155:186,1,88,2|0,1:2|0:0,0:0:0:0:
321,306,24585,1,8,0:2:0:0:
258,160,24796,1,0,0:0:0:0:
180,335,25006,1,0,3:2:0:0:
356,204,25217,1,0,1:2:0:0:
171,99,25427,1,8,0:2:0:0:
242,247,25638,6,0,L|258:160,1,88,0|2,0:0|1:2,0:0:0:0:
68,73,26058,2,0,L|84:160,1,88,0|8,0:0|0:2,0:0:0:0:
243,22,26479,1,0,0:0:0:0:
243,22,26585,1,0,0:0:0:0:
243,22,26690,2,0,P|291:22|338:50,1,88,0|0,3:2|1:2,0:0:0:0:
413,218,27111,1,8,0:2:0:0:
486,6,27321,1,0,3:2:0:0:
266,127,27532,6,0,L|282:214,1,88,6|0,1:2|0:0,0:0:0:0:
203,374,27952,1,8,0:2:0:0:
360,280,28163,1,0,0:0:0:0:
179,189,28373,1,0,3:2:0:0:
309,373,28584,1,0,1:2:0:0:
379,166,28794,2,0,L|292:182,1,88,8|0,0:2|0:0,0:0:0:0:
102,30,29215,6,0,P|145:28|185:47,1,88,2|0,1:2|0:0,0:0:0:0:
248,279,29636,1,8,0:2:0:0:
124,135,29846,1,0,0:0:0:0:
83,349,30057,1,0,3:2:0:0:
223,175,30267,1,0,1:2:0:0:
275,383,30478,2,0,L|188:367,1,88,8|0,0:2|1:2,0:0:0:0:
360,171,30899,6,0,B|382:204|406:220|406:220|358:327,1,176,2|8,1:2|0:2,0:0:0:0:
495,166,31530,1,0,0:0:0:0:
284,247,31740,1,0,3:2:0:0:
470,363,31951,1,0,1:2:0:0:
360,171,32161,1,8,0:2:0:0:
257,351,32372,6,0,L|344:335,1,88,0|2,0:0|1:2,0:0:0:0:
200,181,32792,1,0,0:0:0:0:
103,377,33003,2,0,B|146:323|146:323|102:223,1,176,8|0,0:2|3:2,0:0:0:0:
335,25,33634,5,8,0:2:0:0:
242,277,33845,1,8,0:2:0:0:
144,55,34055,1,8,1:3:0:0:
396,176,34266,6,0,P|378:273|364:371,1,197.99999395752,6|8,1:2|0:2,0:0:0:0:
186,246,34897,2,0,P|235:234|285:224,1,98.9999969787599,0|0,0:0|3:2,0:0:0:0:
122,355,35318,1,0,1:2:0:0:
215,139,35528,1,8,0:2:0:0:
351,354,35739,6,0,P|303:343|254:334,1,98.9999969787599,0|2,0:0|1:2,0:0:0:0:
377,146,36159,2,0,P|405:185|409:234,1,98.9999969787599,0|8,0:0|0:2,0:0:0:0:
215,139,36580,1,0,0:0:0:0:
421,39,36791,1,0,3:2:0:0:
304,224,37001,1,0,1:2:0:0:
215,20,37212,1,8,0:2:0:0:
377,146,37422,1,0,1:2:0:0:
194,235,37633,6,0,P|203:186|214:138,1,98.9999969787599,2|0,1:2|0:0,0:0:0:0:
322,270,38053,1,8,0:2:0:0:
120,312,38264,2,0,P|93:271|88:222,1,98.9999969787599,0|0,0:0|3:2,0:0:0:0:
243,39,38685,1,0,1:2:0:0:
194,235,38895,1,8,0:2:0:0:
59,70,39106,1,0,0:0:0:0:
289,155,39316,6,0,B|390:124|373:218|475:187,1,197.99999395752,2|8,1:2|0:2,0:0:0:0:
349,43,39947,1,0,0:0:0:0:
296,259,40158,1,0,3:2:0:0:
451,85,40368,1,0,1:2:0:0:
501,300,40579,1,8,0:2:0:0:
366,149,40789,1,0,1:2:0:0:
252,357,41000,6,0,P|199:380|95:299,1,197.99999395752,2|8,1:2|0:2,0:0:0:0:
146,70,41631,2,0,B|170:105|209:120|209:120|174:231,1,197.99999395752,0|0,0:0|1:2,0:0:0:0:
22,113,42262,1,8,0:2:0:0:
241,16,42473,6,0,P|289:27|337:35,1,98.9999969787599,0|2,0:0|1:2,0:0:0:0:
186,190,42893,2,0,P|177:141|166:93,1,98.9999969787599,0|8,0:0|0:2,0:0:0:0:
284,272,43314,1,0,0:0:0:0:
75,221,43525,1,0,3:2:0:0:
268,121,43735,1,0,1:2:0:0:
47,235,43946,1,8,0:2:0:0:
262,295,44156,1,0,1:2:0:0:
166,93,44367,6,0,P|150:190|136:288,1,197.99999395752,2|8,1:2|0:2,0:0:0:0:
281,151,44998,1,0,0:0:0:0:
363,346,45208,1,0,3:2:0:0:
269,122,45419,1,0,1:2:0:0:
223,335,45629,1,8,0:2:0:0:
426,205,45839,1,0,0:0:0:0:
156,87,46050,5,2,1:2:0:0:
338,342,46260,1,0,1:2:0:0:
380,39,46471,1,10,0:2:0:0:
122,263,46681,1,0,1:2:0:0:
484,99,46892,1,10,0:2:0:0:
81,7,47734,6,0,L|100:117,1,110,6|0,1:2|0:0,0:0:0:0:
306,234,48154,2,0,L|325:125,1,110,10|0,0:2|0:0,0:0:0:0:
338,89,48470,1,8,0:2:0:0:
338,89,48575,1,0,1:2:0:0:
185,207,48786,1,0,1:2:0:0:
399,286,48996,1,8,0:0:0:0:
220,106,49207,1,0,0:0:0:0:
167,344,49417,6,0,P|225:346|271:322,1,110,6|0,1:2|0:0,0:0:0:0:
105,135,49838,2,0,L|85:243,1,110,10|0,0:2|0:0,0:0:0:0:
84,288,50154,1,8,0:2:0:0:
84,288,50259,1,0,1:2:0:0:
249,162,50469,1,0,1:2:0:0:
31,65,50680,1,8,0:0:0:0:
196,270,50890,1,0,1:2:0:0:
225,0,51101,5,6,1:2:0:0:
85,243,51311,1,0,0:0:0:0:
277,92,51521,2,0,P|335:90|381:114,1,110,10|0,0:2|0:0,0:0:0:0:
399,155,51837,1,8,0:2:0:0:
399,155,51942,2,0,L|379:263,1,110,0|0,1:2|1:2,0:0:0:0:
181,384,52363,1,8,0:0:0:0:
289,194,52574,1,0,0:0:0:0:
426,354,52784,6,0,P|325:375|259:293,1,220,6|10,1:2|0:2,0:0:0:0:
413,92,53415,1,0,0:0:0:0:
413,92,53521,1,8,0:2:0:0:
413,92,53626,1,0,1:2:0:0:
359,278,53836,1,8,0:2:0:0:
260,36,54047,1,8,0:0:0:0:
499,182,54257,1,0,1:2:0:0:
245,313,54468,6,0,L|265:205,1,110,6|0,1:2|0:0,0:0:0:0:
89,81,54888,2,0,L|109:189,1,110,10|0,0:2|0:0,0:0:0:0:
123,233,55204,1,8,0:2:0:0:
123,233,55309,1,0,1:2:0:0:
271,85,55520,1,0,1:2:0:0:
350,316,55730,1,8,0:0:0:0:
159,120,55941,1,0,0:0:0:0:
432,166,56151,6,0,B|320:135|338:234|226:203,1,220,6|10,1:2|0:2,0:0:0:0:
50,37,56782,1,0,0:0:0:0:
50,37,56888,1,8,0:2:0:0:
50,37,56993,1,0,1:2:0:0:
120,284,57203,1,0,1:2:0:0:
262,58,57414,1,8,0:0:0:0:
14,180,57624,1,0,1:2:0:0:
227,338,57835,6,0,B|243:300|274:278|274:278|214:144,1,220,6|10,1:2|0:2,0:0:0:0:
423,27,58466,1,0,0:0:0:0:
423,27,58571,1,8,0:2:0:0:
423,27,58676,2,0,L|403:135,1,110,0|0,1:2|1:2,0:0:0:0:
152,259,59097,1,8,0:0:0:0:
316,41,59308,1,0,0:0:0:0:
403,301,59518,5,6,1:2:0:0:
305,142,59728,1,8,0:0:0:0:
305,142,59834,1,8,0:0:0:0:
305,142,59939,2,0,L|251:152,1,55,8|8,0:0|0:0,0:0:0:0:
101,288,60149,1,4,1:2:0:0:
198,62,60360,1,8,0:2:0:0:
318,246,60570,1,4,1:2:0:0:
450,33,60781,5,8,0:2:0:0:
444,66,60886,1,8,0:2:0:0:
438,98,60991,1,8,1:3:0:0:
432,131,61096,1,4,1:3:0:0:
425,163,61202,6,0,L|405:55,1,110,4|0,1:2|0:0,0:0:0:0:
202,192,61622,1,8,0:2:0:0:
430,298,61833,1,0,0:0:0:0:
304,88,62043,1,0,1:2:0:0:
218,332,62254,1,0,0:0:0:0:
314,57,62464,1,8,0:2:0:0:
460,306,62675,1,0,0:0:0:0:
198,85,62885,6,0,P|134:70|40:179,1,220,0|8,1:2|0:2,0:0:0:0:
218,332,63516,1,0,0:0:0:0:
294,120,63727,1,0,1:2:0:0:
99,256,63937,1,0,0:0:0:0:
339,333,64148,1,8,0:2:0:0:
205,48,64358,6,0,L|185:156,1,110,0|4,0:0|1:2,0:0:0:0:
0,282,64779,1,0,0:0:0:0:
97,83,64989,1,8,0:2:0:0:
216,266,65200,2,0,P|161:268|112:244,1,110,0|0,0:0|1:2,0:0:0:0:
293,120,65621,1,0,0:0:0:0:
340,334,65831,1,8,0:2:0:0:
185,156,66042,6,0,L|205:48,1,110,0|0,0:0|1:2,0:0:0:0:
409,189,66462,1,0,0:0:0:0:
216,266,66673,1,8,0:2:0:0:
321,5,66883,2,0,L|341:113,1,110,0|0,0:0|1:2,0:0:0:0:
450,307,67304,1,0,0:0:0:0:
258,173,67515,1,8,0:2:0:0:
225,161,67620,1,8,0:2:0:0:
190,162,67725,1,8,0:2:0:0:
158,178,67830,1,8,0:2:0:0:
135,205,67936,6,0,L|155:313,1,110,4|0,1:2|0:0,0:0:0:0:
23,143,68356,1,8,0:2:0:0:
235,243,68567,1,0,0:0:0:0:
18,344,68777,1,0,1:2:0:0:
175,87,68988,1,0,0:0:0:0:
269,363,69198,1,8,0:2:0:0:
51,163,69409,1,0,0:0:0:0:
285,56,69619,6,0,B|298:95|332:118|332:118|268:244,1,220,4|8,1:2|0:2,0:0:0:0:
45,322,70250,1,0,0:0:0:0:
203,134,70461,1,0,1:2:0:0:
255,350,70671,1,0,0:0:0:0:
100,108,70882,1,8,0:2:0:0:
18,357,71092,1,0,0:0:0:0:
204,79,71303,5,12,0:2:0:0:
285,372,71513,1,0,1:2:0:0:
304,41,71723,5,8,0:2:0:0:
189,327,71934,1,0,1:2:0:0:
115,16,72144,5,12,0:2:0:0:
413,164,72355,1,0,1:2:0:0:
76,184,72565,5,8,0:2:0:0:
356,23,72776,1,0,1:2:0:0:
274,320,72986,5,12,0:2:0:0:
131,21,73196,1,0,1:2:0:0:
110,339,73407,5,12,0:2:0:0:
242,57,73617,1,0,1:2:0:0:
343,354,73828,5,12,0:2:0:0:
142,194,74038,1,0,1:2:0:0:
391,125,74249,1,8,1:3:0:0:
227,306,74459,1,4,1:3:0:0:
146,59,74670,6,0,P|209:47|260:85,1,131.99999597168,6|0,1:2|0:0,0:0:0:0:
283,185,75301,2,0,P|267:249|253:313,1,131.99999597168,2|0,0:0|0:0,0:0:0:0:
157,274,75932,1,0,0:0:0:0:
89,352,76143,1,2,0:0:0:0:
65,225,76353,6,0,P|103:180|172:170,1,131.99999597168
255,230,76984,1,0,0:0:0:0:
340,169,77195,2,0,P|346:201|352:233,1,65.9999979858399,2|0,0:0|0:0,0:0:0:0:
440,286,77616,2,0,P|449:231|462:155,1,131.99999597168,0|2,0:0|0:0,0:0:0:0:
335,49,78457,5,0,0:0:0:0:
335,49,78668,2,0,P|291:61|256:69,1,65.9999979858399,2|0,0:0|0:0,0:0:0:0:
208,146,79089,2,0,P|175:138|144:129,1,65.9999979858399
76,206,79510,2,0,P|87:264|99:339,1,131.99999597168,2|0,0:0|0:0,0:0:0:0:
261,274,80351,5,0,0:0:0:0:
261,274,80562,2,0,P|266:231|271:194,1,65.9999979858399,2|0,0:0|0:0,0:0:0:0:
356,155,80983,2,0,P|363:187|370:219,1,65.9999979858399
458,272,81404,6,0,P|498:222|488:158,1,131.99999597168,2|0,0:0|0:0,0:0:0:0:
398,116,82035,2,0,P|340:127|265:139,1,131.99999597168,2|0,0:0|0:0,0:0:0:0:
184,81,82666,1,0,0:0:0:0:
125,165,82875,2,0,P|116:228|152:282,1,131.99999597168,2|0,0:0|0:0,0:0:0:0:
321,240,83746,5,0,0:0:0:0:
321,240,83965,2,0,P|326:203|331:170,1,65.9999979858399,2|0,0:0|0:0,0:0:0:0:
404,102,84413,1,2,0:0:0:0:
404,102,84685,2,0,P|361:63|310:67,1,110,2|2,0:0|0:0,0:0:0:0:
88,22,85591,5,0,0:0:0:0:
88,22,85810,2,0,P|98:62|104:93,1,65.9999979858399,2|0,0:0|0:0,0:0:0:0:
196,155,86330,1,2,0:0:0:0:
196,155,86628,2,0,P|183:216|175:275,1,110,2|0,0:0|0:0,0:0:0:0:
242,350,87223,1,2,0:0:0:0:
256,192,87345,12,0,88698,0:0:0:0:
