osu file format v14

[General]
AudioFilename: audio.mp3
AudioLeadIn: 0
PreviewTime: 46766
Countdown: 0
SampleSet: Normal
StackLeniency: 0
Mode: 1
LetterboxInBreaks: 0
WidescreenStoryboard: 1

[Editor]
Bookmarks: 14408,21143,34612,48081,68284,81753,95222,115426,150782,177720
DistanceSpacing: 1.5
BeatDivisor: 4
GridSize: 32
TimelineZoom: 1.7

[Metadata]
Title:Angel With A Shotgun (Sped Up Ver.)
TitleUnicode:Angel With A Shotgun (Sped Up Ver.)
Artist:The Cab
ArtistUnicode:The Cab
Creator:Chromoxx
Version:Taiko Muzukashii
Source:
Tags:chromo-don genjuro rock nightcore remix electronic english symphony soldier
BeatmapID:3669620
BeatmapSetID:1776788

[Difficulty]
HPDrainRate:6
CircleSize:2
OverallDifficulty:4.5
ApproachRate:10
SliderMultiplier:1.4
SliderTickRate:1

[Events]
//Background and Video events
0,0,"Shotgun.jpg",0,70
//Break Periods
2,142564,146964
//Storyboard Layer 0 (Background)
//Storyboard Layer 1 (Fail)
//Storyboard Layer 2 (Pass)
//Storyboard Layer 3 (Foreground)
//Storyboard Layer 4 (Overlay)
//Storyboard Sound Samples

[TimingPoints]
940,420.904945633111,4,1,0,100,1,0
48081,-100,4,1,0,100,0,1
68284,-100,4,1,0,100,0,0
95222,-100,4,1,0,100,0,1
115426,-100,4,1,0,100,0,0
150782,-100,4,1,0,100,0,1
177720,-100,4,1,0,100,0,0

[HitObjects]
203,204,14408,5,0,0:0:0:0:
239,180,14829,1,0,0:0:0:0:
239,180,15250,1,8,0:0:0:0:
239,180,15882,1,0,0:0:0:0:
239,180,16513,1,0,0:0:0:0:
239,180,16934,1,8,0:0:0:0:
239,221,17776,1,0,0:0:0:0:
239,221,18197,1,0,0:0:0:0:
239,221,18618,1,8,0:0:0:0:
239,221,19249,1,0,0:0:0:0:
239,221,19880,1,0,0:0:0:0:
239,221,20301,1,8,0:0:0:0:
240,205,21143,1,0,0:0:0:0:
240,205,21564,1,8,0:0:0:0:
240,205,22195,1,0,0:0:0:0:
240,205,22406,1,8,0:0:0:0:
318,237,22827,1,0,0:0:0:0:
318,237,23247,1,8,0:0:0:0:
318,237,23458,1,0,0:0:0:0:
207,102,23879,1,0,0:0:0:0:
207,102,24089,1,8,0:0:0:0:
207,102,24300,1,0,0:0:0:0:
280,187,24510,1,0,0:0:0:0:
330,191,24931,1,8,0:0:0:0:
330,191,25142,1,0,0:0:0:0:
330,191,25562,1,0,0:0:0:0:
330,191,25773,1,8,0:0:0:0:
330,191,26194,1,0,0:0:0:0:
253,250,26615,1,8,0:0:0:0:
253,250,26825,1,0,0:0:0:0:
341,200,27246,1,0,0:0:0:0:
341,200,27457,1,8,0:0:0:0:
341,200,27667,1,8,0:0:0:0:
341,200,27877,1,0,0:0:0:0:
170,255,28298,1,8,0:0:0:0:
240,205,28930,1,0,0:0:0:0:
240,205,29140,1,8,0:0:0:0:
318,237,29561,1,0,0:0:0:0:
318,237,29982,1,8,0:0:0:0:
318,237,30192,1,0,0:0:0:0:
207,102,30613,1,0,0:0:0:0:
207,102,30824,1,8,0:0:0:0:
207,102,31034,1,0,0:0:0:0:
280,187,31245,1,0,0:0:0:0:
330,191,31666,1,8,0:0:0:0:
330,191,31876,1,0,0:0:0:0:
330,191,32297,1,0,0:0:0:0:
330,191,32507,1,8,0:0:0:0:
330,191,32928,1,0,0:0:0:0:
253,250,33349,1,8,0:0:0:0:
253,250,33560,1,0,0:0:0:0:
341,200,33981,1,0,0:0:0:0:
341,200,34191,1,8,0:0:0:0:
341,200,34401,1,8,0:0:0:0:
341,200,34612,1,0,0:0:0:0:
170,255,35033,1,8,0:0:0:0:
178,231,35454,1,0,0:0:0:0:
178,231,35664,1,0,0:0:0:0:
178,231,35875,1,8,0:0:0:0:
178,231,36296,1,0,0:0:0:0:
178,231,36716,1,8,0:0:0:0:
255,297,37137,1,0,0:0:0:0:
216,283,37348,1,0,0:0:0:0:
216,283,37558,1,8,0:0:0:0:
255,297,37769,1,0,0:0:0:0:
255,297,37979,1,0,0:0:0:0:
216,283,38400,1,8,0:0:0:0:
311,210,38821,1,0,0:0:0:0:
311,210,39031,1,0,0:0:0:0:
311,210,39242,1,8,0:0:0:0:
311,210,39663,1,0,0:0:0:0:
311,210,40084,1,8,0:0:0:0:
311,210,40294,1,8,0:0:0:0:
311,210,40505,1,0,0:0:0:0:
311,210,40715,1,0,0:0:0:0:
311,210,40925,1,8,0:0:0:0:
311,210,41136,1,8,0:0:0:0:
311,210,41346,1,0,0:0:0:0:
190,237,41767,1,8,0:0:0:0:
190,237,42188,1,0,0:0:0:0:
190,237,42399,1,0,0:0:0:0:
190,237,42609,1,8,0:0:0:0:
190,237,43030,1,0,0:0:0:0:
190,237,43451,1,8,0:0:0:0:
190,237,43872,1,0,0:0:0:0:
190,237,44082,1,0,0:0:0:0:
190,237,44293,1,8,0:0:0:0:
190,237,44503,1,0,0:0:0:0:
190,237,44714,1,0,0:0:0:0:
190,237,45135,1,8,0:0:0:0:
190,237,45555,1,0,0:0:0:0:
190,237,45766,1,0,0:0:0:0:
190,237,45976,1,8,0:0:0:0:
248,289,46397,1,0,0:0:0:0:
248,289,46608,1,0,0:0:0:0:
248,289,46818,1,8,0:0:0:0:
248,289,47029,1,0,0:0:0:0:
248,289,47239,1,8,0:0:0:0:
335,222,48081,1,4,0:0:0:0:
191,122,48502,1,8,0:0:0:0:
191,122,48923,1,0,0:0:0:0:
240,112,49133,1,0,0:0:0:0:
240,112,49344,1,8,0:0:0:0:
251,195,49554,1,0,0:0:0:0:
240,112,49764,1,0,0:0:0:0:
240,112,50185,1,8,0:0:0:0:
155,178,50606,1,8,0:0:0:0:
232,130,50817,1,0,0:0:0:0:
232,130,51027,1,8,0:0:0:0:
331,248,51238,1,8,0:0:0:0:
244,141,51448,1,0,0:0:0:0:
244,141,51869,1,8,0:0:0:0:
224,190,52079,1,0,0:0:0:0:
224,190,52185,1,0,0:0:0:0:
244,141,52290,1,0,0:0:0:0:
244,141,52500,1,0,0:0:0:0:
170,180,52711,1,8,0:0:0:0:
331,248,52921,1,0,0:0:0:0:
268,178,53132,1,0,0:0:0:0:
295,234,53553,1,8,0:0:0:0:
193,178,53763,1,8,0:0:0:0:
193,178,53868,1,8,0:0:0:0:
193,178,53974,1,8,0:0:0:0:
193,178,54184,1,0,0:0:0:0:
193,178,54394,1,8,0:0:0:0:
193,178,54605,1,8,0:0:0:0:
193,178,54815,1,0,0:0:0:0:
318,173,55236,1,8,0:0:0:0:
318,173,55657,1,0,0:0:0:0:
318,173,55868,1,0,0:0:0:0:
318,173,56078,1,8,0:0:0:0:
318,173,56289,1,0,0:0:0:0:
318,173,56499,1,0,0:0:0:0:
226,216,56920,1,8,0:0:0:0:
272,258,57341,1,8,0:0:0:0:
272,258,57551,1,0,0:0:0:0:
272,258,57762,1,8,0:0:0:0:
272,258,57972,1,8,0:0:0:0:
272,258,58183,1,0,0:0:0:0:
272,258,58603,1,8,0:0:0:0:
249,108,58814,1,0,0:0:0:0:
249,108,58919,1,0,0:0:0:0:
225,112,59024,1,0,0:0:0:0:
225,112,59235,1,0,0:0:0:0:
225,112,59445,1,8,0:0:0:0:
225,112,59656,1,8,0:0:0:0:
225,112,59866,1,0,0:0:0:0:
286,207,60287,1,8,0:0:0:0:
286,207,60498,1,8,0:0:0:0:
286,207,60603,1,8,0:0:0:0:
267,197,60708,1,8,0:0:0:0:
267,197,60918,1,0,0:0:0:0:
267,197,61129,1,8,0:0:0:0:
22,149,61234,1,8,0:0:0:0:
267,197,61339,1,8,0:0:0:0:
267,197,61550,1,0,0:0:0:0:
269,156,61760,1,8,0:0:0:0:
269,156,62181,1,8,0:0:0:0:
269,156,62602,1,8,0:0:0:0:
190,247,63023,1,8,0:0:0:0:
190,247,63233,1,0,0:0:0:0:
190,247,63654,1,8,0:0:0:0:
261,210,63865,1,0,0:0:0:0:
261,210,63970,1,0,0:0:0:0:
307,239,64075,1,0,0:0:0:0:
307,239,64286,1,0,0:0:0:0:
307,239,64496,1,8,0:0:0:0:
307,239,64707,1,0,0:0:0:0:
275,152,64917,1,0,0:0:0:0:
298,120,65128,1,8,0:0:0:0:
298,120,65548,1,8,0:0:0:0:
298,120,65969,1,8,0:0:0:0:
298,120,66390,1,8,0:0:0:0:
298,120,66601,1,0,0:0:0:0:
325,275,67022,1,8,0:0:0:0:
325,275,67232,1,8,0:0:0:0:
325,275,67337,1,8,0:0:0:0:
203,196,67442,1,8,0:0:0:0:
203,196,67653,1,0,0:0:0:0:
203,196,67863,1,8,0:0:0:0:
203,196,68074,1,8,0:0:0:0:
203,196,68284,1,0,0:0:0:0:
240,205,68705,1,8,0:0:0:0:
240,205,69337,1,0,0:0:0:0:
240,205,69547,1,8,0:0:0:0:
318,237,69968,1,0,0:0:0:0:
318,237,70389,1,8,0:0:0:0:
318,237,70599,1,0,0:0:0:0:
207,102,71020,1,0,0:0:0:0:
207,102,71231,1,8,0:0:0:0:
207,102,71441,1,0,0:0:0:0:
280,187,71652,1,0,0:0:0:0:
330,191,72072,1,8,0:0:0:0:
330,191,72283,1,0,0:0:0:0:
330,191,72704,1,0,0:0:0:0:
330,191,72914,1,8,0:0:0:0:
330,191,73335,1,0,0:0:0:0:
253,250,73756,1,8,0:0:0:0:
253,250,73967,1,0,0:0:0:0:
341,200,74387,1,0,0:0:0:0:
341,200,74598,1,8,0:0:0:0:
341,200,74808,1,8,0:0:0:0:
341,200,75019,1,0,0:0:0:0:
170,255,75440,1,8,0:0:0:0:
240,205,76071,1,0,0:0:0:0:
240,205,76281,1,8,0:0:0:0:
318,237,76702,1,0,0:0:0:0:
318,237,77123,1,8,0:0:0:0:
318,237,77334,1,0,0:0:0:0:
207,102,77755,1,0,0:0:0:0:
207,102,77965,1,8,0:0:0:0:
207,102,78176,1,0,0:0:0:0:
280,187,78386,1,0,0:0:0:0:
330,191,78807,1,8,0:0:0:0:
330,191,79017,1,0,0:0:0:0:
330,191,79438,1,0,0:0:0:0:
330,191,79649,1,8,0:0:0:0:
330,191,80070,1,0,0:0:0:0:
253,250,80491,1,8,0:0:0:0:
253,250,80701,1,0,0:0:0:0:
341,200,81122,1,0,0:0:0:0:
341,200,81332,1,8,0:0:0:0:
341,200,81543,1,8,0:0:0:0:
341,200,81753,1,0,0:0:0:0:
170,255,82174,1,8,0:0:0:0:
178,231,82595,1,0,0:0:0:0:
178,231,82806,1,0,0:0:0:0:
178,231,83016,1,8,0:0:0:0:
178,231,83437,1,0,0:0:0:0:
178,231,83858,1,8,0:0:0:0:
255,297,84279,1,0,0:0:0:0:
216,283,84489,1,0,0:0:0:0:
216,283,84700,1,8,0:0:0:0:
255,297,84910,1,0,0:0:0:0:
255,297,85120,1,0,0:0:0:0:
216,283,85541,1,8,0:0:0:0:
311,210,85962,1,0,0:0:0:0:
311,210,86173,1,0,0:0:0:0:
311,210,86383,1,8,0:0:0:0:
311,210,86804,1,0,0:0:0:0:
311,210,87225,1,8,0:0:0:0:
311,210,87435,1,8,0:0:0:0:
311,210,87646,1,0,0:0:0:0:
311,210,87856,1,0,0:0:0:0:
311,210,88067,1,8,0:0:0:0:
311,210,88277,1,8,0:0:0:0:
311,210,88488,1,0,0:0:0:0:
190,237,88909,1,8,0:0:0:0:
190,237,89330,1,0,0:0:0:0:
190,237,89540,1,0,0:0:0:0:
190,237,89750,1,8,0:0:0:0:
190,237,90171,1,0,0:0:0:0:
190,237,90592,1,8,0:0:0:0:
190,237,91013,1,0,0:0:0:0:
190,237,91224,1,0,0:0:0:0:
190,237,91434,1,8,0:0:0:0:
190,237,91645,1,0,0:0:0:0:
190,237,91855,1,0,0:0:0:0:
190,237,92276,1,8,0:0:0:0:
190,237,92697,1,0,0:0:0:0:
190,237,92907,1,0,0:0:0:0:
190,237,93118,1,8,0:0:0:0:
248,289,93539,1,0,0:0:0:0:
248,289,93749,1,0,0:0:0:0:
248,289,93959,1,8,0:0:0:0:
248,289,94170,1,0,0:0:0:0:
248,289,94380,1,8,0:0:0:0:
335,222,95222,1,4,0:0:0:0:
191,122,95643,1,8,0:0:0:0:
191,122,96064,1,0,0:0:0:0:
240,112,96274,1,0,0:0:0:0:
240,112,96485,1,8,0:0:0:0:
251,195,96695,1,0,0:0:0:0:
240,112,96906,1,0,0:0:0:0:
240,112,97327,1,8,0:0:0:0:
155,178,97748,1,8,0:0:0:0:
232,130,97958,1,0,0:0:0:0:
232,130,98169,1,8,0:0:0:0:
331,248,98379,1,8,0:0:0:0:
244,141,98589,1,0,0:0:0:0:
244,141,99010,1,8,0:0:0:0:
224,190,99221,1,0,0:0:0:0:
224,190,99326,1,0,0:0:0:0:
244,141,99431,1,0,0:0:0:0:
244,141,99642,1,0,0:0:0:0:
170,180,99852,1,8,0:0:0:0:
331,248,100063,1,0,0:0:0:0:
268,178,100273,1,0,0:0:0:0:
295,234,100694,1,8,0:0:0:0:
193,178,100904,1,8,0:0:0:0:
193,178,101010,1,8,0:0:0:0:
193,178,101115,1,8,0:0:0:0:
193,178,101325,1,0,0:0:0:0:
193,178,101536,1,8,0:0:0:0:
193,178,101746,1,8,0:0:0:0:
193,178,101957,1,0,0:0:0:0:
318,173,102378,1,8,0:0:0:0:
318,173,102798,1,0,0:0:0:0:
318,173,103009,1,0,0:0:0:0:
318,173,103219,1,8,0:0:0:0:
318,173,103430,1,0,0:0:0:0:
318,173,103640,1,0,0:0:0:0:
226,216,104061,1,8,0:0:0:0:
272,258,104482,1,8,0:0:0:0:
272,258,104693,1,0,0:0:0:0:
272,258,104903,1,8,0:0:0:0:
272,258,105113,1,8,0:0:0:0:
272,258,105324,1,0,0:0:0:0:
272,258,105745,1,8,0:0:0:0:
249,108,105955,1,0,0:0:0:0:
249,108,106061,1,0,0:0:0:0:
225,112,106166,1,0,0:0:0:0:
225,112,106376,1,0,0:0:0:0:
225,112,106587,1,8,0:0:0:0:
225,112,106797,1,8,0:0:0:0:
225,112,107008,1,0,0:0:0:0:
286,207,107428,1,8,0:0:0:0:
286,207,107639,1,8,0:0:0:0:
286,207,107744,1,8,0:0:0:0:
267,197,107849,1,8,0:0:0:0:
267,197,108060,1,0,0:0:0:0:
267,197,108270,1,8,0:0:0:0:
22,149,108375,1,8,0:0:0:0:
267,197,108481,1,8,0:0:0:0:
267,197,108691,1,0,0:0:0:0:
269,156,108902,1,8,0:0:0:0:
269,156,109323,1,8,0:0:0:0:
269,156,109743,1,8,0:0:0:0:
190,247,110164,1,8,0:0:0:0:
190,247,110375,1,0,0:0:0:0:
190,247,110796,1,8,0:0:0:0:
261,210,111006,1,0,0:0:0:0:
261,210,111111,1,0,0:0:0:0:
307,239,111217,1,0,0:0:0:0:
307,239,111427,1,0,0:0:0:0:
307,239,111638,1,8,0:0:0:0:
307,239,111848,1,0,0:0:0:0:
275,152,112058,1,0,0:0:0:0:
298,120,112269,1,8,0:0:0:0:
298,120,112690,1,8,0:0:0:0:
298,120,113111,1,8,0:0:0:0:
298,120,113532,1,8,0:0:0:0:
298,120,113742,1,0,0:0:0:0:
325,275,114163,1,8,0:0:0:0:
325,275,114373,1,8,0:0:0:0:
325,275,114479,1,8,0:0:0:0:
203,196,114584,1,8,0:0:0:0:
203,196,114794,1,0,0:0:0:0:
203,196,115005,1,8,0:0:0:0:
203,196,115215,1,8,0:0:0:0:
203,196,115426,1,0,0:0:0:0:
272,119,116267,1,8,0:0:0:0:
153,182,117109,1,0,0:0:0:0:
278,221,117530,1,8,0:0:0:0:
256,172,117741,1,0,0:0:0:0:
256,172,118162,1,0,0:0:0:0:
256,172,118372,1,8,0:0:0:0:
275,180,118582,1,8,0:0:0:0:
256,172,118793,1,0,0:0:0:0:
275,180,119214,1,8,0:0:0:0:
275,180,119635,1,0,0:0:0:0:
275,180,119845,1,0,0:0:0:0:
275,180,120056,1,8,0:0:0:0:
275,180,120477,1,0,0:0:0:0:
320,184,120897,1,8,0:0:0:0:
275,180,121318,1,0,0:0:0:0:
240,93,121529,1,8,0:0:0:0:
240,93,121634,1,8,0:0:0:0:
223,93,121739,1,8,0:0:0:0:
223,93,121950,1,0,0:0:0:0:
223,93,122055,1,0,0:0:0:0:
173,74,122160,1,0,0:0:0:0:
272,119,123002,1,8,0:0:0:0:
153,182,123844,1,0,0:0:0:0:
278,221,124265,1,8,0:0:0:0:
256,172,124475,1,0,0:0:0:0:
256,172,124896,1,0,0:0:0:0:
256,172,125106,1,8,0:0:0:0:
275,180,125317,1,8,0:0:0:0:
256,172,125527,1,0,0:0:0:0:
275,180,125948,1,8,0:0:0:0:
275,180,126369,1,0,0:0:0:0:
275,180,126580,1,0,0:0:0:0:
275,180,126790,1,8,0:0:0:0:
275,180,127211,1,0,0:0:0:0:
320,184,127632,1,8,0:0:0:0:
275,180,128053,1,0,0:0:0:0:
240,93,128263,1,8,0:0:0:0:
240,93,128368,1,8,0:0:0:0:
223,93,128474,1,8,0:0:0:0:
223,93,128684,1,0,0:0:0:0:
223,93,128789,1,0,0:0:0:0:
173,74,128895,1,0,0:0:0:0:
306,216,129736,1,8,0:0:0:0:
357,186,130157,1,0,0:0:0:0:
357,186,130578,1,8,0:0:0:0:
267,182,130999,1,0,0:0:0:0:
267,182,131210,1,8,0:0:0:0:
267,182,131420,1,0,0:0:0:0:
214,136,131841,1,8,0:0:0:0:
214,136,132051,1,0,0:0:0:0:
214,136,132157,1,0,0:0:0:0:
214,136,132262,1,0,0:0:0:0:
352,206,132683,1,8,0:0:0:0:
264,153,133104,1,0,0:0:0:0:
265,141,133314,1,8,0:0:0:0:
246,131,133419,1,8,0:0:0:0:
220,125,133525,1,8,0:0:0:0:
246,131,133735,1,0,0:0:0:0:
246,131,133840,1,0,0:0:0:0:
227,128,133945,1,0,0:0:0:0:
250,189,134366,1,8,0:0:0:0:
250,189,134787,1,0,0:0:0:0:
250,189,134998,1,0,0:0:0:0:
283,181,135208,1,8,0:0:0:0:
283,181,135313,1,8,0:0:0:0:
241,157,135419,1,8,0:0:0:0:
241,157,135629,1,0,0:0:0:0:
420,178,136050,1,8,0:0:0:0:
344,127,136366,1,8,0:0:0:0:
325,126,136681,1,0,0:0:0:0:
318,124,136892,1,8,0:0:0:0:
234,203,137313,1,0,0:0:0:0:
374,306,137523,1,0,0:0:0:0:
251,219,137734,1,8,0:0:0:0:
251,219,138049,1,0,0:0:0:0:
251,219,138365,1,0,0:0:0:0:
251,219,138575,1,8,0:0:0:0:
213,221,138996,1,0,0:0:0:0:
364,250,139207,1,0,0:0:0:0:
213,221,139417,1,8,0:0:0:0:
213,221,139733,1,8,0:0:0:0:
213,221,140049,1,0,0:0:0:0:
213,221,140259,1,8,0:0:0:0:
158,99,140680,1,0,0:0:0:0:
163,210,141101,1,8,0:0:0:0:
163,210,141311,1,8,0:0:0:0:
163,210,141522,1,0,0:0:0:0:
163,210,141732,1,0,0:0:0:0:
163,210,141943,1,8,0:0:0:0:
282,220,142048,1,8,0:0:0:0:
282,220,142153,1,8,0:0:0:0:
252,208,142364,1,0,0:0:0:0:
256,192,147414,12,0,149098,0:0:0:0:
335,222,150782,5,4,0:0:0:0:
191,122,151203,1,8,0:0:0:0:
191,122,151623,1,0,0:0:0:0:
240,112,151834,1,0,0:0:0:0:
240,112,152044,1,8,0:0:0:0:
251,195,152255,1,0,0:0:0:0:
240,112,152465,1,0,0:0:0:0:
240,112,152886,1,8,0:0:0:0:
155,178,153307,1,8,0:0:0:0:
232,130,153518,1,0,0:0:0:0:
232,130,153728,1,8,0:0:0:0:
331,248,153938,1,8,0:0:0:0:
244,141,154149,1,0,0:0:0:0:
244,141,154570,1,8,0:0:0:0:
224,190,154780,1,0,0:0:0:0:
224,190,154885,1,0,0:0:0:0:
244,141,154991,1,0,0:0:0:0:
244,141,155201,1,0,0:0:0:0:
170,180,155412,1,8,0:0:0:0:
331,248,155622,1,0,0:0:0:0:
268,178,155833,1,0,0:0:0:0:
295,234,156253,1,8,0:0:0:0:
193,178,156464,1,8,0:0:0:0:
193,178,156569,1,8,0:0:0:0:
193,178,156674,1,8,0:0:0:0:
193,178,156885,1,0,0:0:0:0:
193,178,157095,1,8,0:0:0:0:
193,178,157306,1,8,0:0:0:0:
193,178,157516,1,0,0:0:0:0:
318,173,157937,1,8,0:0:0:0:
318,173,158358,1,0,0:0:0:0:
318,173,158568,1,0,0:0:0:0:
318,173,158779,1,8,0:0:0:0:
318,173,158989,1,0,0:0:0:0:
318,173,159200,1,0,0:0:0:0:
226,216,159621,1,8,0:0:0:0:
272,258,160042,1,8,0:0:0:0:
272,258,160252,1,0,0:0:0:0:
272,258,160462,1,8,0:0:0:0:
272,258,160673,1,8,0:0:0:0:
272,258,160883,1,0,0:0:0:0:
272,258,161304,1,8,0:0:0:0:
249,108,161515,1,0,0:0:0:0:
249,108,161620,1,0,0:0:0:0:
225,112,161725,1,0,0:0:0:0:
225,112,161936,1,0,0:0:0:0:
225,112,162146,1,8,0:0:0:0:
225,112,162357,1,8,0:0:0:0:
225,112,162567,1,0,0:0:0:0:
286,207,162988,1,8,0:0:0:0:
286,207,163198,1,8,0:0:0:0:
286,207,163304,1,8,0:0:0:0:
267,197,163409,1,8,0:0:0:0:
267,197,163619,1,0,0:0:0:0:
267,197,163830,1,8,0:0:0:0:
22,149,163935,1,8,0:0:0:0:
267,197,164040,1,8,0:0:0:0:
267,197,164251,1,0,0:0:0:0:
269,156,164461,1,8,0:0:0:0:
269,156,164882,1,8,0:0:0:0:
269,156,165303,1,8,0:0:0:0:
190,247,165724,1,8,0:0:0:0:
190,247,165934,1,0,0:0:0:0:
190,247,166355,1,8,0:0:0:0:
261,210,166566,1,0,0:0:0:0:
261,210,166671,1,0,0:0:0:0:
307,239,166776,1,0,0:0:0:0:
307,239,166987,1,0,0:0:0:0:
307,239,167197,1,8,0:0:0:0:
307,239,167407,1,0,0:0:0:0:
275,152,167618,1,0,0:0:0:0:
298,120,167828,1,8,0:0:0:0:
298,120,168249,1,8,0:0:0:0:
298,120,168670,1,8,0:0:0:0:
298,120,169091,1,8,0:0:0:0:
298,120,169301,1,0,0:0:0:0:
325,275,169722,1,8,0:0:0:0:
325,275,169933,1,8,0:0:0:0:
325,275,170038,1,8,0:0:0:0:
203,196,170143,1,8,0:0:0:0:
203,196,170354,1,0,0:0:0:0:
203,196,170564,1,8,0:0:0:0:
203,196,170775,1,8,0:0:0:0:
203,196,170985,1,0,0:0:0:0:
195,153,171196,1,8,0:0:0:0:
347,109,171616,1,0,0:0:0:0:
347,109,172037,1,8,0:0:0:0:
309,227,172458,1,0,0:0:0:0:
309,227,172669,1,8,0:0:0:0:
251,164,173090,1,0,0:0:0:0:
251,164,173300,1,8,0:0:0:0:
236,187,173511,1,0,0:0:0:0:
251,164,173616,1,0,0:0:0:0:
236,187,173721,1,0,0:0:0:0:
120,170,173931,1,8,0:0:0:0:
259,207,174142,1,0,0:0:0:0:
259,207,174352,1,8,0:0:0:0:
259,207,174773,1,8,0:0:0:0:
268,230,174984,1,0,0:0:0:0:
268,230,175194,1,8,0:0:0:0:
268,230,175405,1,0,0:0:0:0:
268,230,175615,1,8,0:0:0:0:
268,230,175826,1,0,0:0:0:0:
268,230,176036,1,8,0:0:0:0:
327,123,176457,1,8,0:0:0:0:
352,165,176667,1,0,0:0:0:0:
352,165,176878,1,8,0:0:0:0:
352,165,177088,1,0,0:0:0:0:
352,165,177299,1,8,0:0:0:0:
219,118,177404,1,8,0:0:0:0:
352,165,177509,1,8,0:0:0:0:
290,170,177720,1,4,0:0:0:0:
