osu file format v14

[General]
AudioFilename: audio.mp3
AudioLeadIn: 0
PreviewTime: 46766
Countdown: 0
SampleSet: Normal
StackLeniency: 0
Mode: 1
LetterboxInBreaks: 0
WidescreenStoryboard: 1

[Editor]
Bookmarks: 14408,21143,34612,48081,68284,81753,95222,115426,150782,177720
DistanceSpacing: 1.5
BeatDivisor: 4
GridSize: 32
TimelineZoom: 1.7

[Metadata]
Title:Angel With A Shotgun (Sped Up Ver.)
TitleUnicode:Angel With A Shotgun (Sped Up Ver.)
Artist:The Cab
ArtistUnicode:The Cab
Creator:Chromoxx
Version:Taiko Kantan
Source:
Tags:chromo-don genjuro rock nightcore remix electronic english symphony soldier
BeatmapID:3669619
BeatmapSetID:1776788

[Difficulty]
HPDrainRate:8
CircleSize:2
OverallDifficulty:3
ApproachRate:10
SliderMultiplier:1.4
SliderTickRate:1

[Events]
//Background and Video events
0,0,"Shotgun.jpg",0,70
//Break Periods
2,142564,146964
//Storyboard Layer 0 (Background)
//Storyboard Layer 1 (Fail)
//Storyboard Layer 2 (Pass)
//Storyboard Layer 3 (Foreground)
//Storyboard Layer 4 (Overlay)
//Storyboard Sound Samples

[TimingPoints]
940,420.904945633111,4,1,0,100,1,0
48081,-100,4,1,0,100,0,1
68284,-100,4,1,0,100,0,0
95222,-100,4,1,0,100,0,1
115426,-100,4,1,0,100,0,0
150782,-100,4,1,0,100,0,1
177720,-100,4,1,0,100,0,0

[HitObjects]
207,182,14408,5,0,0:0:0:0:
207,182,15250,1,8,0:0:0:0:
207,182,15882,1,0,0:0:0:0:
207,182,16934,1,8,0:0:0:0:
305,217,17776,1,0,0:0:0:0:
305,217,18618,1,8,0:0:0:0:
305,217,19249,1,0,0:0:0:0:
305,217,20301,1,8,0:0:0:0:
340,174,21143,1,0,0:0:0:0:
340,174,21564,1,8,0:0:0:0:
340,174,22406,1,8,0:0:0:0:
340,174,22827,1,0,0:0:0:0:
340,174,23247,1,8,0:0:0:0:
321,216,24089,1,8,0:0:0:0:
321,216,24510,1,0,0:0:0:0:
321,216,25352,1,8,0:0:0:0:
153,203,26194,1,0,0:0:0:0:
237,211,27877,1,8,0:0:0:0:
237,211,28298,1,0,0:0:0:0:
290,249,29140,1,0,0:0:0:0:
290,249,29561,1,8,0:0:0:0:
290,249,29982,1,0,0:0:0:0:
290,249,30824,1,0,0:0:0:0:
290,249,31245,1,8,0:0:0:0:
290,249,32086,1,0,0:0:0:0:
290,249,32928,1,8,0:0:0:0:
288,255,34612,1,0,0:0:0:0:
288,255,35454,1,8,0:0:0:0:
288,255,36296,1,0,0:0:0:0:
288,255,37137,1,8,0:0:0:0:
288,255,37558,1,8,0:0:0:0:
288,255,37979,1,0,0:0:0:0:
342,178,38821,1,8,0:0:0:0:
342,178,39663,1,0,0:0:0:0:
342,178,40505,1,8,0:0:0:0:
342,178,40925,1,0,0:0:0:0:
342,178,41346,1,8,0:0:0:0:
342,178,42188,1,0,0:0:0:0:
326,175,43030,1,8,0:0:0:0:
317,184,43872,1,0,0:0:0:0:
285,184,44293,1,0,0:0:0:0:
285,184,44714,1,8,0:0:0:0:
285,184,45555,1,8,0:0:0:0:
285,184,45976,1,0,0:0:0:0:
285,184,46397,1,8,0:0:0:0:
270,157,48081,1,4,0:0:0:0:
270,157,48923,1,8,0:0:0:0:
172,184,49344,1,0,0:0:0:0:
192,165,49764,1,8,0:0:0:0:
192,165,50606,1,8,0:0:0:0:
192,165,51027,1,8,0:0:0:0:
192,165,51448,1,0,0:0:0:0:
193,156,52290,1,8,0:0:0:0:
184,191,53132,1,0,0:0:0:0:
184,191,53974,1,8,0:0:0:0:
184,191,54394,1,0,0:0:0:0:
184,191,54815,1,8,0:0:0:0:
184,191,55657,1,0,0:0:0:0:
184,191,56078,1,0,0:0:0:0:
184,191,56499,1,8,0:0:0:0:
184,191,57341,1,0,0:0:0:0:
184,191,58183,1,8,0:0:0:0:
184,191,58603,1,8,0:0:0:0:
184,191,59024,1,0,0:0:0:0:
184,191,59445,1,0,0:0:0:0:
184,191,59866,1,8,0:0:0:0:
183,192,61550,1,0,0:0:0:0:
183,192,61971,1,8,0:0:0:0:
202,175,62392,1,0,0:0:0:0:
202,175,62813,1,8,0:0:0:0:
202,175,63233,1,0,0:0:0:0:
254,111,64917,1,8,0:0:0:0:
254,111,65338,1,0,0:0:0:0:
254,111,65759,1,8,0:0:0:0:
254,111,66180,1,0,0:0:0:0:
254,111,66601,1,8,0:0:0:0:
235,126,68284,1,0,0:0:0:0:
340,174,68705,1,8,0:0:0:0:
340,174,69547,1,8,0:0:0:0:
340,174,69968,1,0,0:0:0:0:
340,174,70389,1,8,0:0:0:0:
321,216,71231,1,8,0:0:0:0:
321,216,71652,1,0,0:0:0:0:
321,216,72493,1,8,0:0:0:0:
153,203,73335,1,0,0:0:0:0:
237,211,75019,1,8,0:0:0:0:
237,211,75440,1,0,0:0:0:0:
290,249,76281,1,0,0:0:0:0:
290,249,76702,1,8,0:0:0:0:
290,249,77123,1,0,0:0:0:0:
290,249,77965,1,0,0:0:0:0:
290,249,78386,1,8,0:0:0:0:
290,249,79228,1,0,0:0:0:0:
290,249,80070,1,8,0:0:0:0:
288,255,81753,1,0,0:0:0:0:
288,255,82595,1,8,0:0:0:0:
288,255,83437,1,0,0:0:0:0:
288,255,84279,1,8,0:0:0:0:
288,255,84700,1,8,0:0:0:0:
288,255,85120,1,0,0:0:0:0:
342,178,85962,1,8,0:0:0:0:
342,178,86804,1,0,0:0:0:0:
342,178,87646,1,8,0:0:0:0:
342,178,88067,1,0,0:0:0:0:
342,178,88488,1,8,0:0:0:0:
342,178,89330,1,0,0:0:0:0:
326,175,90171,1,8,0:0:0:0:
317,184,91013,1,0,0:0:0:0:
285,184,91434,1,0,0:0:0:0:
285,184,91855,1,8,0:0:0:0:
285,184,92697,1,8,0:0:0:0:
285,184,93118,1,0,0:0:0:0:
285,184,93539,1,8,0:0:0:0:
270,157,95222,1,4,0:0:0:0:
270,157,96064,1,8,0:0:0:0:
172,184,96485,1,0,0:0:0:0:
192,165,96906,1,8,0:0:0:0:
192,165,97748,1,8,0:0:0:0:
192,165,98169,1,8,0:0:0:0:
192,165,98589,1,0,0:0:0:0:
193,156,99431,1,8,0:0:0:0:
184,191,100273,1,0,0:0:0:0:
184,191,101115,1,8,0:0:0:0:
184,191,101536,1,0,0:0:0:0:
184,191,101957,1,8,0:0:0:0:
184,191,102798,1,0,0:0:0:0:
184,191,103219,1,0,0:0:0:0:
184,191,103640,1,8,0:0:0:0:
184,191,104482,1,0,0:0:0:0:
184,191,105324,1,8,0:0:0:0:
184,191,105745,1,8,0:0:0:0:
184,191,106166,1,0,0:0:0:0:
184,191,106587,1,0,0:0:0:0:
184,191,107008,1,8,0:0:0:0:
183,192,108691,1,0,0:0:0:0:
183,192,109112,1,8,0:0:0:0:
202,175,109533,1,0,0:0:0:0:
202,175,109954,1,8,0:0:0:0:
202,175,110375,1,0,0:0:0:0:
254,111,112058,1,8,0:0:0:0:
254,111,112479,1,0,0:0:0:0:
254,111,112900,1,8,0:0:0:0:
254,111,113321,1,0,0:0:0:0:
254,111,113742,1,8,0:0:0:0:
235,126,115426,1,0,0:0:0:0:
318,174,117109,1,8,0:0:0:0:
318,174,117951,1,0,0:0:0:0:
318,174,118793,1,8,0:0:0:0:
314,174,120477,1,0,0:0:0:0:
250,171,122160,1,8,0:0:0:0:
131,153,123844,1,0,0:0:0:0:
131,153,124686,1,8,0:0:0:0:
131,153,125527,1,0,0:0:0:0:
204,194,127211,1,8,0:0:0:0:
205,194,128895,1,0,0:0:0:0:
205,194,129736,1,8,0:0:0:0:
205,194,130578,1,0,0:0:0:0:
205,194,130999,1,0,0:0:0:0:
205,194,131420,1,8,0:0:0:0:
205,194,132262,1,0,0:0:0:0:
205,194,133104,1,8,0:0:0:0:
205,194,133945,1,0,0:0:0:0:
254,198,135629,1,8,0:0:0:0:
254,198,136471,1,0,0:0:0:0:
254,198,137313,1,8,0:0:0:0:
254,198,137734,1,8,0:0:0:0:
254,198,138155,1,0,0:0:0:0:
254,198,138996,1,8,0:0:0:0:
254,198,139838,1,0,0:0:0:0:
254,198,140680,1,8,0:0:0:0:
210,188,142364,1,0,0:0:0:0:
256,192,147414,12,0,149098,0:0:0:0:
270,157,150782,5,4,0:0:0:0:
270,157,151624,1,8,0:0:0:0:
172,184,152045,1,0,0:0:0:0:
192,165,152466,1,8,0:0:0:0:
192,165,153308,1,8,0:0:0:0:
192,165,153729,1,8,0:0:0:0:
192,165,154149,1,0,0:0:0:0:
193,156,154991,1,8,0:0:0:0:
184,191,155833,1,0,0:0:0:0:
184,191,156675,1,8,0:0:0:0:
184,191,157096,1,0,0:0:0:0:
184,191,157517,1,8,0:0:0:0:
184,191,158358,1,0,0:0:0:0:
184,191,158779,1,0,0:0:0:0:
184,191,159200,1,8,0:0:0:0:
184,191,160042,1,0,0:0:0:0:
184,191,160884,1,8,0:0:0:0:
184,191,161305,1,8,0:0:0:0:
184,191,161726,1,0,0:0:0:0:
184,191,162147,1,0,0:0:0:0:
184,191,162568,1,8,0:0:0:0:
183,192,164251,1,0,0:0:0:0:
183,192,164672,1,8,0:0:0:0:
202,175,165093,1,0,0:0:0:0:
202,175,165514,1,8,0:0:0:0:
202,175,165935,1,0,0:0:0:0:
254,111,167618,1,8,0:0:0:0:
254,111,168039,1,0,0:0:0:0:
254,111,168460,1,8,0:0:0:0:
254,111,168881,1,0,0:0:0:0:
254,111,169302,1,8,0:0:0:0:
255,214,170985,1,0,0:0:0:0:
255,214,171406,1,0,0:0:0:0:
255,214,171827,1,8,0:0:0:0:
255,214,172248,1,8,0:0:0:0:
255,214,172669,1,0,0:0:0:0:
201,212,174352,1,8,0:0:0:0:
201,212,174773,1,0,0:0:0:0:
200,220,175194,1,8,0:0:0:0:
200,219,175615,1,0,0:0:0:0:
200,220,176036,1,8,0:0:0:0:
200,219,176457,1,0,0:0:0:0:
200,220,176878,1,8,0:0:0:0:
243,90,177720,1,4,0:0:0:0:
