osu file format v14

[General]
AudioFilename: audio.mp3
AudioLeadIn: 0
PreviewTime: 46766
Countdown: 0
SampleSet: Normal
StackLeniency: 0.7
Mode: 1
LetterboxInBreaks: 0
WidescreenStoryboard: 0

[Editor]
DistanceSpacing: 1.5
BeatDivisor: 4
GridSize: 4
TimelineZoom: 1

[Metadata]
Title:Angel With A Shotgun (Sped Up Ver.)
TitleUnicode:Angel With A Shotgun (Sped Up Ver.)
Artist:The Cab
ArtistUnicode:The Cab
Creator:Chromoxx
Version:Taiko Inner Oni
Source:
Tags:chromo-don genjuro rock nightcore remix electronic english symphony soldier
BeatmapID:3638664
BeatmapSetID:1776788

[Difficulty]
HPDrainRate:7
CircleSize:5
OverallDifficulty:7
ApproachRate:6.9
SliderMultiplier:1.4
SliderTickRate:1

[Events]
//Background and Video events
0,0,"Shotgun.jpg",0,70
//Break Periods
2,142564,146500
//Storyboard Layer 0 (Background)
//Storyboard Layer 1 (Fail)
//Storyboard Layer 2 (Pass)
//Storyboard Layer 3 (Foreground)
//Storyboard Layer 4 (Overlay)
//Storyboard Sound Samples

[TimingPoints]
940,420.904945633111,4,1,0,100,1,0
940,-200,4,1,0,100,0,0
21143,-100,4,1,0,100,0,0
48081,-100,4,1,0,100,0,1
68284,-100,4,1,0,100,0,0
95222,-100,4,1,0,100,0,1
115426,-100,4,1,0,100,0,0
142784,-200,4,1,0,100,0,0
150782,-100,4,1,0,100,0,1
177720,-100,4,1,0,100,0,0
178140,-200,4,1,0,100,0,0

[HitObjects]
245,199,14408,5,0,0:0:0:0:
181,140,14829,1,0,0:0:0:0:
181,140,15250,1,8,0:0:0:0:
181,140,15882,1,0,0:0:0:0:
181,140,16513,1,0,0:0:0:0:
275,221,16934,1,8,0:0:0:0:
283,191,17144,1,0,0:0:0:0:
283,191,17355,1,0,0:0:0:0:
283,191,17565,1,8,0:0:0:0:
283,191,17776,1,0,0:0:0:0:
283,191,18197,1,0,0:0:0:0:
283,191,18618,1,8,0:0:0:0:
192,140,19249,1,0,0:0:0:0:
192,140,19880,1,0,0:0:0:0:
192,140,20301,1,8,0:0:0:0:
192,140,20512,1,0,0:0:0:0:
192,140,20722,1,8,0:0:0:0:
430,181,21143,1,4,0:0:0:0:
243,160,21564,1,8,0:0:0:0:
278,176,21880,1,0,0:0:0:0:
278,176,22195,1,0,0:0:0:0:
278,176,22406,1,8,0:0:0:0:
179,127,22827,1,0,0:0:0:0:
204,207,23037,1,0,0:0:0:0:
204,207,23247,1,8,0:0:0:0:
204,207,23458,1,0,0:0:0:0:
198,145,23563,1,0,0:0:0:0:
253,122,23774,1,0,0:0:0:0:
301,215,23879,1,0,0:0:0:0:
301,215,24089,1,8,0:0:0:0:
196,173,24300,1,0,0:0:0:0:
301,215,24510,1,0,0:0:0:0:
165,75,24931,1,8,0:0:0:0:
165,75,25247,1,0,0:0:0:0:
165,75,25562,1,0,0:0:0:0:
244,137,25773,1,8,0:0:0:0:
250,145,25983,1,8,0:0:0:0:
250,145,26194,1,0,0:0:0:0:
257,220,26404,1,0,0:0:0:0:
207,166,26615,1,8,0:0:0:0:
210,216,26720,1,0,0:0:0:0:
257,220,26930,1,0,0:0:0:0:
277,69,27141,1,0,0:0:0:0:
165,44,27246,1,0,0:0:0:0:
122,94,27351,1,0,0:0:0:0:
169,95,27457,1,8,0:0:0:0:
224,147,27667,1,0,0:0:0:0:
202,136,27877,1,4,0:0:0:0:
248,237,28298,1,8,0:0:0:0:
264,151,28614,1,8,0:0:0:0:
264,151,28930,1,0,0:0:0:0:
264,151,29140,1,8,0:0:0:0:
179,74,29561,1,0,0:0:0:0:
179,74,29771,1,0,0:0:0:0:
222,120,29982,1,8,0:0:0:0:
185,190,30192,1,8,0:0:0:0:
192,120,30298,1,8,0:0:0:0:
185,190,30508,1,0,0:0:0:0:
175,185,30613,1,0,0:0:0:0:
175,183,30824,1,8,0:0:0:0:
313,197,31034,1,0,0:0:0:0:
313,197,31245,1,0,0:0:0:0:
155,77,31666,1,8,0:0:0:0:
261,220,31981,1,8,0:0:0:0:
218,132,32297,1,0,0:0:0:0:
218,132,32507,1,8,0:0:0:0:
205,116,32718,1,8,0:0:0:0:
146,104,32928,1,0,0:0:0:0:
226,93,33139,1,0,0:0:0:0:
406,146,33244,1,0,0:0:0:0:
184,115,33349,1,8,0:0:0:0:
197,227,33454,1,0,0:0:0:0:
264,250,33665,1,8,0:0:0:0:
268,240,33875,1,0,0:0:0:0:
342,258,33981,1,8,0:0:0:0:
342,258,34191,1,8,0:0:0:0:
184,244,34296,1,0,0:0:0:0:
184,252,34401,1,0,0:0:0:0:
208,284,34612,1,4,0:0:0:0:
289,134,35033,1,8,0:0:0:0:
245,125,35243,1,0,0:0:0:0:
284,189,35454,1,0,0:0:0:0:
284,189,35664,1,0,0:0:0:0:
284,189,35875,1,8,0:0:0:0:
284,189,36085,1,0,0:0:0:0:
284,189,36296,1,0,0:0:0:0:
185,188,36506,1,0,0:0:0:0:
106,130,36716,1,8,0:0:0:0:
280,262,36927,1,0,0:0:0:0:
280,262,37137,1,0,0:0:0:0:
280,262,37348,1,0,0:0:0:0:
280,262,37558,1,0,0:0:0:0:
280,262,37769,1,8,0:0:0:0:
280,262,37979,1,0,0:0:0:0:
280,262,38190,1,0,0:0:0:0:
280,262,38400,1,0,0:0:0:0:
280,262,38610,1,8,0:0:0:0:
260,107,38821,1,0,0:0:0:0:
260,107,39031,1,0,0:0:0:0:
260,107,39242,1,0,0:0:0:0:
260,107,39452,1,8,0:0:0:0:
260,107,39663,1,0,0:0:0:0:
152,134,39873,1,0,0:0:0:0:
152,134,40084,1,0,0:0:0:0:
339,217,40294,1,0,0:0:0:0:
229,205,40505,1,8,0:0:0:0:
339,217,40715,1,8,0:0:0:0:
209,175,40925,1,8,0:0:0:0:
204,224,41136,1,0,0:0:0:0:
286,141,41346,1,8,0:0:0:0:
286,141,41557,1,0,0:0:0:0:
286,141,41767,1,0,0:0:0:0:
286,141,41978,1,0,0:0:0:0:
286,141,42188,1,8,0:0:0:0:
286,141,42399,1,0,0:0:0:0:
120,101,42609,1,0,0:0:0:0:
286,141,42820,1,0,0:0:0:0:
195,153,43030,1,8,0:0:0:0:
195,153,43240,1,0,0:0:0:0:
195,153,43451,1,0,0:0:0:0:
195,153,43661,1,0,0:0:0:0:
195,153,43872,1,8,0:0:0:0:
205,75,44082,1,0,0:0:0:0:
205,75,44293,1,8,0:0:0:0:
205,75,44503,1,0,0:0:0:0:
200,119,44714,1,8,0:0:0:0:
200,119,44924,1,8,0:0:0:0:
200,119,45135,1,8,0:0:0:0:
200,119,45345,1,0,0:0:0:0:
314,96,45555,1,8,0:0:0:0:
314,96,45766,1,8,0:0:0:0:
314,96,45976,1,8,0:0:0:0:
314,96,46187,1,0,0:0:0:0:
177,107,46397,1,8,0:0:0:0:
207,123,46608,1,0,0:0:0:0:
207,123,46818,1,8,0:0:0:0:
207,123,47029,1,0,0:0:0:0:
191,46,47239,1,8,0:0:0:0:
197,73,48081,1,4,0:0:0:0:
261,141,48291,1,0,0:0:0:0:
216,108,48397,1,0,0:0:0:0:
208,120,48502,1,8,0:0:0:0:
208,120,48712,1,0,0:0:0:0:
231,81,48817,1,8,0:0:0:0:
251,68,49028,1,0,0:0:0:0:
174,45,49133,1,8,0:0:0:0:
170,112,49344,1,0,0:0:0:0:
176,116,49449,1,0,0:0:0:0:
176,116,49554,1,0,0:0:0:0:
175,135,49659,1,0,0:0:0:0:
205,129,49764,1,8,0:0:0:0:
218,142,49975,1,8,0:0:0:0:
212,147,50080,1,8,0:0:0:0:
207,179,50185,1,0,0:0:0:0:
259,169,50396,1,8,0:0:0:0:
223,155,50501,1,0,0:0:0:0:
253,151,50712,1,8,0:0:0:0:
190,107,50817,1,0,0:0:0:0:
190,107,51027,1,8,0:0:0:0:
190,107,51132,1,8,0:0:0:0:
213,91,51238,1,8,0:0:0:0:
213,91,51343,1,8,0:0:0:0:
246,79,51448,1,0,0:0:0:0:
251,105,51659,1,0,0:0:0:0:
165,119,51869,1,8,0:0:0:0:
217,128,52079,1,8,0:0:0:0:
207,132,52185,1,0,0:0:0:0:
192,129,52290,1,0,0:0:0:0:
191,131,52500,1,0,0:0:0:0:
207,141,52711,1,8,0:0:0:0:
207,141,52921,1,8,0:0:0:0:
175,105,53026,1,0,0:0:0:0:
175,105,53132,1,0,0:0:0:0:
175,105,53342,1,0,0:0:0:0:
230,109,53553,1,8,0:0:0:0:
230,109,53763,1,0,0:0:0:0:
230,109,53868,1,8,0:0:0:0:
230,109,54079,1,8,0:0:0:0:
207,126,54184,1,0,0:0:0:0:
216,120,54289,1,0,0:0:0:0:
247,161,54394,1,0,0:0:0:0:
247,161,54500,1,0,0:0:0:0:
216,127,54605,1,8,0:0:0:0:
179,128,54815,1,4,0:0:0:0:
214,69,55026,1,0,0:0:0:0:
142,56,55131,1,0,0:0:0:0:
143,43,55236,1,8,0:0:0:0:
386,184,55447,1,0,0:0:0:0:
208,156,55552,1,8,0:0:0:0:
229,145,55657,1,0,0:0:0:0:
261,146,55868,1,0,0:0:0:0:
261,122,56078,1,8,0:0:0:0:
261,122,56183,1,8,0:0:0:0:
234,112,56289,1,8,0:0:0:0:
186,160,56499,1,0,0:0:0:0:
186,160,56604,1,0,0:0:0:0:
186,160,56709,1,0,0:0:0:0:
171,131,56815,1,0,0:0:0:0:
185,117,56920,1,8,0:0:0:0:
185,116,57130,1,0,0:0:0:0:
233,107,57236,1,8,0:0:0:0:
233,107,57446,1,8,0:0:0:0:
236,152,57656,1,0,0:0:0:0:
229,136,57762,1,8,0:0:0:0:
229,136,57867,1,8,0:0:0:0:
212,152,57972,1,0,0:0:0:0:
203,121,58183,1,4,0:0:0:0:
233,176,58393,1,0,0:0:0:0:
265,147,58498,1,8,0:0:0:0:
234,132,58603,1,0,0:0:0:0:
234,134,58814,1,8,0:0:0:0:
234,132,59024,1,0,0:0:0:0:
185,105,59235,1,0,0:0:0:0:
163,93,59340,1,8,0:0:0:0:
163,93,59445,1,0,0:0:0:0:
242,115,59656,1,8,0:0:0:0:
241,118,59866,1,0,0:0:0:0:
228,162,59971,1,8,0:0:0:0:
245,128,60077,1,0,0:0:0:0:
234,123,60182,1,8,0:0:0:0:
208,108,60287,1,0,0:0:0:0:
187,193,60498,1,0,0:0:0:0:
172,194,60603,1,0,0:0:0:0:
179,106,60813,1,8,0:0:0:0:
198,189,60918,1,0,0:0:0:0:
207,141,61024,1,0,0:0:0:0:
198,192,61129,1,0,0:0:0:0:
197,200,61339,1,0,0:0:0:0:
272,163,61550,1,4,0:0:0:0:
306,240,61760,1,0,0:0:0:0:
240,210,61865,1,0,0:0:0:0:
211,66,61971,1,8,0:0:0:0:
211,66,62181,1,8,0:0:0:0:
212,91,62286,1,8,0:0:0:0:
192,95,62392,1,0,0:0:0:0:
192,95,62602,1,0,0:0:0:0:
138,164,62707,1,0,0:0:0:0:
172,152,62813,1,8,0:0:0:0:
172,152,63023,1,8,0:0:0:0:
280,127,63233,1,0,0:0:0:0:
280,127,63339,1,0,0:0:0:0:
230,93,63444,1,8,0:0:0:0:
230,93,63654,1,8,0:0:0:0:
220,150,63760,1,8,0:0:0:0:
201,154,63865,1,0,0:0:0:0:
218,122,64075,1,0,0:0:0:0:
210,153,64180,1,0,0:0:0:0:
187,178,64286,1,0,0:0:0:0:
187,178,64391,1,8,0:0:0:0:
267,194,64496,1,8,0:0:0:0:
187,178,64707,1,8,0:0:0:0:
343,149,64917,1,0,0:0:0:0:
170,81,65128,1,8,0:0:0:0:
177,93,65233,1,8,0:0:0:0:
174,86,65338,1,0,0:0:0:0:
238,145,65548,1,0,0:0:0:0:
214,138,65654,1,0,0:0:0:0:
208,124,65759,1,8,0:0:0:0:
208,124,65969,1,8,0:0:0:0:
209,120,66075,1,8,0:0:0:0:
236,167,66180,1,0,0:0:0:0:
237,184,66285,1,8,0:0:0:0:
237,184,66390,1,8,0:0:0:0:
229,176,66495,1,8,0:0:0:0:
229,176,66601,1,0,0:0:0:0:
236,167,66811,1,0,0:0:0:0:
236,167,67022,1,8,0:0:0:0:
266,118,67127,1,0,0:0:0:0:
266,118,67337,1,0,0:0:0:0:
266,118,67442,1,8,0:0:0:0:
266,118,67653,1,0,0:0:0:0:
266,118,67758,1,8,0:0:0:0:
266,118,67969,1,8,0:0:0:0:
266,118,68074,1,0,0:0:0:0:
200,93,68284,1,4,0:0:0:0:
243,160,68705,1,8,0:0:0:0:
278,176,69021,1,0,0:0:0:0:
278,176,69337,1,0,0:0:0:0:
278,176,69547,1,8,0:0:0:0:
179,127,69968,1,0,0:0:0:0:
204,207,70178,1,0,0:0:0:0:
204,207,70389,1,8,0:0:0:0:
204,207,70599,1,0,0:0:0:0:
198,145,70704,1,0,0:0:0:0:
253,122,70915,1,0,0:0:0:0:
301,215,71020,1,0,0:0:0:0:
301,215,71231,1,8,0:0:0:0:
196,173,71441,1,0,0:0:0:0:
301,215,71652,1,0,0:0:0:0:
165,75,72072,1,8,0:0:0:0:
165,75,72388,1,0,0:0:0:0:
165,75,72704,1,0,0:0:0:0:
244,137,72914,1,8,0:0:0:0:
250,145,73125,1,8,0:0:0:0:
250,145,73335,1,0,0:0:0:0:
257,220,73546,1,0,0:0:0:0:
207,166,73756,1,8,0:0:0:0:
210,216,73861,1,0,0:0:0:0:
257,220,74072,1,0,0:0:0:0:
277,69,74282,1,0,0:0:0:0:
165,44,74387,1,0,0:0:0:0:
122,94,74493,1,0,0:0:0:0:
169,95,74598,1,8,0:0:0:0:
224,147,74808,1,0,0:0:0:0:
202,136,75019,1,4,0:0:0:0:
248,237,75440,1,8,0:0:0:0:
264,151,75755,1,8,0:0:0:0:
264,151,76071,1,0,0:0:0:0:
264,151,76281,1,8,0:0:0:0:
179,74,76702,1,0,0:0:0:0:
179,74,76913,1,0,0:0:0:0:
222,120,77123,1,8,0:0:0:0:
185,190,77334,1,8,0:0:0:0:
192,120,77439,1,8,0:0:0:0:
185,190,77649,1,0,0:0:0:0:
175,185,77755,1,0,0:0:0:0:
175,183,77965,1,8,0:0:0:0:
313,197,78176,1,0,0:0:0:0:
313,197,78386,1,0,0:0:0:0:
155,77,78807,1,8,0:0:0:0:
261,220,79123,1,8,0:0:0:0:
218,132,79438,1,0,0:0:0:0:
218,132,79649,1,8,0:0:0:0:
205,116,79859,1,8,0:0:0:0:
146,104,80070,1,0,0:0:0:0:
226,93,80280,1,0,0:0:0:0:
406,146,80385,1,0,0:0:0:0:
184,115,80491,1,8,0:0:0:0:
197,227,80596,1,0,0:0:0:0:
264,250,80806,1,8,0:0:0:0:
268,240,81017,1,0,0:0:0:0:
342,258,81122,1,8,0:0:0:0:
342,258,81332,1,8,0:0:0:0:
184,244,81438,1,0,0:0:0:0:
184,252,81543,1,0,0:0:0:0:
208,284,81753,1,4,0:0:0:0:
289,134,82174,1,8,0:0:0:0:
245,125,82385,1,0,0:0:0:0:
284,189,82595,1,0,0:0:0:0:
284,189,82806,1,0,0:0:0:0:
284,189,83016,1,8,0:0:0:0:
284,189,83226,1,0,0:0:0:0:
284,189,83437,1,0,0:0:0:0:
185,188,83647,1,0,0:0:0:0:
106,130,83858,1,8,0:0:0:0:
280,262,84068,1,0,0:0:0:0:
280,262,84279,1,0,0:0:0:0:
280,262,84489,1,0,0:0:0:0:
280,262,84700,1,0,0:0:0:0:
280,262,84910,1,8,0:0:0:0:
280,262,85120,1,0,0:0:0:0:
280,262,85331,1,0,0:0:0:0:
280,262,85541,1,0,0:0:0:0:
280,262,85752,1,8,0:0:0:0:
260,107,85962,1,0,0:0:0:0:
260,107,86173,1,0,0:0:0:0:
260,107,86383,1,0,0:0:0:0:
260,107,86594,1,8,0:0:0:0:
260,107,86804,1,0,0:0:0:0:
152,134,87015,1,0,0:0:0:0:
152,134,87225,1,0,0:0:0:0:
339,217,87435,1,0,0:0:0:0:
229,205,87646,1,8,0:0:0:0:
339,217,87856,1,8,0:0:0:0:
209,175,88067,1,8,0:0:0:0:
204,224,88277,1,0,0:0:0:0:
286,141,88488,1,8,0:0:0:0:
286,141,88698,1,0,0:0:0:0:
286,141,88909,1,0,0:0:0:0:
286,141,89119,1,0,0:0:0:0:
286,141,89330,1,8,0:0:0:0:
286,141,89540,1,0,0:0:0:0:
120,101,89750,1,0,0:0:0:0:
286,141,89961,1,0,0:0:0:0:
195,153,90171,1,8,0:0:0:0:
195,153,90382,1,0,0:0:0:0:
195,153,90592,1,0,0:0:0:0:
195,153,90803,1,0,0:0:0:0:
195,153,91013,1,8,0:0:0:0:
205,75,91224,1,0,0:0:0:0:
205,75,91434,1,8,0:0:0:0:
205,75,91645,1,0,0:0:0:0:
200,119,91855,1,8,0:0:0:0:
200,119,92065,1,8,0:0:0:0:
200,119,92276,1,8,0:0:0:0:
200,119,92486,1,0,0:0:0:0:
314,96,92697,1,8,0:0:0:0:
314,96,92907,1,8,0:0:0:0:
314,96,93118,1,8,0:0:0:0:
314,96,93328,1,0,0:0:0:0:
177,107,93539,1,8,0:0:0:0:
207,123,93749,1,0,0:0:0:0:
207,123,93959,1,8,0:0:0:0:
207,123,94170,1,0,0:0:0:0:
191,46,94380,1,8,0:0:0:0:
197,73,95222,1,4,0:0:0:0:
261,141,95433,1,0,0:0:0:0:
216,108,95538,1,0,0:0:0:0:
208,120,95643,1,8,0:0:0:0:
208,120,95854,1,0,0:0:0:0:
231,81,95959,1,8,0:0:0:0:
251,68,96169,1,0,0:0:0:0:
174,45,96274,1,8,0:0:0:0:
170,112,96485,1,0,0:0:0:0:
176,116,96590,1,0,0:0:0:0:
176,116,96695,1,0,0:0:0:0:
175,135,96801,1,0,0:0:0:0:
205,129,96906,1,8,0:0:0:0:
218,142,97116,1,8,0:0:0:0:
212,147,97222,1,8,0:0:0:0:
207,179,97327,1,0,0:0:0:0:
259,169,97537,1,8,0:0:0:0:
223,155,97642,1,0,0:0:0:0:
253,151,97853,1,8,0:0:0:0:
190,107,97958,1,0,0:0:0:0:
190,107,98169,1,8,0:0:0:0:
190,107,98274,1,8,0:0:0:0:
213,91,98379,1,8,0:0:0:0:
213,91,98484,1,8,0:0:0:0:
246,79,98589,1,0,0:0:0:0:
251,105,98800,1,0,0:0:0:0:
165,119,99010,1,8,0:0:0:0:
217,128,99221,1,8,0:0:0:0:
207,132,99326,1,0,0:0:0:0:
192,129,99431,1,0,0:0:0:0:
191,131,99642,1,0,0:0:0:0:
207,141,99852,1,8,0:0:0:0:
207,141,100063,1,8,0:0:0:0:
175,105,100168,1,0,0:0:0:0:
175,105,100273,1,0,0:0:0:0:
175,105,100484,1,0,0:0:0:0:
230,109,100694,1,8,0:0:0:0:
230,109,100904,1,0,0:0:0:0:
230,109,101010,1,8,0:0:0:0:
230,109,101220,1,8,0:0:0:0:
207,126,101325,1,0,0:0:0:0:
216,120,101431,1,0,0:0:0:0:
247,161,101536,1,0,0:0:0:0:
247,161,101641,1,0,0:0:0:0:
216,127,101746,1,8,0:0:0:0:
179,128,101957,1,4,0:0:0:0:
214,69,102167,1,0,0:0:0:0:
142,56,102272,1,0,0:0:0:0:
143,43,102378,1,8,0:0:0:0:
386,184,102588,1,0,0:0:0:0:
208,156,102693,1,8,0:0:0:0:
229,145,102798,1,0,0:0:0:0:
261,146,103009,1,0,0:0:0:0:
261,122,103219,1,8,0:0:0:0:
261,122,103325,1,8,0:0:0:0:
234,112,103430,1,8,0:0:0:0:
186,160,103640,1,0,0:0:0:0:
186,160,103746,1,0,0:0:0:0:
186,160,103851,1,0,0:0:0:0:
171,131,103956,1,0,0:0:0:0:
185,117,104061,1,8,0:0:0:0:
185,116,104272,1,0,0:0:0:0:
233,107,104377,1,8,0:0:0:0:
233,107,104587,1,8,0:0:0:0:
236,152,104798,1,0,0:0:0:0:
229,136,104903,1,8,0:0:0:0:
229,136,105008,1,8,0:0:0:0:
212,152,105113,1,0,0:0:0:0:
203,121,105324,1,4,0:0:0:0:
233,176,105534,1,0,0:0:0:0:
265,147,105640,1,8,0:0:0:0:
234,132,105745,1,0,0:0:0:0:
234,134,105955,1,8,0:0:0:0:
234,132,106166,1,0,0:0:0:0:
185,105,106376,1,0,0:0:0:0:
163,93,106481,1,8,0:0:0:0:
163,93,106587,1,0,0:0:0:0:
242,115,106797,1,8,0:0:0:0:
241,118,107008,1,0,0:0:0:0:
228,162,107113,1,8,0:0:0:0:
245,128,107218,1,0,0:0:0:0:
234,123,107323,1,8,0:0:0:0:
208,108,107428,1,0,0:0:0:0:
187,193,107639,1,0,0:0:0:0:
172,194,107744,1,0,0:0:0:0:
179,106,107955,1,8,0:0:0:0:
198,189,108060,1,0,0:0:0:0:
207,141,108165,1,0,0:0:0:0:
198,192,108270,1,0,0:0:0:0:
197,200,108481,1,0,0:0:0:0:
272,163,108691,1,4,0:0:0:0:
306,240,108902,1,0,0:0:0:0:
240,210,109007,1,0,0:0:0:0:
211,66,109112,1,8,0:0:0:0:
211,66,109323,1,8,0:0:0:0:
212,91,109428,1,8,0:0:0:0:
192,95,109533,1,0,0:0:0:0:
192,95,109743,1,0,0:0:0:0:
138,164,109849,1,0,0:0:0:0:
172,152,109954,1,8,0:0:0:0:
172,152,110164,1,8,0:0:0:0:
280,127,110375,1,0,0:0:0:0:
280,127,110480,1,0,0:0:0:0:
230,93,110585,1,8,0:0:0:0:
230,93,110796,1,8,0:0:0:0:
220,150,110901,1,8,0:0:0:0:
201,154,111006,1,0,0:0:0:0:
218,122,111217,1,0,0:0:0:0:
210,153,111322,1,0,0:0:0:0:
187,178,111427,1,0,0:0:0:0:
187,178,111532,1,8,0:0:0:0:
267,194,111638,1,8,0:0:0:0:
187,178,111848,1,8,0:0:0:0:
343,149,112058,1,0,0:0:0:0:
170,81,112269,1,8,0:0:0:0:
177,93,112374,1,8,0:0:0:0:
174,86,112479,1,0,0:0:0:0:
238,145,112690,1,0,0:0:0:0:
214,138,112795,1,0,0:0:0:0:
208,124,112900,1,8,0:0:0:0:
208,124,113111,1,8,0:0:0:0:
209,120,113216,1,8,0:0:0:0:
236,167,113321,1,0,0:0:0:0:
237,184,113426,1,8,0:0:0:0:
237,184,113532,1,8,0:0:0:0:
229,176,113637,1,8,0:0:0:0:
229,176,113742,1,0,0:0:0:0:
236,167,113952,1,0,0:0:0:0:
236,167,114163,1,8,0:0:0:0:
266,118,114268,1,0,0:0:0:0:
266,118,114479,1,0,0:0:0:0:
266,118,114584,1,8,0:0:0:0:
266,118,114794,1,0,0:0:0:0:
266,118,114900,1,8,0:0:0:0:
266,118,115110,1,8,0:0:0:0:
266,118,115215,1,0,0:0:0:0:
200,93,115426,1,4,0:0:0:0:
296,250,115847,1,8,0:0:0:0:
296,250,116267,1,0,0:0:0:0:
296,250,116478,1,0,0:0:0:0:
296,250,116688,1,8,0:0:0:0:
161,205,117109,1,0,0:0:0:0:
161,205,117530,1,8,0:0:0:0:
161,205,117741,1,0,0:0:0:0:
161,205,117951,1,8,0:0:0:0:
161,205,118162,1,8,0:0:0:0:
161,205,118372,1,0,0:0:0:0:
235,106,118477,1,0,0:0:0:0:
235,106,118582,1,0,0:0:0:0:
133,130,118793,1,8,0:0:0:0:
229,189,119214,1,0,0:0:0:0:
174,229,119635,1,8,0:0:0:0:
174,229,119845,1,8,0:0:0:0:
101,125,120056,1,0,0:0:0:0:
238,122,120477,1,8,0:0:0:0:
238,122,120897,1,0,0:0:0:0:
296,177,121108,1,8,0:0:0:0:
296,177,121318,1,0,0:0:0:0:
188,145,121529,1,0,0:0:0:0:
296,177,121634,1,0,0:0:0:0:
189,127,121739,1,8,0:0:0:0:
184,130,121950,1,8,0:0:0:0:
184,130,122055,1,8,0:0:0:0:
184,130,122160,1,0,0:0:0:0:
307,242,122581,1,8,0:0:0:0:
215,243,122791,1,0,0:0:0:0:
215,243,123002,1,8,0:0:0:0:
191,125,123212,1,0,0:0:0:0:
176,134,123423,1,8,0:0:0:0:
299,217,123844,1,0,0:0:0:0:
203,200,124054,1,8,0:0:0:0:
203,200,124265,1,0,0:0:0:0:
173,132,124475,1,8,0:0:0:0:
173,132,124686,1,0,0:0:0:0:
225,159,124896,1,8,0:0:0:0:
223,152,125001,1,8,0:0:0:0:
223,151,125106,1,0,0:0:0:0:
223,151,125212,1,8,0:0:0:0:
223,151,125317,1,8,0:0:0:0:
223,150,125527,1,0,0:0:0:0:
210,157,125948,1,8,0:0:0:0:
240,194,126159,1,0,0:0:0:0:
240,194,126369,1,0,0:0:0:0:
240,194,126580,1,8,0:0:0:0:
240,194,126790,1,0,0:0:0:0:
126,175,127211,1,8,0:0:0:0:
196,165,127421,1,0,0:0:0:0:
196,165,127632,1,8,0:0:0:0:
196,165,127842,1,8,0:0:0:0:
189,157,128053,1,0,0:0:0:0:
223,61,128158,1,0,0:0:0:0:
223,61,128263,1,8,0:0:0:0:
223,61,128368,1,0,0:0:0:0:
223,61,128474,1,0,0:0:0:0:
223,61,128684,1,8,0:0:0:0:
291,171,128895,1,4,0:0:0:0:
234,226,129316,1,8,0:0:0:0:
234,226,129526,1,8,0:0:0:0:
216,188,129736,1,0,0:0:0:0:
216,188,129947,1,0,0:0:0:0:
121,165,130052,1,0,0:0:0:0:
121,165,130157,1,8,0:0:0:0:
121,165,130368,1,8,0:0:0:0:
151,151,130473,1,8,0:0:0:0:
151,151,130578,1,0,0:0:0:0:
202,144,130999,1,8,0:0:0:0:
202,144,131210,1,0,0:0:0:0:
202,144,131420,1,8,0:0:0:0:
181,144,131630,1,8,0:0:0:0:
202,144,131736,1,8,0:0:0:0:
181,144,131841,1,0,0:0:0:0:
181,144,131946,1,8,0:0:0:0:
179,141,132051,1,8,0:0:0:0:
181,142,132157,1,8,0:0:0:0:
174,140,132262,1,0,0:0:0:0:
204,129,132683,1,8,0:0:0:0:
202,145,132893,1,0,0:0:0:0:
224,189,133104,1,8,0:0:0:0:
224,189,133314,1,8,0:0:0:0:
215,182,133419,1,8,0:0:0:0:
195,180,133525,1,0,0:0:0:0:
195,180,133735,1,0,0:0:0:0:
158,134,133840,1,0,0:0:0:0:
158,134,133945,1,8,0:0:0:0:
165,135,134366,1,0,0:0:0:0:
165,135,134577,1,8,0:0:0:0:
165,135,134787,1,0,0:0:0:0:
331,134,134892,1,0,0:0:0:0:
165,135,134998,1,8,0:0:0:0:
146,131,135103,1,0,0:0:0:0:
146,131,135208,1,0,0:0:0:0:
153,131,135313,1,0,0:0:0:0:
153,131,135419,1,8,0:0:0:0:
153,130,135629,1,0,0:0:0:0:
153,130,136050,1,8,0:0:0:0:
235,185,136260,1,8,0:0:0:0:
242,134,136366,1,8,0:0:0:0:
229,172,136681,1,0,0:0:0:0:
174,224,136892,1,8,0:0:0:0:
144,210,136997,1,0,0:0:0:0:
144,210,137102,1,0,0:0:0:0:
144,210,137313,1,0,0:0:0:0:
144,210,137523,1,0,0:0:0:0:
345,143,137734,1,8,0:0:0:0:
280,189,137944,1,8,0:0:0:0:
337,200,138049,1,8,0:0:0:0:
206,157,138260,1,0,0:0:0:0:
206,157,138470,1,0,0:0:0:0:
206,157,138575,1,0,0:0:0:0:
206,157,138681,1,0,0:0:0:0:
187,144,138786,1,8,0:0:0:0:
187,144,138996,1,0,0:0:0:0:
180,135,139207,1,8,0:0:0:0:
180,135,139417,1,8,0:0:0:0:
180,120,139733,1,8,0:0:0:0:
203,107,139943,1,8,0:0:0:0:
203,107,140049,1,8,0:0:0:0:
203,107,140154,1,8,0:0:0:0:
205,96,140364,1,8,0:0:0:0:
205,93,140469,1,8,0:0:0:0:
224,71,140680,1,0,0:0:0:0:
291,148,140890,1,0,0:0:0:0:
291,148,141101,1,8,0:0:0:0:
171,135,141206,1,0,0:0:0:0:
171,135,141311,1,0,0:0:0:0:
171,135,141417,1,0,0:0:0:0:
168,127,141522,1,8,0:0:0:0:
168,125,141627,1,0,0:0:0:0:
166,123,141732,1,0,0:0:0:0:
164,116,141837,1,0,0:0:0:0:
197,111,141943,1,8,0:0:0:0:
168,141,142048,1,0,0:0:0:0:
164,134,142153,1,0,0:0:0:0:
160,129,142258,1,0,0:0:0:0:
160,129,142364,1,8,0:0:0:0:
256,192,147414,12,8,149098,0:0:0:0:
197,73,150782,5,4,0:0:0:0:
261,141,150992,1,0,0:0:0:0:
216,108,151097,1,0,0:0:0:0:
208,120,151203,1,8,0:0:0:0:
208,120,151413,1,0,0:0:0:0:
231,81,151518,1,8,0:0:0:0:
251,68,151729,1,0,0:0:0:0:
174,45,151834,1,8,0:0:0:0:
170,112,152044,1,0,0:0:0:0:
176,116,152150,1,0,0:0:0:0:
176,116,152255,1,0,0:0:0:0:
175,135,152360,1,0,0:0:0:0:
205,129,152465,1,8,0:0:0:0:
218,142,152676,1,8,0:0:0:0:
212,147,152781,1,8,0:0:0:0:
207,179,152886,1,0,0:0:0:0:
259,169,153097,1,8,0:0:0:0:
223,155,153202,1,0,0:0:0:0:
253,151,153412,1,8,0:0:0:0:
190,107,153518,1,0,0:0:0:0:
190,107,153728,1,8,0:0:0:0:
190,107,153833,1,8,0:0:0:0:
213,91,153938,1,8,0:0:0:0:
213,91,154044,1,8,0:0:0:0:
246,79,154149,1,0,0:0:0:0:
251,105,154359,1,0,0:0:0:0:
165,119,154570,1,8,0:0:0:0:
217,128,154780,1,8,0:0:0:0:
207,132,154885,1,0,0:0:0:0:
192,129,154991,1,0,0:0:0:0:
191,131,155201,1,0,0:0:0:0:
207,141,155412,1,8,0:0:0:0:
207,141,155622,1,8,0:0:0:0:
175,105,155727,1,0,0:0:0:0:
175,105,155833,1,0,0:0:0:0:
175,105,156043,1,0,0:0:0:0:
230,109,156253,1,8,0:0:0:0:
230,109,156464,1,0,0:0:0:0:
230,109,156569,1,8,0:0:0:0:
230,109,156780,1,8,0:0:0:0:
207,126,156885,1,0,0:0:0:0:
216,120,156990,1,0,0:0:0:0:
247,161,157095,1,0,0:0:0:0:
247,161,157200,1,0,0:0:0:0:
216,127,157306,1,8,0:0:0:0:
179,128,157516,1,4,0:0:0:0:
214,69,157727,1,0,0:0:0:0:
142,56,157832,1,0,0:0:0:0:
143,43,157937,1,8,0:0:0:0:
386,184,158147,1,0,0:0:0:0:
208,156,158253,1,8,0:0:0:0:
229,145,158358,1,0,0:0:0:0:
261,146,158568,1,0,0:0:0:0:
261,122,158779,1,8,0:0:0:0:
261,122,158884,1,8,0:0:0:0:
234,112,158989,1,8,0:0:0:0:
186,160,159200,1,0,0:0:0:0:
186,160,159305,1,0,0:0:0:0:
186,160,159410,1,0,0:0:0:0:
171,131,159515,1,0,0:0:0:0:
185,117,159621,1,8,0:0:0:0:
185,116,159831,1,0,0:0:0:0:
233,107,159936,1,8,0:0:0:0:
233,107,160147,1,8,0:0:0:0:
236,152,160357,1,0,0:0:0:0:
229,136,160462,1,8,0:0:0:0:
229,136,160568,1,8,0:0:0:0:
212,152,160673,1,0,0:0:0:0:
203,121,160883,1,4,0:0:0:0:
233,176,161094,1,0,0:0:0:0:
265,147,161199,1,8,0:0:0:0:
234,132,161304,1,0,0:0:0:0:
234,134,161515,1,8,0:0:0:0:
234,132,161725,1,0,0:0:0:0:
185,105,161936,1,0,0:0:0:0:
163,93,162041,1,8,0:0:0:0:
163,93,162146,1,0,0:0:0:0:
242,115,162357,1,8,0:0:0:0:
241,118,162567,1,0,0:0:0:0:
228,162,162672,1,8,0:0:0:0:
245,128,162777,1,0,0:0:0:0:
234,123,162883,1,8,0:0:0:0:
208,108,162988,1,0,0:0:0:0:
187,193,163198,1,0,0:0:0:0:
172,194,163304,1,0,0:0:0:0:
179,106,163514,1,8,0:0:0:0:
198,189,163619,1,0,0:0:0:0:
207,141,163724,1,0,0:0:0:0:
198,192,163830,1,0,0:0:0:0:
197,200,164040,1,0,0:0:0:0:
272,163,164251,1,4,0:0:0:0:
306,240,164461,1,0,0:0:0:0:
240,210,164566,1,0,0:0:0:0:
211,66,164672,1,8,0:0:0:0:
211,66,164882,1,8,0:0:0:0:
212,91,164987,1,8,0:0:0:0:
192,95,165092,1,0,0:0:0:0:
192,95,165303,1,0,0:0:0:0:
138,164,165408,1,0,0:0:0:0:
172,152,165513,1,8,0:0:0:0:
172,152,165724,1,8,0:0:0:0:
280,127,165934,1,0,0:0:0:0:
280,127,166039,1,0,0:0:0:0:
230,93,166145,1,8,0:0:0:0:
230,93,166355,1,8,0:0:0:0:
220,150,166460,1,8,0:0:0:0:
201,154,166566,1,0,0:0:0:0:
218,122,166776,1,0,0:0:0:0:
210,153,166881,1,0,0:0:0:0:
187,178,166987,1,0,0:0:0:0:
187,178,167092,1,8,0:0:0:0:
267,194,167197,1,8,0:0:0:0:
187,178,167407,1,8,0:0:0:0:
343,149,167618,1,0,0:0:0:0:
170,81,167828,1,8,0:0:0:0:
177,93,167934,1,8,0:0:0:0:
174,86,168039,1,0,0:0:0:0:
238,145,168249,1,0,0:0:0:0:
214,138,168354,1,0,0:0:0:0:
208,124,168460,1,8,0:0:0:0:
208,124,168670,1,8,0:0:0:0:
209,120,168775,1,8,0:0:0:0:
236,167,168881,1,0,0:0:0:0:
237,184,168986,1,8,0:0:0:0:
237,184,169091,1,8,0:0:0:0:
229,176,169196,1,8,0:0:0:0:
229,176,169301,1,0,0:0:0:0:
236,167,169512,1,0,0:0:0:0:
236,167,169722,1,8,0:0:0:0:
266,118,169828,1,0,0:0:0:0:
266,118,170038,1,0,0:0:0:0:
266,118,170143,1,8,0:0:0:0:
266,118,170354,1,0,0:0:0:0:
266,118,170459,1,8,0:0:0:0:
266,118,170669,1,8,0:0:0:0:
266,118,170775,1,0,0:0:0:0:
200,93,170985,1,4,0:0:0:0:
238,228,171196,1,0,0:0:0:0:
169,224,171301,1,8,0:0:0:0:
213,202,171406,1,8,0:0:0:0:
173,219,171616,1,8,0:0:0:0:
171,214,171722,1,0,0:0:0:0:
165,205,171827,1,0,0:0:0:0:
325,245,172037,1,0,0:0:0:0:
231,239,172143,1,8,0:0:0:0:
259,225,172248,1,8,0:0:0:0:
231,239,172458,1,8,0:0:0:0:
242,216,172669,1,0,0:0:0:0:
245,236,172774,1,8,0:0:0:0:
244,237,172879,1,8,0:0:0:0:
245,236,173090,1,8,0:0:0:0:
233,250,173195,1,0,0:0:0:0:
231,239,173300,1,0,0:0:0:0:
190,170,173511,1,0,0:0:0:0:
245,170,173616,1,8,0:0:0:0:
241,164,173721,1,8,0:0:0:0:
241,164,173826,1,8,0:0:0:0:
241,163,173931,1,8,0:0:0:0:
241,163,174037,1,8,0:0:0:0:
221,142,174142,1,0,0:0:0:0:
221,142,174352,1,8,0:0:0:0:
110,136,174458,1,0,0:0:0:0:
113,127,174563,1,0,0:0:0:0:
126,124,174773,1,8,0:0:0:0:
127,120,174878,1,0,0:0:0:0:
127,120,174984,1,0,0:0:0:0:
127,120,175194,1,8,0:0:0:0:
150,96,175299,1,0,0:0:0:0:
150,96,175405,1,0,0:0:0:0:
211,148,175615,1,8,0:0:0:0:
228,196,175720,1,0,0:0:0:0:
230,187,175826,1,0,0:0:0:0:
230,176,176036,1,8,0:0:0:0:
229,171,176141,1,0,0:0:0:0:
229,171,176352,1,0,0:0:0:0:
221,157,176457,1,8,0:0:0:0:
221,157,176667,1,8,0:0:0:0:
224,149,176773,1,0,0:0:0:0:
231,129,176983,1,0,0:0:0:0:
229,123,177088,1,8,0:0:0:0:
226,120,177193,1,8,0:0:0:0:
223,114,177299,1,0,0:0:0:0:
223,114,177509,1,0,0:0:0:0:
218,147,177720,1,4,0:0:0:0:
238,189,178351,1,8,0:0:0:0:
117,158,178982,1,0,0:0:0:0:
238,189,179193,1,0,0:0:0:0:
217,179,180035,1,0,0:0:0:0:
217,179,180245,1,8,0:0:0:0:
217,179,180455,1,8,0:0:0:0:
217,179,180666,1,8,0:0:0:0:
192,123,181087,1,8,0:0:0:0:
192,123,181508,1,0,0:0:0:0:
192,123,181718,1,0,0:0:0:0:
192,123,182139,1,8,0:0:0:0:
192,123,182560,1,0,0:0:0:0:
245,126,183402,1,0,0:0:0:0:
245,126,183612,1,8,0:0:0:0:
245,126,183823,1,8,0:0:0:0:
245,126,184033,1,0,0:0:0:0:
159,129,184244,1,0,0:0:0:0:
159,129,184454,1,8,0:0:0:0:
202,125,184875,1,8,0:0:0:0:
202,125,185085,1,8,0:0:0:0:
202,125,185717,1,0,0:0:0:0:
168,99,185927,1,8,0:0:0:0:
168,99,186348,1,8,0:0:0:0:
256,157,186769,1,0,0:0:0:0:
256,157,186979,1,8,0:0:0:0:
256,157,187190,1,8,0:0:0:0:
256,157,187400,1,8,0:0:0:0:
256,157,187716,1,8,0:0:0:0:
256,157,188137,1,8,0:0:0:0:
185,103,188663,1,8,0:0:0:0:
185,103,188874,1,0,0:0:0:0:
185,103,189084,1,0,0:0:0:0:
185,103,189294,1,0,0:0:0:0:
185,103,189610,1,8,0:0:0:0:
256,192,190241,12,0,191609,0:0:0:0:
