osu file format v14

[General]
AudioFilename: audio.mp3
AudioLeadIn: 0
PreviewTime: 46766
Countdown: 0
SampleSet: Normal
StackLeniency: 0
Mode: 1
LetterboxInBreaks: 0
WidescreenStoryboard: 1

[Editor]
Bookmarks: 14408,21143,34612,48081,68284,81753,95222,115426,150782,177720
DistanceSpacing: 1.5
BeatDivisor: 4
GridSize: 32
TimelineZoom: 1.7

[Metadata]
Title:Angel With A Shotgun (Sped Up Ver.)
TitleUnicode:Angel With A Shotgun (Sped Up Ver.)
Artist:The Cab
ArtistUnicode:The Cab
Creator:Chromoxx
Version:Taiko Futsuu
Source:
Tags:chromo-don genjuro rock nightcore remix electronic english symphony soldier
BeatmapID:3669618
BeatmapSetID:1776788

[Difficulty]
HPDrainRate:7
CircleSize:2
OverallDifficulty:4
ApproachRate:10
SliderMultiplier:1.4
SliderTickRate:1

[Events]
//Background and Video events
0,0,"Shotgun.jpg",0,70
//Break Periods
2,142564,146964
//Storyboard Layer 0 (Background)
//Storyboard Layer 1 (Fail)
//Storyboard Layer 2 (Pass)
//Storyboard Layer 3 (Foreground)
//Storyboard Layer 4 (Overlay)
//Storyboard Sound Samples

[TimingPoints]
940,420.904945633111,4,1,0,100,1,0
48081,-100,4,1,0,100,0,1
68284,-100,4,1,0,100,0,0
95222,-100,4,1,0,100,0,1
115426,-100,4,1,0,100,0,0
150782,-100,4,1,0,100,0,1
177720,-100,4,1,0,100,0,0

[HitObjects]
302,253,14408,5,0,0:0:0:0:
302,253,15250,1,8,0:0:0:0:
302,253,15882,1,0,0:0:0:0:
302,253,16513,1,0,0:0:0:0:
302,253,16934,1,8,0:0:0:0:
254,163,17776,1,0,0:0:0:0:
266,266,18618,1,8,0:0:0:0:
266,266,19249,1,0,0:0:0:0:
180,169,19880,1,0,0:0:0:0:
186,160,20301,1,8,0:0:0:0:
328,255,21143,1,0,0:0:0:0:
328,255,21564,1,8,0:0:0:0:
328,255,22195,1,0,0:0:0:0:
328,255,22406,1,8,0:0:0:0:
328,255,22827,1,0,0:0:0:0:
328,255,23247,1,0,0:0:0:0:
328,255,23879,1,8,0:0:0:0:
328,255,24089,1,8,0:0:0:0:
195,194,24510,1,0,0:0:0:0:
195,194,24931,1,8,0:0:0:0:
195,194,25352,1,0,0:0:0:0:
195,194,25562,1,0,0:0:0:0:
195,194,25773,1,8,0:0:0:0:
195,194,26194,1,0,0:0:0:0:
245,241,26615,1,8,0:0:0:0:
245,241,27246,1,0,0:0:0:0:
245,241,27457,1,8,0:0:0:0:
245,241,27667,1,0,0:0:0:0:
245,241,27877,1,0,0:0:0:0:
353,231,28298,1,8,0:0:0:0:
353,231,28930,1,0,0:0:0:0:
353,231,29140,1,8,0:0:0:0:
353,231,29561,1,0,0:0:0:0:
191,117,29982,1,0,0:0:0:0:
191,117,30613,1,8,0:0:0:0:
191,117,30824,1,8,0:0:0:0:
191,117,31245,1,0,0:0:0:0:
191,117,31666,1,8,0:0:0:0:
191,117,32086,1,0,0:0:0:0:
191,117,32297,1,0,0:0:0:0:
191,117,32507,1,8,0:0:0:0:
191,117,32928,1,0,0:0:0:0:
191,117,33349,1,8,0:0:0:0:
233,193,33770,1,0,0:0:0:0:
233,193,33981,1,8,0:0:0:0:
233,193,34191,1,8,0:0:0:0:
243,177,34401,1,0,0:0:0:0:
243,177,34612,1,0,0:0:0:0:
328,239,35454,1,8,0:0:0:0:
291,237,36296,1,0,0:0:0:0:
213,223,36716,1,8,0:0:0:0:
213,223,37137,1,0,0:0:0:0:
213,223,37348,1,0,0:0:0:0:
165,224,37558,1,8,0:0:0:0:
165,224,37979,1,0,0:0:0:0:
218,251,38821,1,8,0:0:0:0:
218,251,39663,1,0,0:0:0:0:
218,251,40084,1,0,0:0:0:0:
218,251,40505,1,8,0:0:0:0:
218,251,40715,1,8,0:0:0:0:
218,251,40925,1,8,0:0:0:0:
218,251,41346,1,0,0:0:0:0:
218,251,42188,1,8,0:0:0:0:
218,251,43030,1,0,0:0:0:0:
218,251,43451,1,8,0:0:0:0:
218,251,43872,1,0,0:0:0:0:
218,251,44082,1,0,0:0:0:0:
218,251,44293,1,8,0:0:0:0:
218,251,44714,1,0,0:0:0:0:
218,251,45135,1,0,0:0:0:0:
218,251,45555,1,8,0:0:0:0:
218,251,45766,1,0,0:0:0:0:
218,251,45976,1,8,0:0:0:0:
218,251,46397,1,0,0:0:0:0:
230,280,46608,1,0,0:0:0:0:
230,280,46818,1,8,0:0:0:0:
208,111,47029,1,0,0:0:0:0:
208,111,47239,1,8,0:0:0:0:
208,111,48081,1,4,0:0:0:0:
232,180,48502,1,8,0:0:0:0:
232,180,48923,1,0,0:0:0:0:
232,180,49133,1,0,0:0:0:0:
248,225,49344,1,8,0:0:0:0:
248,225,49764,1,0,0:0:0:0:
248,225,50185,1,0,0:0:0:0:
248,225,50606,1,8,0:0:0:0:
248,225,50817,1,0,0:0:0:0:
248,225,51027,1,8,0:0:0:0:
212,197,51448,1,0,0:0:0:0:
212,197,51869,1,8,0:0:0:0:
212,197,52290,1,0,0:0:0:0:
212,197,52711,1,8,0:0:0:0:
212,197,52921,1,0,0:0:0:0:
256,271,53342,1,0,0:0:0:0:
272,257,53553,1,8,0:0:0:0:
235,236,53974,1,0,0:0:0:0:
186,260,54184,1,0,0:0:0:0:
235,236,54394,1,8,0:0:0:0:
211,196,54815,1,0,0:0:0:0:
295,260,55236,1,8,0:0:0:0:
296,260,55657,1,0,0:0:0:0:
296,260,55868,1,0,0:0:0:0:
295,260,56078,1,0,0:0:0:0:
296,260,56499,1,8,0:0:0:0:
133,237,57341,1,0,0:0:0:0:
222,161,57762,1,8,0:0:0:0:
308,182,57972,1,8,0:0:0:0:
308,182,58183,1,0,0:0:0:0:
308,182,58603,1,0,0:0:0:0:
308,182,58814,1,8,0:0:0:0:
308,182,59445,1,8,0:0:0:0:
308,182,59656,1,0,0:0:0:0:
243,140,60077,1,0,0:0:0:0:
243,140,60287,1,8,0:0:0:0:
203,146,60708,1,0,0:0:0:0:
205,237,60918,1,0,0:0:0:0:
278,221,61129,1,8,0:0:0:0:
205,237,61550,1,0,0:0:0:0:
312,217,61971,1,8,0:0:0:0:
312,217,62392,1,0,0:0:0:0:
313,275,62813,1,8,0:0:0:0:
313,275,63233,1,0,0:0:0:0:
310,275,64286,1,8,0:0:0:0:
292,269,64707,1,0,0:0:0:0:
292,269,64917,1,8,0:0:0:0:
292,269,65338,1,0,0:0:0:0:
292,269,65759,1,8,0:0:0:0:
292,269,66180,1,0,0:0:0:0:
292,269,66601,1,8,0:0:0:0:
158,157,67653,1,0,0:0:0:0:
158,157,67863,1,8,0:0:0:0:
254,196,68284,1,0,0:0:0:0:
328,255,68705,1,8,0:0:0:0:
328,255,69337,1,0,0:0:0:0:
328,255,69547,1,8,0:0:0:0:
328,255,69968,1,0,0:0:0:0:
328,255,70389,1,0,0:0:0:0:
328,255,71020,1,8,0:0:0:0:
328,255,71231,1,8,0:0:0:0:
195,194,71652,1,0,0:0:0:0:
195,194,72072,1,8,0:0:0:0:
195,194,72493,1,0,0:0:0:0:
195,194,72704,1,0,0:0:0:0:
195,194,72914,1,8,0:0:0:0:
195,194,73335,1,0,0:0:0:0:
245,241,73756,1,8,0:0:0:0:
245,241,74387,1,0,0:0:0:0:
245,241,74598,1,8,0:0:0:0:
245,241,74808,1,0,0:0:0:0:
245,241,75019,1,0,0:0:0:0:
353,231,75440,1,8,0:0:0:0:
353,231,76071,1,0,0:0:0:0:
353,231,76281,1,8,0:0:0:0:
353,231,76702,1,0,0:0:0:0:
191,117,77123,1,0,0:0:0:0:
191,117,77755,1,8,0:0:0:0:
191,117,77965,1,8,0:0:0:0:
191,117,78386,1,0,0:0:0:0:
191,117,78807,1,8,0:0:0:0:
191,117,79228,1,0,0:0:0:0:
191,117,79438,1,0,0:0:0:0:
191,117,79649,1,8,0:0:0:0:
191,117,80070,1,0,0:0:0:0:
191,117,80491,1,8,0:0:0:0:
233,193,80911,1,0,0:0:0:0:
233,193,81122,1,8,0:0:0:0:
233,193,81332,1,8,0:0:0:0:
243,177,81543,1,0,0:0:0:0:
243,177,81753,1,0,0:0:0:0:
328,239,82595,1,8,0:0:0:0:
291,237,83437,1,0,0:0:0:0:
213,223,83858,1,8,0:0:0:0:
213,223,84279,1,0,0:0:0:0:
213,223,84489,1,0,0:0:0:0:
165,224,84700,1,8,0:0:0:0:
165,224,85120,1,0,0:0:0:0:
218,251,85962,1,8,0:0:0:0:
218,251,86804,1,0,0:0:0:0:
218,251,87225,1,0,0:0:0:0:
218,251,87646,1,8,0:0:0:0:
218,251,87856,1,8,0:0:0:0:
218,251,88067,1,8,0:0:0:0:
218,251,88488,1,0,0:0:0:0:
218,251,89330,1,8,0:0:0:0:
218,251,90171,1,0,0:0:0:0:
218,251,90592,1,8,0:0:0:0:
218,251,91013,1,0,0:0:0:0:
218,251,91224,1,0,0:0:0:0:
218,251,91434,1,8,0:0:0:0:
218,251,91855,1,0,0:0:0:0:
218,251,92276,1,0,0:0:0:0:
218,251,92697,1,8,0:0:0:0:
218,251,92907,1,0,0:0:0:0:
218,251,93118,1,8,0:0:0:0:
218,251,93539,1,0,0:0:0:0:
230,280,93749,1,0,0:0:0:0:
230,280,93959,1,8,0:0:0:0:
208,111,94170,1,0,0:0:0:0:
208,111,94380,1,8,0:0:0:0:
208,111,95222,1,4,0:0:0:0:
232,180,95643,1,8,0:0:0:0:
232,180,96064,1,0,0:0:0:0:
219,196,96274,1,0,0:0:0:0:
248,225,96485,5,8,0:0:0:0:
248,225,96906,1,0,0:0:0:0:
248,225,97327,1,0,0:0:0:0:
248,225,97748,1,8,0:0:0:0:
248,225,97958,1,0,0:0:0:0:
248,225,98169,1,8,0:0:0:0:
212,197,98589,1,0,0:0:0:0:
212,197,99010,1,8,0:0:0:0:
212,197,99431,1,0,0:0:0:0:
212,197,99852,1,8,0:0:0:0:
212,197,100063,1,0,0:0:0:0:
256,271,100484,1,0,0:0:0:0:
272,257,100694,1,8,0:0:0:0:
235,236,101115,1,0,0:0:0:0:
186,260,101325,1,0,0:0:0:0:
235,236,101536,1,8,0:0:0:0:
211,196,101957,1,0,0:0:0:0:
295,260,102378,1,8,0:0:0:0:
296,260,102798,1,0,0:0:0:0:
296,260,103009,1,0,0:0:0:0:
295,260,103219,1,0,0:0:0:0:
296,260,103640,1,8,0:0:0:0:
133,237,104482,1,0,0:0:0:0:
222,161,104903,1,8,0:0:0:0:
308,182,105113,1,8,0:0:0:0:
308,182,105324,1,0,0:0:0:0:
308,182,105745,1,0,0:0:0:0:
308,182,105955,1,8,0:0:0:0:
308,182,106587,1,8,0:0:0:0:
308,182,106797,1,0,0:0:0:0:
243,140,107218,1,0,0:0:0:0:
243,140,107428,1,8,0:0:0:0:
203,146,107849,1,0,0:0:0:0:
205,237,108060,1,0,0:0:0:0:
278,221,108270,1,8,0:0:0:0:
205,237,108691,1,0,0:0:0:0:
312,217,109112,1,8,0:0:0:0:
312,217,109533,1,0,0:0:0:0:
313,275,109954,1,8,0:0:0:0:
313,275,110375,1,0,0:0:0:0:
310,275,111427,1,8,0:0:0:0:
292,269,111848,1,0,0:0:0:0:
292,269,112058,1,8,0:0:0:0:
292,269,112479,1,0,0:0:0:0:
292,269,112900,1,8,0:0:0:0:
292,269,113321,1,0,0:0:0:0:
292,269,113742,1,8,0:0:0:0:
274,173,114794,1,0,0:0:0:0:
274,173,115005,1,8,0:0:0:0:
274,173,115426,1,0,0:0:0:0:
260,195,117109,1,8,0:0:0:0:
260,195,117951,1,0,0:0:0:0:
260,195,118372,1,8,0:0:0:0:
260,195,118793,1,0,0:0:0:0:
314,180,119635,1,8,0:0:0:0:
314,180,119845,1,8,0:0:0:0:
314,180,120056,1,0,0:0:0:0:
314,180,120477,1,8,0:0:0:0:
275,160,122160,1,0,0:0:0:0:
216,203,123844,1,8,0:0:0:0:
216,210,124686,1,0,0:0:0:0:
216,210,125106,1,8,0:0:0:0:
216,210,125527,1,0,0:0:0:0:
216,210,126369,1,8,0:0:0:0:
216,210,126580,1,8,0:0:0:0:
216,210,126790,1,0,0:0:0:0:
216,210,127211,1,8,0:0:0:0:
250,209,128895,1,0,0:0:0:0:
227,268,129736,1,8,0:0:0:0:
227,268,130157,1,0,0:0:0:0:
397,298,130578,1,8,0:0:0:0:
301,199,130999,1,0,0:0:0:0:
301,199,131210,1,0,0:0:0:0:
301,199,131420,1,8,0:0:0:0:
301,199,131841,1,0,0:0:0:0:
301,199,132262,1,8,0:0:0:0:
301,199,133104,1,0,0:0:0:0:
301,199,133525,1,8,0:0:0:0:
266,192,133945,1,0,0:0:0:0:
266,192,134366,1,8,0:0:0:0:
266,192,134787,1,0,0:0:0:0:
266,192,134998,1,0,0:0:0:0:
266,192,135208,1,8,0:0:0:0:
266,192,135629,1,0,0:0:0:0:
266,192,136471,1,8,0:0:0:0:
266,192,136892,1,0,0:0:0:0:
266,192,137313,1,8,0:0:0:0:
233,204,137734,1,0,0:0:0:0:
233,204,137944,1,0,0:0:0:0:
233,204,138155,1,8,0:0:0:0:
233,204,138575,1,0,0:0:0:0:
233,204,138996,1,8,0:0:0:0:
244,196,139838,1,0,0:0:0:0:
244,196,140259,1,8,0:0:0:0:
244,196,140680,1,0,0:0:0:0:
244,196,141101,1,8,0:0:0:0:
244,196,141522,1,0,0:0:0:0:
244,196,141732,1,0,0:0:0:0:
244,196,141943,1,8,0:0:0:0:
244,196,142364,1,0,0:0:0:0:
256,192,147414,12,8,149098,0:0:0:0:
208,111,150782,5,4,0:0:0:0:
232,180,151203,1,8,0:0:0:0:
232,180,151624,1,0,0:0:0:0:
420,237,151834,1,0,0:0:0:0:
248,225,152045,5,8,0:0:0:0:
248,225,152466,1,0,0:0:0:0:
248,225,152887,1,0,0:0:0:0:
248,225,153308,1,8,0:0:0:0:
248,225,153518,1,0,0:0:0:0:
248,225,153729,1,8,0:0:0:0:
212,197,154149,1,0,0:0:0:0:
212,197,154570,1,8,0:0:0:0:
212,197,154991,1,0,0:0:0:0:
212,197,155412,1,8,0:0:0:0:
212,197,155623,1,0,0:0:0:0:
256,271,156044,1,0,0:0:0:0:
272,257,156254,1,8,0:0:0:0:
235,236,156675,1,0,0:0:0:0:
186,260,156885,1,0,0:0:0:0:
235,236,157096,1,8,0:0:0:0:
211,196,157517,1,0,0:0:0:0:
295,260,157938,1,8,0:0:0:0:
296,260,158358,1,0,0:0:0:0:
296,260,158569,1,0,0:0:0:0:
295,260,158779,1,0,0:0:0:0:
296,260,159200,1,8,0:0:0:0:
133,237,160042,1,0,0:0:0:0:
222,161,160463,1,8,0:0:0:0:
308,182,160673,1,8,0:0:0:0:
308,182,160884,1,0,0:0:0:0:
308,182,161305,1,0,0:0:0:0:
308,182,161515,1,8,0:0:0:0:
308,182,162147,1,8,0:0:0:0:
308,182,162357,1,0,0:0:0:0:
243,140,162778,1,0,0:0:0:0:
243,140,162988,1,8,0:0:0:0:
203,146,163409,1,0,0:0:0:0:
205,237,163620,1,0,0:0:0:0:
278,221,163830,1,8,0:0:0:0:
205,237,164251,1,0,0:0:0:0:
312,217,164672,1,8,0:0:0:0:
312,217,165093,1,0,0:0:0:0:
313,275,165514,1,8,0:0:0:0:
313,275,165935,1,0,0:0:0:0:
310,275,166987,1,8,0:0:0:0:
292,269,167408,1,0,0:0:0:0:
292,269,167618,1,8,0:0:0:0:
292,269,168039,1,0,0:0:0:0:
292,269,168460,1,8,0:0:0:0:
292,269,168881,1,0,0:0:0:0:
292,269,169302,1,8,0:0:0:0:
274,173,170354,1,0,0:0:0:0:
274,173,170775,1,8,0:0:0:0:
274,173,170986,1,0,0:0:0:0:
220,215,171406,1,8,0:0:0:0:
204,219,171827,1,8,0:0:0:0:
204,220,172248,1,8,0:0:0:0:
204,219,172669,1,0,0:0:0:0:
192,181,173090,1,8,0:0:0:0:
192,181,173511,1,0,0:0:0:0:
192,181,173721,1,0,0:0:0:0:
192,181,173931,1,8,0:0:0:0:
192,181,174352,1,0,0:0:0:0:
192,181,174773,1,8,0:0:0:0:
192,181,175194,1,0,0:0:0:0:
192,181,175615,1,8,0:0:0:0:
192,181,176036,1,0,0:0:0:0:
192,181,176457,1,8,0:0:0:0:
283,188,176667,1,0,0:0:0:0:
283,188,176878,1,8,0:0:0:0:
283,188,177088,1,0,0:0:0:0:
283,188,177299,1,8,0:0:0:0:
272,168,177720,1,4,0:0:0:0:
