osu file format v14

[General]
AudioFilename: audio.mp3
AudioLeadIn: 0
PreviewTime: 122555
Countdown: 0
SampleSet: Soft
StackLeniency: 0.7
Mode: 0
LetterboxInBreaks: 0
WidescreenStoryboard: 1

[Editor]
Bookmarks: 14544,32875,51201,65862,84188,98849,117173,133652,151917,159247,181238,195840
DistanceSpacing: 1
BeatDivisor: 4
GridSize: 4
TimelineZoom: 1

[Metadata]
Title:Video Killed The Radio Star
TitleUnicode:Video Killed The Radio Star
Artist:The Buggles
ArtistUnicode:The Buggles
Creator:MkGuh
Version:Collab Normal
Source:
Tags:happyrocket88 retro The Age of Plastic 80's years 80 gta grand theft auto flash fm vice city rockstar games new wave synth pop synthpop just dance ezek bonsai marianna Trevor Horn toni collab collaboration ost
BeatmapID:959498
BeatmapSetID:446547

[Difficulty]
HPDrainRate:2.5
CircleSize:3
OverallDifficulty:3
ApproachRate:4.5
SliderMultiplier:1.1
SliderTickRate:1

[Events]
//Background and Video events
0,0,"maxresdefault.jpg",0,0
Video,-1270,"Guh wil kill you.avi"
//Break Periods
2,151928,157996
//Storyboard Layer 0 (Background)
//Storyboard Layer 1 (Fail)
//Storyboard Layer 2 (Pass)
//Storyboard Layer 3 (Foreground)
Sprite,Foreground,Centre,"Just sexy people\MkMeow.png",320,240 M,0,18214,32875,454,389 S,0,18214,32875,0.3532633 F,0,32646,32875,1,0
Sprite,Foreground,Centre,"Just sexy people\ezekk.png",320,240 F,0,32646,32875,0,1 M,0,32875,51201,454,389 S,0,32875,51201,0.3532633 F,0,50972,51201,1,0
Sprite,Foreground,Centre,"Just sexy people\Marilanna+del+King.png",320,240 S,0,51201,51430,1,0.3532633 M,0,51201,65862,454,389 S,0,51201,65862,0.3532633 F,0,65633,65862,1,0
Sprite,Foreground,Centre,"Just sexy people\Bonsy.png",320,240 F,0,65633,65862,0,1 M,0,65862,84188,454,389 S,0,65862,84188,0.3532633 F,0,83959,84188,1,0
Sprite,Foreground,Centre,"Just sexy people\MkMeow.png",320,240 S,0,84188,84418,1,0.3532633 M,0,84188,98849,454,389 S,0,84188,98849,0.3532633 F,0,98620,98849,1,0
Sprite,Foreground,Centre,"Just sexy people\ezekk.png",320,240 F,0,98620,98849,0,1 M,0,98620,117172,454,389 S,0,98620,117172,0.3532633 F,0,116949,117172,1,0
Sprite,Foreground,Centre,"Just sexy people\Marilanna+del+King.png",320,240 F,0,116949,117172,0,1 M,0,116949,133652,454,389 S,0,116949,133652,0.3532633 F,0,133423,133651,1,0
Sprite,Foreground,Centre,"Just sexy people\MkMeow.png",320,240 F,0,133423,133651,0,1 M,0,133423,151917,454,389 S,0,133423,151917,0.3532633 F,0,147139,151917,1,0
Sprite,Foreground,Centre,"Just sexy people\Cohete.png",320,240 F,0,159018,159247,0,1 M,0,159018,181238,454,389 S,0,159018,181238,0.3532633 F,0,181009,181238,1,0
Sprite,Foreground,Centre,"Just sexy people\Bonsy.png",320,240 S,0,181238,181465,1,0.3532633 M,0,181238,195840,454,389 S,0,181238,195840,0.3532633 F,0,192175,195840,1,0
//Storyboard Sound Samples

[TimingPoints]
1721,458.155161881491,4,2,1,100,1,0
14549,-100,4,2,1,60,0,0
15465,-100,4,2,1,40,0,0
16381,-100,4,2,1,20,0,0
17298,-100,4,2,1,5,0,0
18184,458.155161881491,4,2,1,60,1,0
32875,458.155161881491,4,2,0,65,1,0
43870,-100,4,2,0,70,0,0
51201,-100,4,2,0,80,0,1
58531,-100,4,2,0,60,0,0
62196,-100,4,2,0,70,0,0
65862,-100,4,2,0,65,0,0
76857,-100,4,2,0,70,0,0
84188,-100,4,2,0,80,0,1
91518,-100,4,2,0,60,0,0
98849,-100,4,2,0,70,0,0
106180,466.200466200466,4,2,0,70,1,0
108044,459.770114942529,4,2,0,70,1,0
111722,456.273764258555,4,2,0,70,1,0
113547,460.652591170825,4,2,0,70,1,0
115389,445.765230312036,4,2,0,70,1,0
117191,458.155161881491,4,2,0,60,1,0
119005,458.155161881491,4,2,0,60,1,0
122681,458.015267175573,3,2,0,80,1,1
122795,-100,3,2,0,80,0,0
124055,-100,3,2,0,80,0,0
125429,-100,3,2,0,80,0,0
126340,457.491422035837,4,2,0,80,1,1
131834,454.545454545455,4,2,0,80,1,1
133649,457.317073170732,4,2,1,40,1,0
133649,-111.111111111111,4,2,1,40,0,0
137307,-105.263157894737,4,2,1,60,0,0
140966,-100,4,2,1,80,0,0
149197,-100,4,2,0,55,0,0
149655,-100,4,2,0,40,0,0
151928,458.015267175573,4,2,0,30,1,0
159256,-100,4,2,0,60,0,0
164762,454.545454545455,4,2,0,70,1,0
166580,457.491422035837,4,2,0,80,1,1
173897,457.491422035837,4,2,0,80,1,1
179386,-100,4,2,0,80,0,0
181204,458.015267175573,4,2,0,80,1,1
192196,-100,4,2,0,50,0,1
193112,-100,4,2,0,40,0,1
194028,-100,4,2,0,30,0,0
194944,-100,4,2,0,20,0,0
195860,-100,4,2,0,15,0,0

[Colours]
Combo1 : 255,0,255
Combo2 : 0,204,204
Combo3 : 221,221,0

[HitObjects]
256,192,14549,12,2,18184,0:0:0:0:
40,88,19558,5,0,0:0:0:0:
140,44,20016,2,0,L|256:40,1,110,2|0,0:0|0:0,0:0:0:0:
348,88,20932,2,0,P|360:144|348:196,1,110,2|0,0:0|0:0,0:0:0:0:
292,292,21849,6,0,P|348:304|404:292,2,110,2|0|2,0:0|0:0|0:0,0:0:0:0:
184,264,23223,1,0,0:0:0:0:
80,232,23681,2,0,P|76:204|80:176,1,55,2|0,0:0|0:0,0:0:0:0:
120,140,24140,2,0,P|124:112|120:84,1,55,2|0,0:0|0:0,0:0:0:0:
96,36,24598,2,0,L|216:24,1,110,2|0,0:0|0:0,0:0:0:0:
316,40,25514,6,0,P|372:32|432:40,1,110,2|0,0:0|0:0,0:0:0:0:
428,148,26430,2,0,P|372:156|312:148,1,110,2|0,0:0|0:0,0:0:0:0:
268,132,27118,2,0,P|213:125|159:133,1,110,2|0,0:0|0:0,0:0:0:0:
108,152,27805,1,2,0:0:0:0:
44,240,28263,2,0,B|44:300|44:300|84:344,1,110,2|0,0:0|0:0,0:0:0:0:
184,312,29179,6,0,B|268:304|268:344|356:328,2,165,2|2|0,0:0|0:0|0:0,0:0:0:0:
77,336,31012,2,0,L|84:208,1,110,2|0,0:0|0:0,0:0:0:0:
168,156,31928,2,0,L|161:28,1,110,2|0,0:0|0:0,0:0:0:0:
252,112,32875,6,0,B|280:136|280:136|356:136,1,110,4|4,0:3|0:3,0:3:0:0:
352,248,33791,2,0,B|278:248|278:248|250:272,1,110,4|2,0:3|0:3,0:3:0:0:
144,296,34707,2,0,B|152:268|152:268|144:240,1,55,4|2,0:3|0:0,0:3:0:0:
104,208,35165,2,0,B|96:184|96:184|104:156,1,55,4|2,0:3|0:0,0:3:0:0:
152,132,35623,2,0,P|200:148|256:132,1,110,4|2,0:3|0:3,0:3:0:0:
304,32,36540,6,0,B|256:8|256:8|204:32,1,110,4|4,0:3|0:3,0:3:0:0:
255,132,37456,2,0,P|303:148|359:132,1,110,4|2,0:3|0:3,0:3:0:0:
460,180,38372,2,0,L|468:292,2,110,4|4|4,0:3|0:3|0:3,0:3:0:0:
358,132,39747,1,2,0:3:0:0:
344,240,40205,6,0,B|340:276|340:276|332:320|304:340,1,110,4|4,0:3|0:3,0:3:0:0:
256,360,40892,1,2,0:0:0:0:
208,340,41121,2,0,B|181:320|173:276|173:276|169:240,1,110,4|2,0:3|0:3,0:3:0:0:
180,132,42038,2,0,L|228:104,1,55,4|2,0:3|0:0,0:3:0:0:
284,108,42496,2,0,L|332:80,1,55,4|2,0:3|0:0,0:3:0:0:
388,80,42954,2,0,P|404:128|388:184,1,110,4|2,0:3|0:3,0:3:0:0:
324,272,43870,6,0,B|256:224|256:224|188:272,2,165,4|2|8,0:0|0:0|0:0,0:0:0:0:
328,164,45703,2,0,L|284:132,1,55,2|0,0:0|0:0,0:0:0:0:
228,132,46161,2,0,L|184:164,1,55,8|0,0:0|0:0,0:0:0:0:
140,200,46619,1,2,0:0:0:0:
140,200,47077,1,8,0:0:0:0:
120,308,47535,6,0,B|156:320|176:308|196:296|228:304,1,110,2|8,0:0|0:0,0:0:0:0:
284,304,48223,2,0,B|316:296|336:308|356:320|392:308,1,110,2|0,0:0|0:0,0:0:0:0:
444,296,48910,1,8,0:0:0:0:
368,220,49368,2,0,B|360:196|360:196|368:168,1,55,2|0,0:0|0:0,0:0:0:0:
384,116,49826,2,0,B|392:88|392:88|384:64,1,55,8|0,0:0|0:0,0:0:0:0:
360,16,50284,2,0,P|408:32|464:16,1,110,2|8,0:0|0:0,0:0:0:0:
496,120,51201,6,0,B|492:148|492:148|496:176,1,55,4|0,0:0|0:0,0:0:0:0:
500,228,51659,2,0,L|392:212,1,110,8|2,0:0|0:0,0:0:0:0:
308,140,52575,1,8,0:0:0:0:
308,140,52804,2,0,L|200:124,1,110,2|2,0:0|0:0,0:0:0:0:
148,108,53491,2,0,P|156:164|148:216,1,110,8|2,0:0|0:0,0:0:0:0:
112,320,54408,1,8,0:0:0:0:
216,284,54866,6,0,B|244:280|244:280|272:284,1,55,2|2,0:0|0:0,0:0:0:0:
316,316,55324,2,0,B|368:328|368:328|424:316,1,110,8|2,0:0|0:0,0:0:0:0:
476,220,56240,1,8,0:0:0:0:
476,220,56469,2,0,B|424:208|424:208|368:220,1,110,2|2,0:0|0:0,0:0:0:0:
316,232,57157,2,0,P|328:176|312:128,1,110,8|2,0:0|0:0,0:0:0:0:
256,32,58073,1,8,0:0:0:0:
200,128,58531,6,0,P|183:179|195:232,1,110,4|8,0:3|0:0,0:0:0:0:
256,324,59447,2,0,L|144:320,1,110,4|8,0:3|0:0,0:0:0:0:
85,228,60364,2,0,L|194:231,1,110,4|8,0:3|0:0,0:0:0:0:
244,208,61051,1,2,0:0:0:0:
244,208,61280,2,0,P|260:160|248:104,1,110,4|4,0:3|0:3,0:0:0:0:
356,80,62196,6,0,P|340:128|352:184,1,110,2|8,0:0|0:0,0:0:0:0:
392,224,62884,1,2,0:0:0:0:
392,224,63113,2,0,B|356:228|336:256|336:256|312:292,1,110,2|8,0:0|0:0,0:0:0:0:
272,332,63800,2,0,B|184:352|208:300|112:320,1,165,2|8,0:0|0:0,0:0:0:0:
8,352,64945,1,8,0:0:0:0:
40,248,65404,1,8,0:3:0:0:
73,143,65862,6,0,P|124:129|177:145,1,110,2|2,0:3|0:0,0:0:0:0:
224,175,66549,1,0,0:0:0:0:
270,205,66778,2,0,P|321:221|374:207,1,110,2|2,0:3|0:0,0:0:0:0:
374,97,67694,2,0,P|322:83|269:99,1,110,2|2,0:3|0:2,0:0:0:0:
159,99,68611,2,0,L|95:35,2,55,2|2|2,0:3|0:3|0:2,0:1:0:0:
256,192,69527,12,0,73192,0:0:0:0:
257,348,75025,6,0,B|239:295|239:295|257:243|257:243|239:191|239:191|257:139|257:139,1,220,2|2,0:0|0:0,0:0:0:0:
293,35,76399,1,2,0:0:0:0:
402,35,76857,6,0,P|387:86|346:123,1,110,4|8,0:3|0:0,0:0:0:0:
317,169,77545,1,8,0:3:0:0:
262,171,77774,2,0,B|213:197|213:197|199:283,1,110,4|8,0:3|0:0,0:0:0:0:
120,323,78690,2,0,L|95:172|95:172,1,110,4|8,0:3|0:0,0:0:0:0:
68,171,79377,1,8,0:3:0:0:
82,117,79606,1,4,0:3:0:0:
168,49,80064,1,4,0:3:0:0:
254,117,80523,6,0,P|306:131|358:115,1,110,4|8,0:3|0:0,0:0:0:0:
399,79,81210,1,8,0:3:0:0:
426,31,81439,2,0,L|426:160,1,110,4|8,0:3|0:0,0:0:0:0:
426,251,82355,2,0,L|297:251,1,110,4|8,0:3|0:0,0:0:0:0:
261,251,83042,1,8,0:3:0:0:
206,251,83272,2,0,P|153:264|118:302,1,55,4|0,0:3|0:0,0:0:0:0:
100,251,83730,2,0,P|47:237|12:200,1,55,4|0,0:3|0:0,0:0:0:0:
20,189,84188,6,0,P|8:136|23:82,1,110,4|8,0:0|0:0,0:0:0:0:
112,20,85104,1,2,0:0:0:0:
220,48,85562,1,8,0:0:0:0:
324,20,86020,2,0,B|381:20|381:20|430:56,1,110,2|8,0:0|0:0,0:0:0:0:
424,160,86937,2,0,B|367:160|367:160|318:124,1,110,2|8,0:0|0:0,0:0:0:0:
232,188,87853,6,0,B|230:221|230:221|233:250,1,55,2|0,0:0|0:0,0:0:0:0:
240,296,88311,2,0,P|181:288|124:299,2,110,8|2|8,0:0|0:0|0:0,0:0:0:0:
348,276,89686,2,0,L|364:149,1,110,2|8,0:0|0:0,0:0:0:0:
460,120,90602,2,0,L|444:-7,1,110,2|8,0:0|0:0,0:0:0:0:
340,36,91518,6,0,P|234:61|124:34,1,220,2|2,0:0|0:0,0:0:0:0:
29,83,92893,1,8,0:0:0:0:
69,185,93351,2,0,B|91:216|97:234|97:234|90:256|64:286,2,110,2|8|0,0:0|0:0|0:0,0:0:0:0:
29,83,94725,1,8,0:0:0:0:
126,32,95184,6,0,B|241:57|229:3|350:22,1,220,2|2,0:0|0:0,0:0:0:0:
435,80,96558,1,8,0:0:0:0:
357,158,97016,1,2,0:0:0:0:
357,158,97245,2,0,B|367:222|367:222|359:277,1,110,8|8,0:0|0:0,0:0:0:0:
325,309,97933,2,0,L|259:307,1,55,4|4,0:3|0:3,0:0:0:0:
218,325,98391,1,8,0:0:0:0:
112,348,98849,6,0,B|60:348|60:348|24:303,1,110,4|8,0:0|0:0,0:0:0:0:
28,248,99536,1,2,0:0:0:0:
28,248,99765,2,0,L|84:228,1,55,2|0,0:0|0:0,0:0:0:0:
97,124,100452,1,2,0:0:0:0:
97,124,100681,2,0,P|145:132|205:124,1,110,2|8,0:0|0:0,0:0:0:0:
295,60,101598,2,0,P|343:52|403:60,1,110,2|8,0:0|0:0,0:0:0:0:
448,91,102285,1,0,0:0:0:0:
448,91,102514,6,0,B|448:127|448:127|440:159|440:159|440:207,1,110,2|8,0:0|0:0,0:0:0:0:
440,256,103201,1,2,0:0:0:0:
440,256,103430,2,0,L|492:284,1,55,2|0,0:0|0:0,0:0:0:0:
392,336,104118,1,2,0:0:0:0:
392,336,104347,2,0,L|296:284,1,110,2|8,0:0|0:0,0:0:0:0:
192,240,105263,2,0,B|188:212|188:212|192:184,2,55,4|8|8,0:3|0:0|0:3,0:0:0:0:
100,296,106180,6,0,B|104:324|104:324|96:356,2,55,4|2|8,0:0|0:0|0:0,0:0:0:0:
64,252,106879,2,0,L|44:144,1,110,4|2,0:0|0:0,0:0:0:0:
136,80,107811,2,0,B|188:88|188:88|244:80,1,109,4|0,0:0|0:0,0:0:0:0:
352,52,108733,2,0,B|408:44|408:44|460:52,1,110,4|8,0:0|0:0,0:0:0:0:
488,100,109423,1,8,0:0:0:0:
424,192,109883,6,0,B|432:216|432:216|424:244,2,55,4|2|8,0:0|0:0|0:0,0:0:0:0:
380,160,110572,2,0,P|328:152|272:160,1,110,4|0,0:0|0:0,0:0:0:0:
216,256,111492,2,0,P|268:264|324:256,1,110,4|0,0:0|0:0,0:0:0:0:
380,244,112178,2,0,L|436:248,1,55,8|4,0:0|0:0,0:0:0:0:
380,344,112862,1,8,0:0:0:0:
380,344,113090,1,8,0:0:0:0:
264,344,113547,6,0,L|196:348,1,55,4|2,0:0|0:0,0:0:0:0:
160,324,114007,1,8,0:0:0:0:
160,324,114237,2,0,P|152:276|160:216,1,110,4|0,0:0|0:0,0:0:0:0:
212,116,115159,2,0,L|328:104,1,108,4|0,0:0|0:0,0:0:0:0:
412,164,116057,2,0,B|440:212|428:248|428:248|416:284|432:324,1,165,4|4,0:0|0:3,0:0:0:0:
320,348,117191,5,4,0:3:0:0:
320,348,119005,5,4,0:3:0:0:
320,348,120837,5,4,0:3:0:0:
320,348,122681,6,0,L|152:352,2,165,4|4|4,0:0|0:0|0:0,0:0:0:0:
256,260,124513,1,0,0:0:0:0:
256,260,124742,2,0,L|420:256,1,165,4|4,0:0|0:0,0:0:0:0:
484,168,125887,1,4,0:0:0:0:
424,76,126340,6,0,P|372:88|312:72,1,110,4|8,0:0|0:0,0:0:0:0:
216,36,127254,2,0,L|100:40,1,110,2|8,0:0|0:0,0:0:0:0:
64,76,127941,2,0,B|80:128|80:128|64:184,1,110,2|2,0:0|0:0,0:0:0:0:
36,228,128627,2,0,B|20:280|20:280|36:336,1,110,8|2,0:0|0:0,0:0:0:0:
136,380,129542,1,8,0:0:0:0:
228,320,129999,6,0,L|284:312,2,55,2|2|8,0:0|0:0|0:0,0:0:0:0:
152,244,130914,2,0,L|40:232,1,110,2|8,0:0|0:0,0:0:0:0:
16,184,131601,1,2,0:0:0:0:
16,184,131834,2,0,P|32:132|20:76,1,110,4|8,0:3|0:0,0:0:0:0:
120,28,132743,1,8,0:0:0:0:
204,100,133197,1,8,0:3:0:0:
308,72,133649,6,0,P|381:33|381:121,2,197.99999395752,2|2|2,0:0|0:0|0:0,0:0:0:0:
204,312,137307,6,0,P|124:348|134:260,2,208.999994419098,2|2|2,0:0|0:0|0:0,0:0:0:0:
484,128,140966,6,0,B|424:36|424:36|304:36,1,220,2|2,0:0|0:0,0:0:0:0:
256,128,142338,1,8,0:0:0:0:
198,36,142795,2,0,B|88:36|88:36|28:128,1,220,2|2,0:0|0:0,0:0:0:0:
60,232,144167,1,8,0:0:0:0:
152,292,144624,6,0,P|256:324|364:296,1,220,2|2,0:0|0:0,0:0:0:0:
420,204,145996,1,8,0:0:0:0:
336,132,146453,2,0,P|248:112|172:132,1,165,8|4,0:0|0:0,0:0:0:0:
256,192,147368,12,0,151027,0:0:0:0:
204,140,159256,6,0,B|204:180|192:192|192:192|204:208|204:248,1,110,4|2,0:3|0:3,0:0:0:0:
312,244,160172,2,0,B|311:206|323:190|323:190|311:178|311:138,1,110,4|2,0:3|0:3,0:0:0:0:
236,60,161088,2,0,P|176:56|128:96,1,110,4|2,0:3|0:3,0:0:0:0:
64,164,162004,1,4,0:3:0:0:
124,256,162462,1,2,0:3:0:0:
64,348,162920,6,0,P|152:360|188:160,1,330,4|2,0:3|0:3,0:0:0:0:
128,256,164762,1,8,0:0:0:0:
54,174,165216,1,2,0:3:0:0:
127,92,165671,2,0,L|127:28,2,55,2|2|8,0:0|0:0|0:3,0:0:0:0:
157,196,166580,6,0,B|177:228|213:228|213:228|277:228,1,110,4|8,0:0|0:0,0:0:0:0:
349,284,167494,2,0,P|363:239|343:167,1,110,2|8,0:0|0:0,0:0:0:0:
312,138,168181,2,0,P|288:90|324:26,1,110,2|0,0:0|0:0,0:0:0:0:
353,11,168867,1,8,0:0:0:0:
353,11,169324,2,0,B|317:11|301:-5|301:-5|285:11|233:11,1,110,2|8,0:0|0:0,0:0:0:0:
149,53,170239,6,0,L|141:113,1,55,2|0,0:0|0:0,0:0:0:0:
143,162,170697,2,0,L|163:230,1,55,8|0,0:0|0:0,0:0:0:0:
128,260,171154,2,0,P|180:324|248:296,2,165,2|2|8,0:0|0:0|0:0,0:0:0:0:
213,190,172984,1,2,0:0:0:0:
316,226,173442,2,0,B|348:234|348:234|372:226,1,55,8|2,0:0|0:0,0:0:0:0:
413,199,173897,6,0,B|392:324,1,110,4|8,0:0|0:0,0:0:0:0:
296,359,174811,2,0,P|244:343|220:279,1,110,2|8,0:0|0:0,0:0:0:0:
188,251,175498,2,0,P|180:311|128:343,1,110,2|0,0:0|0:0,0:0:0:0:
92,364,176184,1,8,0:0:0:0:
92,364,176641,2,0,B|112:288|112:288|100:244,1,110,2|8,0:0|0:0,0:0:0:0:
32,172,177556,6,0,L|16:116,1,55,2|0,0:0|0:0,0:0:0:0:
40,68,178014,2,0,B|68:60|68:60|100:64,1,55,8|0,0:0|0:0,0:0:0:0:
136,100,178471,2,0,P|196:100|180:16,2,165,2|0|8,0:0|0:0|0:0,0:0:0:0:
32,60,180301,2,0,L|27:119,1,55,2|8,0:0|0:0,0:0:0:0:
56,160,180759,1,8,0:0:0:0:
100,270,181204,6,0,P|151:256|204:272,1,110,4|8,0:0|0:0,0:0:0:0:
308,306,182120,2,0,B|312:266|312:266|256:194,1,110,2|8,0:0|0:0,0:0:0:0:
228,174,182807,2,0,L|244:50,1,110,2|0,0:0|0:0,0:0:0:0:
248,10,183494,1,10,0:0:0:0:
336,74,183952,2,0,P|363:77|390:73,2,55,2|0|8,0:0|0:0|0:0,0:0:0:0:
309,180,184868,6,0,B|356:202|356:202|412:194|412:194|406:249|406:249|428:298|428:298|374:310|374:310|333:347|333:347,1,330,2|10,0:2|0:0,0:1:0:0:
249,276,186700,2,0,B|160:288|160:288,2,82.5,4|4|4,0:3|0:3|0:3,0:0:0:0:
303,265,187616,1,8,0:3:0:0:
220,191,188074,2,0,B|169:155|169:155,1,55,8|4,0:3|0:3,0:3:0:0:
174,105,188532,6,0,P|224:90|278:106,2,110,6|8|2,0:0|0:0|0:0,0:0:0:0:
119,200,189906,1,8,0:0:0:0:
173,200,190135,2,0,P|224:216|277:202,1,110,2|0,0:0|0:0,0:0:0:0:
332,202,190822,1,10,0:0:0:0:
384,105,191280,2,0,P|411:100|438:103,2,55,2|0|8,0:0|0:0|0:0,0:0:0:0:
256,192,192196,12,4,195860,0:0:0:0:
