osu file format v14

[General]
AudioFilename: MyWay.mp3
AudioLeadIn: 0
PreviewTime: 26763
Countdown: 0
SampleSet: None
StackLeniency: 0.2
Mode: 0
LetterboxInBreaks: 1
EpilepsyWarning: 1
WidescreenStoryboard: 1

[Editor]
Bookmarks: 14763,55906,66191,76477,83334,85049,98763,112477,126191,136477,137334,138191,139049,139906,151906,153620,167334,174191,181049,194763,207620,208477,215334,222191,222406,222620,222834,223049
DistanceSpacing: 0.8
BeatDivisor: 3
GridSize: 8
TimelineZoom: 1.300003

[Metadata]
Title:My Way
TitleUnicode:My Way
Artist:The Brig
ArtistUnicode:The Brig
Creator:MatsubuS
Version:Normal
Source:
Tags:dubstep
BeatmapID:1256177
BeatmapSetID:593795

[Difficulty]
HPDrainRate:4
CircleSize:3
OverallDifficulty:4
ApproachRate:7
SliderMultiplier:1.7
SliderTickRate:1

[Events]
//Background and Video events
0,0,"maxresdefault.jpg",0,0
//Break Periods
2,69820,75277
2,153820,159277
2,174391,176420
//Storyboard Layer 0 (Background)
//Storyboard Layer 1 (Fail)
//Storyboard Layer 2 (Pass)
//Storyboard Layer 3 (Foreground)
//Storyboard Sound Samples

[TimingPoints]
1049,428.571428571429,4,2,0,70,1,0
28477,-100,4,2,0,70,0,1
41763,-100,4,2,0,70,0,0
119334,-100,4,2,0,70,0,1
126191,-100,4,2,0,70,0,0
181049,-100,4,2,0,70,0,1
193906,-100,4,2,0,70,0,0
222191,-100,4,2,0,60,0,0
223049,-100,4,2,0,50,0,0
223906,-100,4,2,0,40,0,0
224763,-100,4,2,0,30,0,0
225620,-100,4,2,0,20,0,0
226477,-100,4,2,0,10,0,0

[Colours]
Combo1 : 138,180,255
Combo2 : 255,128,192
Combo3 : 255,0,0
Combo4 : 0,128,255
Combo5 : 255,190,125
Combo6 : 196,255,255

[HitObjects]
444,60,1049,6,0,P|420:108|352:132,1,113.333333333333
324,120,1477,1,0,0:0:0:0:
260,56,1763,1,0,0:0:0:0:
260,56,1906,2,0,P|236:124|196:148,1,113.333333333333
164,188,2334,2,0,P|188:256|228:280,1,113.333333333333
276,296,2763,6,0,B|352:272|352:272|380:296|380:296|448:276,1,170
396,196,3477,1,0,0:0:0:0:
396,196,3620,2,0,L|424:128,3,56.6666666666667
328,120,4334,5,0,0:0:0:0:
328,120,4477,2,0,P|300:184|192:196,1,170
180,336,5334,2,0,B|224:280|224:280|340:308,1,170
412,296,6049,5,0,0:0:0:0:
412,296,6191,2,0,B|456:268|444:232|444:232|428:184|472:148,1,170
352,84,7049,2,0,L|296:28,2,56.6666666666667
352,140,7477,2,0,P|344:208|296:244,1,113.333333333333
260,252,7906,6,0,B|232:200|232:200|280:80,1,170
148,44,8763,1,0,0:0:0:0:
84,108,9049,1,0,0:0:0:0:
92,200,9334,1,0,0:0:0:0:
152,268,9620,6,0,P|216:292|320:248,1,170
384,208,10334,1,0,0:0:0:0:
420,184,10477,2,0,P|440:144|336:112,1,170
220,128,11334,6,0,P|168:132|112:84,1,113.333333333333
80,76,11763,2,0,L|104:248,1,170
232,284,12620,2,0,L|288:312,2,56.6666666666667
208,244,13049,6,0,P|208:184|312:128,1,170
440,100,13906,2,0,L|464:40,2,56.6666666666667
440,148,14334,2,0,L|464:208,2,56.6666666666667
396,128,14763,6,0,B|312:128|312:128|232:160,1,170
200,300,15620,2,0,P|256:292|312:240,1,113.333333333333
264,232,16049,2,0,P|188:204|152:160,1,113.333333333333
136,152,16477,6,0,B|108:120|108:120|128:272,1,170
192,192,17191,1,0,0:0:0:0:
216,152,17334,2,0,P|248:108|320:72,2,113.333333333333
304,196,18191,6,0,B|324:124|324:124|248:40,1,170
116,76,19049,2,0,L|80:128,1,56.6666666666667
108,168,19334,2,0,L|72:224,1,56.6666666666667
100,260,19620,2,0,L|64:312,1,56.6666666666667
88,356,19906,6,0,B|152:316|152:316|256:344,1,170
376,272,20763,2,0,P|424:208|416:152,1,113.333333333333
384,152,21191,2,0,P|336:216|344:272,1,113.333333333333
312,300,21620,6,0,L|160:192,1,170
176,64,22477,2,0,L|248:48,2,56.6666666666667
136,88,22906,2,0,L|200:208,1,113.333333333333
216,236,23334,6,0,B|232:280|256:304|304:304|340:276|336:232|312:232,1,170
328,144,24049,1,0,0:0:0:0:
328,144,24191,1,0,0:0:0:0:
264,80,24477,1,0,0:0:0:0:
264,80,24620,2,0,P|204:132|160:136,1,113.333333333333
160,96,25049,6,0,B|180:72|180:72|204:224,1,170
292,288,25906,2,0,L|416:248,1,113.333333333333
440,232,26334,2,0,L|320:184,1,113.333333333333
296,176,26763,1,0,0:0:0:0:
168,80,27620,5,0,0:0:0:0:
96,128,27906,1,0,0:0:0:0:
96,128,28049,2,0,P|128:184|192:216,1,113.333333333333
208,224,28477,6,0,P|256:200|288:128,1,113.333333333333
288,104,28906,1,0,0:0:0:0:
368,56,29191,1,0,0:0:0:0:
368,56,29334,2,0,P|400:112|400:176,1,113.333333333333
400,208,29763,2,0,P|376:272|328:304,1,113.333333333333
296,312,30191,6,0,P|288:248|176:224,1,170
104,312,31049,2,0,P|152:248|144:144,1,170
192,80,31763,5,0,0:0:0:0:
192,80,31906,2,0,P|232:112|352:88,1,170
424,56,32620,1,0,0:0:0:0:
440,96,32763,2,0,P|448:176|424:216,1,113.333333333333
408,240,33191,2,0,P|336:256|296:296,1,113.333333333333
280,320,33620,6,0,L|240:200,1,113.333333333333
232,168,34049,2,0,L|152:144,2,56.6666666666667
280,176,34477,2,0,B|328:160|328:160|200:120,1,170
144,240,35334,6,0,P|200:288|304:272,1,170
376,248,36049,1,0,0:0:0:0:
376,248,36191,2,0,P|416:192|424:128,1,113.333333333333
416,104,36620,2,0,B|352:96|352:96|400:64,1,113.333333333333
432,40,37049,6,0,L|216:56,1,170
144,112,37906,2,0,L|304:120,1,113.333333333333
304,120,38334,2,0,L|400:128,2,56.6666666666667
312,168,38763,6,0,P|328:256|160:232,1,283.333333333333
184,232,39620,2,0,B|256:224|256:224|200:152|200:152,1,113.333333333333
208,152,40049,1,0,0:0:0:0:
304,56,40477,1,0,0:0:0:0:
312,192,40906,1,0,0:0:0:0:
440,144,41334,2,0,P|400:96|280:128,1,170
176,56,42191,6,0,B|144:120|88:144|88:144|128:200,2,170
264,48,43334,1,0,0:0:0:0:
264,48,43477,1,0,0:0:0:0:
344,96,43763,5,0,0:0:0:0:
344,96,43906,2,0,P|384:152|336:248,2,170
280,160,45049,1,0,0:0:0:0:
248,192,45191,2,0,P|208:240|176:248,2,56.6666666666667
200,184,45620,6,0,B|112:160|112:160|120:112|64:72|64:72|224:72,1,340
296,64,46763,1,0,0:0:0:0:
336,80,46906,2,0,L|400:56,2,56.6666666666667
360,120,47334,6,0,L|432:240,1,113.333333333333
400,256,47763,2,0,L|272:200,1,113.333333333333
272,248,48191,1,0,0:0:0:0:
184,240,48477,2,0,L|136:192,1,56.6666666666667
128,160,48763,2,0,L|56:144,1,56.6666666666667
88,104,49049,6,0,P|160:64|232:56,2,113.333333333333
168,136,49906,2,0,P|248:144|288:112,1,113.333333333333
312,104,50334,1,0,0:0:0:0:
432,168,50763,6,0,P|416:256|384:288,1,113.333333333333
368,304,51191,2,0,L|240:320,1,113.333333333333
240,272,51620,2,0,P|272:192|176:168,1,170
144,216,52334,5,0,0:0:0:0:
144,216,52477,2,0,B|216:248|216:248|184:184|216:96|320:80|376:128,1,340
432,56,53620,1,0,0:0:0:0:
432,56,53763,2,0,B|472:48|472:48|496:32,2,56.6666666666667
416,96,54191,6,0,P|432:184|464:224,1,113.333333333333
456,248,54620,2,0,B|448:304|448:304|368:336,1,113.333333333333
352,320,55049,2,0,L|368:256,2,56.6666666666667
312,304,55477,2,0,L|280:240,2,56.6666666666667
272,288,55906,6,0,B|192:280|192:280|104:208,1,170
152,136,56620,1,0,0:0:0:0:
152,136,56763,2,0,P|208:168|272:160,1,113.333333333333
288,128,57191,2,0,P|232:96|168:104,1,113.333333333333
144,80,57620,6,0,B|120:72|88:80|88:80|72:128|112:208,1,170
176,248,58334,1,0,0:0:0:0:
176,248,58477,2,0,L|216:312,2,56.6666666666667
216,232,58906,2,0,L|280:272,2,56.6666666666667
256,216,59334,6,0,P|328:200|392:96,1,170
256,168,60191,2,0,P|184:184|120:288,1,170
256,304,61049,6,0,P|344:288|376:248,1,113.333333333333
336,232,61477,2,0,L|232:160,1,113.333333333333
208,144,61906,2,0,P|120:160|88:200,1,113.333333333333
128,216,62334,2,0,L|232:288,1,113.333333333333
256,304,62763,6,0,B|320:304|320:304|368:272,1,113.333333333333
400,248,63191,2,0,L|448:208,2,56.6666666666667
352,240,63620,2,0,P|272:224|248:192,1,113.333333333333
232,168,64049,2,0,L|176:192,2,56.6666666666667
216,128,64477,6,0,P|296:112|352:80,1,113.333333333333
360,72,64906,1,0,0:0:0:0:
408,152,65191,1,0,0:0:0:0:
408,152,65334,2,0,P|328:168|272:200,1,113.333333333333
264,208,65763,2,0,L|264:280,3,56.6666666666667
256,192,66334,12,0,69620,0:0:0:0:
120,104,76477,6,0,P|80:184|88:232,1,113.333333333333
112,240,76906,2,0,L|216:304,1,113.333333333333
248,280,77334,2,0,P|200:216|248:144,1,170
392,104,78191,6,0,P|432:184|424:232,1,113.333333333333
400,240,78620,2,0,L|296:304,1,113.333333333333
264,280,79048,2,0,P|312:216|264:144,1,170
152,80,79906,6,0,L|96:192,1,113.333333333333
120,224,80334,2,0,L|232:280,1,113.333333333333
264,264,80763,2,0,L|320:152,1,113.333333333333
296,120,81191,2,0,L|184:64,1,113.333333333333
176,112,81620,6,0,P|192:184|240:224,2,113.333333333333
96,144,82477,1,0,0:0:0:0:
360,88,83334,5,0,0:0:0:0:
336,176,83620,2,0,L|408:192,2,56.6666666666667
248,152,84191,5,0,0:0:0:0:
272,64,84477,2,0,L|200:48,3,56.6666666666667
176,64,85049,6,0,P|80:112|112:288,1,283.333333333333
128,288,85906,2,0,B|152:232|152:232|184:272|184:272|240:296|336:240|288:184,1,283.333333333333
280,152,86763,6,0,L|328:104,2,56.6666666666667
232,160,87191,2,0,P|160:192|96:184,1,113.333333333333
88,168,87620,2,0,L|128:112,1,56.6666666666667
144,80,87906,1,0,0:0:0:0:
144,80,88049,2,0,L|216:64,1,56.6666666666667
288,72,88477,6,0,B|336:32|336:32|320:88|352:160|408:176|472:144,1,283.333333333333
472,192,89334,2,0,B|464:256|464:256|400:304,2,113.333333333333
384,184,90191,6,0,L|352:128,2,56.6666666666667
336,176,90620,2,0,L|304:120,2,56.6666666666667
288,168,91049,2,0,L|256:112,2,56.6666666666667
240,160,91477,2,0,L|208:104,2,56.6666666666667
192,152,91906,6,0,P|120:176|128:288,2,170
296,232,93191,2,0,P|368:208|360:96,1,170
296,96,93906,1,0,0:0:0:0:
296,96,94049,2,0,P|248:168|208:176,1,113.333333333333
184,176,94477,2,0,B|168:208|168:208|320:192,1,170
384,80,95334,6,0,P|440:144|328:304,1,283.333333333333
312,296,96191,2,0,L|320:232,2,56.6666666666667
264,296,96620,6,0,P|200:240|184:176,1,113.333333333333
184,168,97049,1,0,0:0:0:0:
232,96,97334,6,0,L|280:48,1,56.6666666666667
320,56,97620,2,0,L|368:104,1,56.6666666666667
408,96,97906,1,0,0:0:0:0:
424,184,98191,6,0,L|376:232,1,56.6666666666667
336,224,98477,2,0,L|288:176,1,56.6666666666667
248,184,98763,6,0,P|200:240|136:256,1,113.333333333333
128,232,99191,2,0,P|184:280|200:344,1,113.333333333333
176,352,99620,2,0,P|224:296|288:280,1,113.333333333333
296,304,100049,2,0,P|240:256|224:192,1,113.333333333333
216,176,100477,5,0,0:0:0:0:
248,88,100763,1,0,0:0:0:0:
248,88,100906,1,0,0:0:0:0:
376,136,101334,2,0,P|440:104|448:96,2,56.6666666666667
384,184,101763,1,0,0:0:0:0:
344,312,102191,6,0,B|304:256|304:256|264:312|208:280|176:224|192:168|272:152,1,283.333333333333
280,144,103049,2,0,P|344:96|352:48,1,113.333333333333
312,56,103477,2,0,P|256:64|192:48,1,113.333333333333
160,40,103906,5,0,0:0:0:0:
88,160,104334,2,0,L|112:232,2,56.6666666666667
136,168,104763,2,0,L|160:240,2,56.6666666666667
184,176,105191,2,0,L|208:248,2,56.6666666666667
232,184,105620,6,0,P|320:184|400:112,2,170
264,104,106763,1,0,0:0:0:0:
264,104,106906,2,0,P|360:72|368:40,1,113.333333333333
384,32,107334,6,0,P|440:88|424:208,1,170
392,304,108191,2,0,L|352:360,2,56.6666666666667
360,272,108620,1,0,0:0:0:0:
312,144,109049,6,0,B|288:208|288:208|272:152|184:104|96:112|96:128,1,283.333333333333
88,160,109906,2,0,L|120:232,1,56.6666666666667
128,256,110191,2,0,B|184:264|184:264|304:176,1,170
312,168,110763,6,0,L|384:112,1,56.6666666666667
392,104,111049,2,0,L|448:56,1,56.6666666666667
472,40,111334,1,0,0:0:0:0:
496,128,111620,6,0,L|424:184,1,56.6666666666667
416,192,111906,2,0,L|360:240,1,56.6666666666667
336,256,112191,2,0,L|272:304,1,56.6666666666667
256,320,112477,6,0,P|184:320|144:264,1,113.333333333333
152,248,112906,2,0,P|197:215|252:222,1,113.333333333333
296,240,113334,2,0,P|360:200|376:144,2,113.333333333333
216,192,114191,6,0,P|144:192|104:248,1,113.333333333333
112,264,114620,2,0,P|157:296|212:289,1,113.333333333333
256,272,115048,2,0,P|320:312|336:368,2,113.333333333333
192,208,115906,6,0,P|152:136|176:80,1,113.333333333333
168,64,116334,2,0,P|240:24|296:48,1,113.333333333333
304,48,116763,2,0,P|344:120|320:176,1,113.333333333333
328,192,117191,2,0,P|256:232|200:208,1,113.333333333333
184,208,117620,6,0,L|112:224,2,56.6666666666667
176,256,118049,2,0,L|104:272,2,56.6666666666667
168,304,118477,2,0,L|96:320,2,56.6666666666667
160,352,118906,2,0,B|240:344|240:344|304:304,1,113.333333333333
304,304,119334,6,0,P|352:240|304:144,1,170
264,96,120049,1,0,0:0:0:0:
264,96,120191,2,0,P|216:176|176:192,1,113.333333333333
168,208,120620,2,0,P|216:288|256:304,1,113.333333333333
272,320,121049,6,0,L|400:272,1,113.333333333333
416,264,121477,2,0,P|464:224|416:184,1,113.333333333333
400,168,121906,2,0,P|328:200|264:184,1,113.333333333333
256,184,122334,1,0,0:0:0:0:
304,104,122620,1,0,0:0:0:0:
304,104,122763,6,0,P|224:120|144:72,1,170
80,200,123620,2,0,P|120:272|176:288,1,113.333333333333
192,288,124049,2,0,L|184:224,2,56.6666666666667
240,280,124477,6,0,L|247:336,2,56.6666666666667
288,272,124906,2,0,L|272:128,1,113.333333333333
272,112,125334,2,0,L|320:80,2,56.6666666666667
256,72,125763,2,0,L|208:103,2,56.6666666666667
240,32,126191,6,0,L|192:63,2,56.6666666666667
288,40,126620,2,0,P|352:80|424:72,1,113.333333333333
432,88,127049,2,0,L|496:96,2,56.6666666666667
424,136,127478,2,0,P|360:176|288:168,1,113.333333333333
280,176,127906,5,0,0:0:0:0:
264,264,128191,1,0,0:0:0:0:
264,264,128334,1,0,0:0:0:0:
192,208,128620,1,0,0:0:0:0:
192,208,128763,2,0,L|120:184,1,56.6666666666667
184,176,129049,2,0,L|112:152,1,56.6666666666667
176,144,129334,2,0,L|104:120,1,56.6666666666667
168,112,129620,6,0,P|224:56|320:48,1,170
376,168,130477,1,0,0:0:0:0:
352,304,130906,2,0,P|272:344|232:320,1,113.333333333333
216,312,131334,6,0,P|256:256|256:200,1,113.333333333333
240,168,131763,2,0,P|184:128|128:128,1,113.333333333333
96,144,132191,2,0,P|56:200|56:256,1,113.333333333333
72,288,132620,2,0,P|128:328|184:328,1,113.333333333333
216,320,133049,6,0,L|208:256,2,56.6666666666667
264,312,133477,2,0,L|256:248,2,56.6666666666667
312,304,133906,1,0,0:0:0:0:
400,288,134191,1,0,0:0:0:0:
400,288,134334,2,0,P|424:208|400:152,1,113.333333333333
384,152,134763,6,0,L|272:128,1,113.333333333333
232,120,135191,2,0,L|208:232,1,113.333333333333
200,272,135620,2,0,L|272:288,2,56.6666666666667
152,264,136049,2,0,L|40:240,1,113.333333333333
256,192,136477,12,0,139049,0:0:0:0:
256,192,139477,6,0,L|256:128,2,56.6666666666667
256,240,139906,6,0,B|200:296|200:296|256:352|256:352|376:232,1,283.333333333333
376,232,140763,2,0,P|424:160|408:104,1,113.333333333333
400,96,141191,2,0,P|328:48|272:64,1,113.333333333333
264,64,141620,5,0,0:0:0:0:
216,144,141906,1,0,0:0:0:0:
216,144,142049,2,0,P|136:128|120:88,1,113.333333333333
112,64,142477,2,0,L|104:0,2,56.6666666666667
64,72,142906,2,0,L|56:8,1,56.6666666666667
144,40,143334,5,0,0:0:0:0:
264,104,143763,2,0,B|320:112|320:112|392:96,1,113.333333333333
424,88,144191,2,0,B|416:144|416:144|432:216,1,113.333333333333
440,240,144620,2,0,B|384:232|384:232|312:248,1,113.333333333333
288,256,145049,6,0,L|248:208,2,56.6666666666667
240,248,145477,2,0,L|200:200,2,56.6666666666667
192,240,145906,2,0,L|155:196,2,56.6666666666667
143,232,146334,2,0,L|106:188,2,56.6666666666667
96,224,146763,6,0,P|56:160|120:72,2,170
168,280,147906,1,0,0:0:0:0:
168,280,148049,2,0,B|232:248|232:248|352:264,1,170
344,168,148763,1,0,0:0:0:0:
344,168,148906,2,0,B|280:200|280:200|216:192,1,113.333333333333
192,184,149334,2,0,B|160:120|160:120|168:56,1,113.333333333333
176,32,149763,2,0,B|240:0|240:0|304:8,1,113.333333333333
328,16,150191,6,0,P|296:88|456:112,1,283.333333333333
472,88,151049,2,0,L|480:24,3,56.6666666666667
256,192,151906,12,0,153620,0:0:0:0:
96,80,160477,6,0,L|112:280,1,170
240,280,161334,2,0,B|312:264|312:264|360:216,1,113.333333333333
320,192,161763,2,0,B|248:208|248:208|200:256,1,113.333333333333
192,272,162191,6,0,P|136:232|168:112,1,170
200,72,162906,1,0,0:0:0:0:
200,72,163049,2,0,P|280:88|352:72,2,113.333333333333
112,64,163906,6,0,B|120:232|120:232|256:368,1,340
336,256,165191,2,0,L|288:208,2,56.6666666666667
384,248,165620,2,0,P|440:224|400:96,1,170
320,80,166477,2,0,L|288:24,2,56.6666666666667
272,88,166906,2,0,L|240:32,2,56.6666666666667
224,96,167334,6,0,P|168:144|168:216,1,113.333333333333
168,224,167763,1,0,0:0:0:0:
304,240,168191,2,0,P|368:176|360:136,1,113.333333333333
360,120,168620,2,0,L|232:96,1,113.333333333333
200,88,169049,6,0,P|168:160|64:128,1,170
216,192,169906,2,0,P|152:256|160:296,1,113.333333333333
160,312,170335,2,0,L|288:336,1,113.333333333333
320,344,170764,6,0,P|352:272|384:272,2,113.333333333333
272,272,171620,2,0,L|264:208,1,56.6666666666667
216,216,171906,2,0,L|208:152,1,56.6666666666667
160,160,172191,2,0,L|152:96,1,56.6666666666667
104,104,172477,6,0,P|80:176|152:240,1,170
272,208,173334,2,0,L|304:144,2,56.6666666666667
304,240,173763,2,0,P|384:288|456:248,1,170
176,240,177620,6,0,P|256:120|336:240,2,340
256,128,179763,1,0,0:0:0:0:
192,248,180191,2,0,P|256:296|320:248,1,170
376,128,181049,6,0,P|304:120|256:80,1,113.333333333333
240,64,181477,2,0,P|232:136|192:184,1,113.333333333333
176,200,181906,2,0,P|248:208|296:248,1,113.333333333333
312,264,182334,2,0,P|320:192|336:168,2,56.6666666666667
344,296,182763,6,0,P|371:300|400:297,2,56.6666666666667
304,304,183191,2,0,P|224:336|144:280,1,170
176,208,183906,1,0,0:0:0:0:
176,208,184049,2,0,P|248:160|256:120,1,113.333333333333
256,96,184477,6,0,L|96:64,2,113.333333333333
200,168,185334,2,0,L|311:190,2,113.333333333333
136,232,186191,6,0,P|184:288|232:296,1,113.333333333333
264,288,186620,2,0,L|232:160,1,113.333333333333
224,136,187049,2,0,P|256:88|272:80,2,56.6666666666667
176,144,187477,2,0,P|152:80|160:64,2,56.6666666666667
144,176,187906,6,0,P|160:256|216:304,1,113.333333333333
216,304,188334,2,0,P|296:288|344:232,1,113.333333333333
352,232,188763,2,0,B|400:224|400:224|272:168,1,170
256,40,189620,6,0,P|176:56|128:112,1,113.333333333333
128,112,190048,2,0,P|144:192|200:240,1,113.333333333333
200,248,190477,2,0,B|208:296|208:296|248:208,1,113.333333333333
256,192,190906,2,0,L|288:128,2,56.6666666666667
272,232,191334,6,0,P|312:280|344:280,2,56.6666666666667
224,224,191763,2,0,P|144:208|104:120,1,170
184,96,192477,1,0,0:0:0:0:
184,96,192620,2,0,P|248:128|352:88,1,170
424,208,193477,5,0,0:0:0:0:
320,296,193906,1,0,0:0:0:0:
320,296,194334,2,0,P|248:320|176:256,1,170
136,136,195191,6,0,P|200:120|240:80,1,113.333333333333
256,48,195620,2,0,P|291:91|303:146,1,113.333333333333
304,192,196049,2,0,P|240:208|200:248,1,113.333333333333
176,272,196477,6,0,P|140:228|136:208,2,56.6666666666667
208,304,196906,2,0,P|296:328|352:312,1,113.333333333333
360,312,197334,2,0,P|432:264|448:216,1,113.333333333333
456,200,197763,2,0,P|464:152|464:120,2,56.6666666666667
416,184,198191,6,0,P|360:128|248:120,1,170
152,184,199049,2,0,P|208:240|320:248,1,170
352,184,199763,5,0,0:0:0:0:
352,184,199906,2,0,L|312:120,1,56.6666666666667
280,160,200191,2,0,L|224:128,1,56.6666666666667
200,216,200620,1,0,0:0:0:0:
200,216,200763,2,0,P|240:296|288:312,1,113.333333333333
296,320,201191,2,0,B|312:344|312:344|176:336,1,113.333333333333
184,336,201620,6,0,L|192:224,2,56.6666666666667
144,312,202049,2,0,L|152:200,2,56.6666666666667
104,288,202477,1,0,0:0:0:0:
80,200,202763,1,0,0:0:0:0:
80,200,202906,2,0,P|168:184|200:152,1,113.333333333333
224,144,203334,6,0,L|216:256,2,56.6666666666667
264,168,203763,2,0,L|256:280,2,56.6666666666667
304,192,204191,1,0,0:0:0:0:
328,280,204477,1,0,0:0:0:0:
328,280,204620,2,0,P|288:288|240:312,2,56.6666666666667
368,304,205049,6,0,P|440:256|432:160,1,170
320,112,205906,2,0,P|248:160|256:256,1,170
376,216,206763,1,0,0:0:0:0:
424,88,207191,1,0,0:0:0:0:
296,56,207620,2,0,B|272:128|272:128|248:88|192:104|192:152|192:152|184:168|112:168|96:96|128:64,1,340
