osu file format v14

[General]
AudioFilename: MyWay.mp3
AudioLeadIn: 0
PreviewTime: 26763
Countdown: 0
SampleSet: None
StackLeniency: 0.2
Mode: 0
LetterboxInBreaks: 1
EpilepsyWarning: 1
WidescreenStoryboard: 1

[Editor]
Bookmarks: 14763,55906,66191,76477,83334,85049,98763,112477,126191,136477,137334,138191,139049,139906,151906,153620,167334,174191,181049,194763,207620,208477,215334,222191,222406,222620,222834,223049
DistanceSpacing: 0.8
BeatDivisor: 6
GridSize: 4
TimelineZoom: 1.500003

[Metadata]
Title:My Way
TitleUnicode:My Way
Artist:The Brig
ArtistUnicode:The Brig
Creator:MatsubuS
Version:Hard
Source:
Tags:dubstep
BeatmapID:1256176
BeatmapSetID:593795

[Difficulty]
HPDrainRate:5
CircleSize:4
OverallDifficulty:5
ApproachRate:9
SliderMultiplier:2
SliderTickRate:1

[Events]
//Background and Video events
0,0,"maxresdefault.jpg",0,0
//Break Periods
2,69820,75638
2,153820,166495
2,174391,176781
//Storyboard Layer 0 (Background)
//Storyboard Layer 1 (Fail)
//Storyboard Layer 2 (Pass)
//Storyboard Layer 3 (Foreground)
//Storyboard Sound Samples

[TimingPoints]
1049,428.571428571429,4,2,0,70,1,0
13906,-90.9090909090909,4,2,0,70,0,0
14763,-95.2380952380952,4,2,0,70,0,0
28477,-83.3333333333333,4,2,0,70,0,1
41763,-80,4,2,0,70,0,0
76477,-86.9565217391304,4,2,0,70,0,0
119334,-80,4,2,0,70,0,1
126191,-80,4,2,0,70,0,0
181049,-100,4,2,0,70,0,1
193906,-100,4,2,0,70,0,0
222191,-100,4,2,0,60,0,0
223049,-100,4,2,0,50,0,0
223906,-100,4,2,0,40,0,0
224763,-100,4,2,0,30,0,0
225620,-100,4,2,0,20,0,0
226477,-100,4,2,0,10,0,0

[Colours]
Combo1 : 138,180,255
Combo2 : 255,128,192
Combo3 : 255,0,0
Combo4 : 0,128,255
Combo5 : 255,190,125
Combo6 : 196,255,255

[HitObjects]
72,88,1049,5,0,0:0:0:0:
96,152,1191,1,0,0:0:0:0:
80,216,1334,1,0,0:0:0:0:
120,272,1477,2,0,P|184:312|248:304,1,133.333333333333
320,288,1906,2,0,L|384:248,2,66.6666666666667
448,296,2334,2,0,L|384:336,2,66.6666666666667
352,248,2763,5,0,0:0:0:0:
304,296,2905,1,0,0:0:0:0:
256,344,3048,1,0,0:0:0:0:
189,341,3191,2,0,B|112:308|112:308|124:228,1,133.333333333333
200,256,3620,2,0,P|224:216|232:184,2,66.6666666666667
80,272,4049,2,0,P|90:294|120:328,1,66.6666666666667
160,276,4334,1,0,0:0:0:0:
189,341,4477,5,0,0:0:0:0:
248,312,4619,1,0,0:0:0:0:
288,256,4763,1,0,0:0:0:0:
264,192,4906,2,0,B|280:148|280:148|216:84,1,133.333333333333
256,56,5334,2,0,L|304:104,2,66.6666666666667
168,72,5763,1,0,0:0:0:0:
168,72,5906,2,0,P|152:120|144:136,1,66.6666666666667
72,168,6191,5,0,0:0:0:0:
120,224,6333,1,0,0:0:0:0:
192,224,6476,1,0,0:0:0:0:
256,192,6620,2,0,B|220:168|220:168|240:112|296:92,1,133.333333333333
352,128,7049,2,0,L|384:200,1,66.6666666666667
408,256,7334,1,0,0:0:0:0:
352,344,7477,2,0,L|328:280,1,66.6666666666667
296,216,7762,1,0,0:0:0:0:
256,328,7906,5,0,0:0:0:0:
188,312,8048,1,0,0:0:0:0:
168,244,8191,1,0,0:0:0:0:
212,192,8334,2,0,P|224:104|180:56,1,133.333333333333
84,108,8763,2,0,P|116:140|140:156,1,66.6666666666667
196,184,9049,2,0,P|236:200|268:192,1,66.6666666666667
328,184,9334,2,0,P|368:176|400:152,1,66.6666666666667
344,80,9620,5,0,0:0:0:0:
284,104,9762,1,0,0:0:0:0:
268,168,9905,1,0,0:0:0:0:
308,224,10049,2,0,B|336:224|352:212|352:212|392:304,1,133.333333333333
336,352,10477,2,0,L|300:272,1,66.6666666666667
220,284,10763,1,0,0:0:0:0:
252,224,10906,2,0,L|193:192,1,66.6666666666667
104,264,11191,1,0,0:0:0:0:
80,160,11334,6,0,P|96:112|112:88,2,66.6666666666667
160,224,11763,2,0,P|208:208|200:136,1,133.333333333333
272,56,12191,1,0,0:0:0:0:
319,90,12333,1,0,0:0:0:0:
328,144,12476,1,0,0:0:0:0:
303,198,12620,2,0,L|352:248,2,66.6666666666667
240,328,13049,5,0,0:0:0:0:
193,294,13191,1,0,0:0:0:0:
180,237,13334,1,0,0:0:0:0:
200,184,13477,2,0,P|151:142|84:132,1,133.333333333333
64,232,13906,2,0,L|104:308,2,73.3333355712891
136,216,14334,2,0,L|168:144,2,73.3333355712891
80,128,14763,6,0,L|60:92,2,34.9999989318848
168,64,15049,1,0,0:0:0:0:
168,64,15191,2,0,P|192:112|272:152,1,139.999995727539
332,124,15620,2,0,L|300:216,1,69.9999978637696
364,236,15906,1,0,0:0:0:0:
332,300,16049,2,0,P|288:264|256:252,1,69.9999978637696
200,248,16334,1,0,0:0:0:0:
64,232,16477,5,0,0:0:0:0:
92,296,16619,1,0,0:0:0:0:
152,332,16762,1,0,0:0:0:0:
224,324,16906,2,0,P|277:279|256:216,1,139.999995727539
160,232,17334,1,0,0:0:0:0:
144,144,17477,1,0,0:0:0:0:
224,176,17620,2,0,P|264:208|304:216,1,69.9999978637696
336,172,17906,2,0,P|296:140|256:132,1,69.9999978637696
224,88,18191,6,0,P|168:72|88:96,1,139.999995727539
64,184,18620,2,0,L|204:156,1,139.999995727539
280,128,19049,2,0,L|304:80,6,34.9999989318848
348,132,19620,1,0,0:0:0:0:
416,136,19762,1,0,0:0:0:0:
488,140,19906,6,0,P|468:190|444:208,2,69.9999978637696
416,136,20334,2,0,P|352:128|284:160,1,139.999995727539
192,208,20763,1,0,0:0:0:0:
264,272,20906,1,0,0:0:0:0:
352,240,21049,2,0,L|368:320,1,69.9999978637696
296,304,21334,2,0,L|282:235,1,69.9999978637696
224,168,21620,6,0,P|184:168|152:176,2,69.9999978637696
304,128,22049,2,0,B|376:144|376:144|440:196,1,139.999995727539
440,264,22477,2,0,L|432:312,2,34.9999989318848
352,272,22763,1,0,0:0:0:0:
328,304,22906,2,0,P|288:328|188:300,1,139.999995727539
160,216,23334,6,0,P|128:248|112:276,1,69.9999978637696
232,176,23620,1,0,0:0:0:0:
168,144,23763,2,0,P|128:104|156:24,1,139.999995727539
232,72,24191,2,0,L|312:48,1,69.9999978637696
368,96,24477,1,0,0:0:0:0:
392,184,24620,2,0,L|308:160,1,69.9999978637696
256,208,24906,1,0,0:0:0:0:
296,304,25049,6,0,P|344:312|372:300,2,69.9999978637696
196,312,25477,2,0,B|156:248|156:248|192:184,1,139.999995727539
224,120,25906,2,0,L|292:92,2,69.9999978637696
304,184,26334,2,0,L|388:192,2,69.9999978637696
360,272,26763,1,0,0:0:0:0:
128,304,27620,5,0,0:0:0:0:
88,216,27906,2,0,L|68:172,2,34.9999989318848
144,144,28191,1,0,0:0:0:0:
232,120,28334,1,0,0:0:0:0:
304,176,28477,6,0,P|368:152|408:72,1,159.999995117188
304,72,28906,2,0,P|248:80|176:156,1,159.999995117188
200,224,29334,2,0,P|240:288|264:308,2,79.9999975585938
336,272,29763,1,0,0:0:0:0:
336,272,29906,2,0,L|380:204,1,79.9999975585938
424,288,30191,6,0,B|368:352|368:352|272:344,1,159.999995117188
208,336,30620,2,0,P|176:288|228:204,1,159.999995117188
288,168,31049,2,0,P|344:160|384:164,1,79.9999975585938
448,184,31334,1,0,0:0:0:0:
424,96,31477,2,0,P|376:64|328:56,1,79.9999975585938
240,80,31763,1,0,0:0:0:0:
288,168,31906,6,0,P|320:232|400:264,1,159.999995117188
392,344,32334,1,0,0:0:0:0:
320,340,32476,1,0,0:0:0:0:
254,313,32619,1,0,0:0:0:0:
200,265,32763,2,0,B|176:192|176:192|92:168,1,159.999995117188
112,256,33191,2,0,L|140:336,1,79.9999975585938
56,336,33477,1,0,0:0:0:0:
32,240,33620,6,0,P|56:192|148:148,1,159.999995117188
208,184,34049,2,0,P|232:232|324:276,1,159.999995117188
432,272,34477,2,0,L|394:116,1,159.999995117188
312,92,34906,2,0,L|349:247,1,159.999995117188
360,328,35334,6,0,B|304:312|304:312|268:328|268:328|264:296|204:260,1,159.999995117188
144,312,35763,1,0,0:0:0:0:
92,240,35906,1,0,0:0:0:0:
172,196,36049,2,0,P|144:144|96:128,1,79.9999975585938
36,184,36334,2,0,L|84:248,1,79.9999975585938
164,212,36620,2,0,P|192:160|240:144,2,79.9999975585938
216,288,37049,6,0,B|260:316|260:316|288:284|392:280,1,159.999995117188
470,333,37477,2,0,P|426:353|362:269,1,159.999995117188
448,184,37906,2,0,L|468:272,1,79.9999975585938
388,320,38191,1,0,0:0:0:0:
320,284,38334,1,0,0:0:0:0:
280,224,38477,1,0,0:0:0:0:
280,152,38620,1,0,0:0:0:0:
312,88,38763,6,0,P|368:80|412:188,1,159.999995117188
436,264,39191,2,0,L|404:348,2,79.9999975585938
364,204,39620,2,0,B|320:228|320:228|296:204|296:204|240:212|204:180,1,159.999995117188
120,132,40049,6,0,B|72:196|72:196|168:188,1,159.999995117188
132,264,40477,2,0,L|220:296,1,79.9999975585938
312,268,40763,1,0,0:0:0:0:
352,280,40906,6,0,P|332:328|208:316,1,159.999995117188
224,216,41334,2,0,B|268:188|268:188|72:136,1,239.999992675781
88,248,42191,6,0,P|112:288|144:316,1,83.3333333333333
168,224,42477,2,0,P|144:184|112:156,1,83.3333333333333
36,168,42763,2,0,P|60:208|92:236,1,83.3333333333333
117,159,43049,2,0,B|89:115|89:115|125:123|208:96|184:76,1,166.666666666667
120,40,43477,1,0,0:0:0:0:
296,56,43763,5,0,0:0:0:0:
272,136,43906,2,0,P|328:136|356:112,1,83.3333333333333
412,44,44191,1,0,0:0:0:0:
472,88,44334,2,0,B|436:120|436:120|388:112,2,83.3333333333333
356,164,44763,1,0,0:0:0:0:
312,232,44906,1,0,0:0:0:0:
396,224,45049,1,0,0:0:0:0:
436,152,45191,2,0,L|452:108,3,41.6666666666667
364,88,45620,6,0,B|392:36|392:36|352:56|272:48|272:48|236:44|200:64|196:132|260:140|260:140|272:172|256:216|208:212,1,416.666666666667
136,192,46477,2,0,P|152:144|192:120,1,83.3333333333333
268,152,46763,1,0,0:0:0:0:
220,236,46906,2,0,L|276:304,2,83.3333333333333
352,276,47334,6,0,B|392:244|392:244|396:200,1,83.3333333333333
320,200,47620,2,0,B|288:160|288:160|244:156,1,83.3333333333333
248,236,47906,2,0,B|208:268|208:268|204:312,1,83.3333333333333
280,312,48191,1,0,0:0:0:0:
132,304,48477,1,0,0:0:0:0:
64,256,48620,2,0,L|24:240,2,41.6666666666667
92,168,48906,1,0,0:0:0:0:
124,76,49049,6,0,L|220:48,2,83.3333333333333
192,136,49477,2,0,L|288:120,2,83.3333333333333
184,232,49906,2,0,B|224:268|256:284|308:268|308:268|340:312,1,166.666666666667
280,200,50334,1,0,0:0:0:0:
356,56,50620,5,0,0:0:0:0:
440,96,50763,2,0,P|424:156|396:184,1,83.3333333333333
400,256,51049,1,0,0:0:0:0:
344,316,51191,2,0,L|284:236,1,83.3333333333333
208,204,51477,5,0,0:0:0:0:
152,268,51620,1,0,0:0:0:0:
192,340,51763,1,0,0:0:0:0:
260,320,51906,1,0,0:0:0:0:
300,256,52049,2,0,B|260:240|260:240|220:260|180:232|196:172|228:164,1,166.666666666667
212,124,52477,6,0,B|252:140|252:140|260:64|424:24|520:240|340:292,1,416.666666666667
328,188,53334,1,0,0:0:0:0:
228,256,53620,5,0,0:0:0:0:
260,320,53763,1,0,0:0:0:0:
336,324,53906,2,0,P|388:336|436:324,1,83.3333333333333
452,252,54191,5,0,0:0:0:0:
468,180,54334,1,0,0:0:0:0:
456,108,54477,1,0,0:0:0:0:
396,64,54620,1,0,0:0:0:0:
364,128,54763,1,0,0:0:0:0:
384,200,54906,1,0,0:0:0:0:
380,272,55049,6,0,P|348:224|348:188,1,83.3333333333333
284,120,55334,1,0,0:0:0:0:
168,132,55477,2,0,B|120:160|120:160|84:160,2,83.3333333333333
104,76,55906,6,0,P|160:52|216:56,2,83.3333333333333
72,152,56334,2,0,B|100:204|100:204|128:196|128:196|164:244|120:284,1,166.666666666667
76,340,56763,2,0,B|56:296|56:296|28:264,2,83.3333333333333
124,264,57191,2,0,B|144:308|144:308|172:340,2,83.3333333333333
192,212,57620,5,0,0:0:0:0:
244,292,57763,1,0,0:0:0:0:
288,228,57906,1,0,0:0:0:0:
320,320,58049,2,0,P|368:332|416:320,2,83.3333333333333
368,248,58477,2,0,P|404:200|412:164,1,83.3333333333333
392,84,58763,1,0,0:0:0:0:
308,107,58906,2,0,B|299:149|299:149|192:211,1,166.666666666667
96,244,59334,6,0,P|84:180|88:152,1,83.3333333333333
188,72,59620,2,0,P|200:136|196:164,1,83.3333333333333
136,204,59906,2,0,P|124:140|128:112,1,83.3333333333333
96,44,60191,1,0,0:0:0:0:
48,112,60334,1,0,0:0:0:0:
56,196,60477,1,0,0:0:0:0:
108,260,60620,2,0,B|160:280|160:280|196:284,2,83.3333333333333
184,200,61049,6,0,P|228:160|344:188,1,166.666666666667
424,136,61477,2,0,B|448:184|448:184|440:200|440:200|448:216|448:216|428:248|440:300,1,166.666666666667
364,296,61906,2,0,P|332:272|219:323,1,166.666666666667
148,264,62334,2,0,B|160:224|144:192|144:192|156:172|156:172|144:156|144:156|136:100,1,166.666666666667
208,48,62763,6,0,P|256:72|276:108,2,83.3333333333333
200,128,63191,2,0,P|240:176|352:184,1,166.666666666667
400,112,63620,1,0,0:0:0:0:
320,92,63763,1,0,0:0:0:0:
236,100,63906,1,0,0:0:0:0:
160,132,64049,2,0,P|96:148|64:148,2,83.3333333333333
112,224,64477,5,0,0:0:0:0:
112,224,64620,1,0,0:0:0:0:
112,224,64763,1,0,0:0:0:0:
192,228,64906,2,0,P|172:280|140:304,2,83.3333333333333
92,248,65334,2,0,P|112:196|144:172,2,83.3333333333333
68,316,65763,2,0,L|168:344,3,83.3333333333333
256,192,66263,12,0,67906,0:0:0:0:
256,192,67977,12,0,69620,0:0:0:0:
88,96,76477,6,0,P|96:160|160:244,1,153.333336257935
120,320,76906,2,0,P|112:256|48:172,1,153.333336257935
108,116,77334,6,0,B|128:128|128:128|140:148,2,38.3333340644837
184,64,77620,1,0,0:0:0:0:
188,72,77763,2,0,L|276:88,1,76.6666681289673
404,60,78049,1,0,0:0:0:0:
392,96,78191,6,0,B|392:152|392:152|332:244,1,153.333336257935
268,264,78620,2,0,B|268:208|268:208|328:116,1,153.333336257935
263,85,79049,2,0,L|231:133,2,38.3333340644837
176,52,79334,1,0,0:0:0:0:
168,56,79477,2,0,B|172:108|172:108|196:136,1,76.6666681289673
128,162,79763,1,0,0:0:0:0:
156,196,79906,6,0,B|180:240|180:240|236:264|280:216,1,153.333336257935
344,196,80334,2,0,B|320:152|320:152|264:128|220:176,1,153.333336257935
272,240,80763,2,0,P|292:264|320:276,5,38.3333340644837
336,284,81191,2,0,B|384:296|384:296|368:252|392:160,1,153.333336257935
416,100,81620,6,0,L|400:60,5,38.3333340644837
336,88,82049,2,0,L|312:56,5,38.3333340644837
264,128,82477,1,0,0:0:0:0:
108,248,83334,5,0,0:0:0:0:
196,284,83620,2,0,P|208:232|196:192,2,76.6666681289673
404,248,84191,5,0,0:0:0:0:
316,284,84477,2,0,P|304:232|316:192,3,76.6666681289673
236,276,85049,6,0,B|192:300|192:300|240:188|72:232|100:116|100:116|40:216,1,383.333340644837
100,272,85906,2,0,B|132:240|132:240|160:260|160:260|176:228|176:228|200:248|200:248|232:232|144:152|240:16|292:84,1,383.333340644837
384,92,86763,5,0,0:0:0:0:
340,152,86906,1,0,0:0:0:0:
420,196,87049,1,0,0:0:0:0:
376,252,87191,2,0,P|340:284|240:252,1,153.333336257935
176,228,87620,2,0,P|212:196|312:228,1,153.333336257935
352,156,88049,2,0,P|312:128|268:116,2,76.6666681289673
412,92,88477,6,0,B|452:140|452:140|460:192|408:264|352:268|328:228|328:228|328:268|292:308|216:292|268:244,1,383.333340644837
212,184,89334,2,0,P|156:220|172:324,2,153.333336257935
264,80,90191,6,0,P|200:56|172:56,2,76.6666681289673
184,128,90620,2,0,P|120:140|104:152,2,76.6666681289673
260,160,91049,2,0,L|284:196,2,38.3333340644837
196,208,91334,2,0,L|236:288,1,76.6666681289673
304,312,91620,2,0,L|384:272,1,76.6666681289673
436,216,91906,6,0,P|436:156|348:108,1,153.333336257935
360,184,92334,2,0,P|295:148|288:74,1,153.333336257935
372,36,92763,1,0,0:0:0:0:
432,152,93049,1,0,0:0:0:0:
432,152,93120,1,0,0:0:0:0:
432,152,93191,2,0,P|452:228|384:296,1,153.333336257935
352,212,93620,6,0,P|296:256|380:352,3,230.000004386902
360,284,95049,1,0,0:0:0:0:
428,244,95191,1,0,0:0:0:0:
464,176,95334,6,0,B|460:124|416:80|372:64|372:64|368:108|304:152|260:168|208:96|232:44|288:40,1,383.333340644837
328,84,96191,1,0,0:0:0:0:
368,152,96334,1,0,0:0:0:0:
352,228,96477,1,0,0:0:0:0:
308,292,96620,2,0,P|240:324|168:208,1,230.000004386902
240,84,97334,6,0,L|156:64,3,76.6666681289673
92,48,97906,1,0,0:0:0:0:
168,180,98191,2,0,L|252:200,3,76.6666681289673
316,216,98763,6,0,P|368:196|372:92,1,153.333336257935
320,64,99191,2,0,P|292:116|192:120,1,153.333336257935
192,52,99620,2,0,P|136:96|152:184,1,153.333336257935
204,216,100049,2,0,B|232:204|232:204|172:320,1,153.333336257935
104,288,100477,5,0,0:0:0:0:
56,228,100620,1,0,0:0:0:0:
76,156,100763,1,0,0:0:0:0:
124,96,100906,2,0,B|160:56|220:60|220:60|224:92|264:100,1,153.333336257935
324,108,101334,2,0,B|347:104|351:72|351:72|411:68|447:108,1,153.333336257935
472,180,101763,2,0,L|428:248,2,76.6666681289673
428,116,102227,6,0,B|424:64|424:64|408:120|360:180|324:192|272:180|272:180|296:240|272:288,1,364.166673612595
216,324,103049,2,0,L|176:160,1,153.333336257935
104,176,103477,2,0,L|140:324,1,153.333336257935
216,340,103906,1,0,0:0:0:0:
436,272,104334,5,0,0:0:0:0:
444,196,104477,1,0,0:0:0:0:
408,128,104620,1,0,0:0:0:0:
352,76,104763,2,0,P|320:52|268:40,2,76.6666681289673
376,148,105191,1,0,0:0:0:0:
360,224,105334,1,0,0:0:0:0:
312,284,105477,1,0,0:0:0:0:
236,304,105620,6,0,P|176:288|156:264,2,76.6666681289673
224,228,106049,2,0,P|176:192|168:172,2,76.6666681289673
252,156,106477,1,0,0:0:0:0:
136,128,106763,1,0,0:0:0:0:
160,56,106906,2,0,P|188:112|160:208,1,153.333336257935
108,244,107334,6,0,B|212:288|212:288|196:236,1,153.333336257935
176,176,107763,2,0,B|164:137|164:137|268:181,1,153.333336257935
340,204,108191,1,0,0:0:0:0:
380,140,108334,1,0,0:0:0:0:
448,104,108477,1,0,0:0:0:0:
444,180,108620,2,0,P|420:240|468:328,1,153.333336257935
380,344,109049,6,0,B|364:288|364:288|336:332|260:320|216:272|216:272|264:240|308:192|264:140,1,383.333340644837
204,104,109906,2,0,P|172:152|180:192,1,76.6666681289673
232,216,110191,2,0,B|168:264|168:264|132:264|88:236|80:200|80:200|104:140,1,230.000004386902
124,100,110763,5,0,0:0:0:0:
188,56,110906,1,0,0:0:0:0:
264,44,111049,1,0,0:0:0:0:
340,56,111191,1,0,0:0:0:0:
408,88,111334,1,0,0:0:0:0:
388,240,111620,5,0,0:0:0:0:
324,284,111763,1,0,0:0:0:0:
248,296,111906,1,0,0:0:0:0:
172,284,112048,1,0,0:0:0:0:
104,252,112191,2,0,P|100:200|116:172,1,76.6666681289673
188,176,112477,6,0,B|232:160|232:160|260:128,2,76.6666681289673
176,100,112906,2,0,B|192:52|192:52|180:24,2,76.6666681289673
100,92,113334,2,0,B|56:76|56:76|16:88,2,76.6666681289673
64,160,113763,2,0,B|32:216|32:216|36:248,2,76.6666681289673
116,216,114191,6,0,B|88:296|88:296|156:368,1,153.333336257935
212,336,114620,1,0,0:0:0:0:
288,320,114763,1,0,0:0:0:0:
356,280,114906,1,0,0:0:0:0:
416,232,115049,2,0,P|448:184|448:152,2,76.6666681289673
344,204,115477,2,0,P|312:252|312:284,2,76.6666681289673
280,164,115906,6,0,P|272:112|248:80,1,76.6666681289673
204,140,116191,2,0,P|168:96|132:76,1,76.6666681289673
132,168,116477,2,0,P|84:144|40:172,1,76.6666681289673
80,224,116763,2,0,P|48:240|40:252,2,38.3333340644837
56,152,117049,1,0,0:0:0:0:
108,96,117191,2,0,P|164:64|196:56,2,76.6666681289673
132,168,117620,6,0,P|168:224|268:240,1,153.333336257935
324,248,118049,1,0,0:0:0:0:
384,204,118191,1,0,0:0:0:0:
444,156,118334,1,0,0:0:0:0:
500,104,118477,6,0,B|472:60|472:60|432:56,2,76.6666681289673
444,156,118906,1,0,0:0:0:0:
372,136,119049,1,0,0:0:0:0:
300,112,119191,1,0,0:0:0:0:
220,92,119334,6,0,P|160:88|200:156,1,166.666666666667
268,224,119763,2,0,B|240:264|240:264|192:248|132:232|104:248,1,166.666666666667
56,284,120191,2,0,P|88:328|208:336,1,166.666666666667
276,308,120620,1,0,0:0:0:0:
356,328,120763,2,0,P|360:276|328:240,1,83.3333333333333
264,224,121049,6,0,P|200:192|212:88,1,166.666666666667
268,48,121477,2,0,L|304:28,5,41.6666666666667
344,44,121906,2,0,B|400:16|400:16|400:64|448:128,1,166.666666666667
452,176,122334,1,0,0:0:0:0:
432,244,122477,1,0,0:0:0:0:
360,236,122620,1,0,0:0:0:0:
408,276,122763,6,0,P|372:324|256:312,1,166.666666666667
188,296,123191,2,0,P|228:252|268:244,2,83.3333333333333
260,328,123620,6,0,P|180:336|124:278,1,166.666666666667
72,216,124049,1,0,0:0:0:0:
112,160,124191,1,0,0:0:0:0:
168,124,124334,1,0,0:0:0:0:
144,60,124477,5,0,0:0:0:0:
208,68,124619,1,0,0:0:0:0:
264,104,124762,1,0,0:0:0:0:
300,44,124906,6,0,P|348:60|276:100,1,166.666666666667
252,184,125334,2,0,L|224:272,2,83.3333333333333
264,104,125763,1,0,0:0:0:0:
184,132,125906,2,0,L|148:168,2,41.6666666666667
176,48,126191,6,0,B|116:72|76:60|76:60|76:212,1,250
336,48,127049,2,0,B|396:72|436:60|436:60|436:212,1,250
304,292,127906,6,0,B|336:280|336:280|352:244|320:200,1,83.3333333333333
208,292,128334,2,0,B|176:280|176:280|160:244|192:200,1,83.3333333333333
256,160,128763,6,0,P|244:116|232:104,5,41.6666666666667
180,152,129191,2,0,P|140:120|120:116,5,41.6666666666667
112,192,129620,6,0,P|108:240|144:272,1,83.3333333333333
192,240,129906,2,0,B|176:328|176:328|212:300|292:296|344:312,1,250
396,324,130477,1,0,0:0:0:0:
444,200,130763,1,0,0:0:0:0:
444,200,130906,2,0,P|384:192|376:92,1,166.666666666667
436,104,131334,6,0,P|468:72|464:28,2,83.3333333333333
369,100,131763,2,0,P|337:68|293:72,2,83.3333333333333
368,172,132191,2,0,P|348:188|336:216,4,41.6666666666667
436,176,132620,2,0,P|468:208|512:204,2,83.3333333333333
400,232,133049,5,0,0:0:0:0:
356,280,133191,1,0,0:0:0:0:
288,284,133334,2,0,P|264:236|268:196,1,83.3333333333333
284,144,133620,1,0,0:0:0:0:
240,96,133763,1,0,0:0:0:0:
220,160,133906,1,0,0:0:0:0:
120,76,134191,5,0,0:0:0:0:
120,76,134334,2,0,B|124:60|120:40|120:40|160:72|108:176,1,166.666666666667
80,220,134763,2,0,B|88:232|88:232|100:232|100:232|100:244|100:244|112:244|112:244|112:256|112:256|124:256|124:256|124:268|124:268|136:268|136:268|136:280|136:280|184:328,1,166.666666666667
244,320,135191,2,0,B|283:280|283:280|283:268|283:268|295:268|295:268|295:256|295:256|307:256|307:256|307:244|307:244|319:244|319:244|319:232|319:232|331:232|331:232|339:220,1,166.666666666667
340,152,135620,2,0,B|332:140|332:140|320:140|320:140|320:128|320:128|308:128|308:128|308:116|308:116|296:116|296:116|296:104|296:104|284:104|284:104|284:92|284:92|244:52,1,166.666666666667
196,100,136049,2,0,P|156:152|124:160,2,83.3333333333333
148,52,136477,1,0,0:0:0:0:
256,192,136549,12,0,139049,0:0:0:0:
148,256,139477,6,0,P|188:292|196:328,2,83.3333333333333
116,316,139906,6,0,B|72:300|72:300|108:264|88:228|88:228|32:244|16:164|84:160|84:160|128:160|132:104|112:88|112:88|124:40|168:64|168:64,1,416.666666666667
216,84,140763,2,0,B|264:92|264:92|300:80|300:80|388:88,1,166.666666666667
360,152,141191,2,0,B|312:144|312:144|276:156|276:156|188:148,1,166.666666666667
160,208,141620,5,0,0:0:0:0:
192,264,141763,1,0,0:0:0:0:
224,320,141906,1,0,0:0:0:0:
280,356,142049,2,0,B|328:332|328:332|308:296|312:276|312:276|348:296|392:284,1,166.666666666667
424,316,142477,2,0,P|472:344|496:372,2,83.3333333333333
424,248,142906,2,0,P|472:220|496:192,1,83.3333333333333
476,68,143334,5,0,0:0:0:0:
148,296,144191,2,0,P|96:248|88:136,1,166.666666666667
100,92,144620,2,0,P|152:140|160:252,1,166.666666666667
216,276,145049,6,0,P|292:276|320:256,2,83.3333333333333
248,216,145477,2,0,P|304:200|336:176,2,83.3333333333333
216,156,145906,2,0,P|140:156|112:176,2,83.3333333333333
184,216,146334,2,0,P|128:232|96:256,2,83.3333333333333
200,280,146763,6,0,B|252:324|292:324|292:324|280:284|312:248,1,166.666666666667
244,224,147191,2,0,B|192:180|152:180|152:180|164:220|132:256,1,166.666666666667
136,308,147620,1,0,0:0:0:0:
64,196,147906,5,0,0:0:0:0:
64,196,148049,2,0,P|144:172|56:80,1,250
176,156,148763,5,0,0:0:0:0:
176,156,148906,2,0,P|96:180|152:268,1,208.333333333333
172,280,149334,2,0,B|240:272|240:272|272:280|272:280|300:268|300:268|336:232,1,166.666666666667
276,196,149763,2,0,B|208:204|208:204|176:196|176:196|148:208|148:208|112:244,1,166.666666666667
100,296,150191,6,0,P|56:272|224:188,1,416.666666666667
164,208,151049,2,0,P|144:160|160:112,2,83.3333333333333
220,248,151477,2,0,B|264:252|264:252|288:268|288:268|320:268|320:268|352:256|352:256|380:224|380:224|384:160|328:168,1,250
256,192,151977,12,0,153620,0:0:0:0:
112,184,167334,6,0,P|84:136|80:72,2,83.3333333333333
164,124,167763,2,0,P|192:180|44:224,1,250
52,164,168334,2,0,P|72:112|100:88,1,83.3333333333333
140,160,168620,1,0,0:0:0:0:
88,84,168763,2,0,P|152:52|184:44,1,83.3333333333333
256,48,169049,6,0,B|292:60|292:60|344:56,2,83.3333333333333
236,76,169406,1,0,0:0:0:0:
216,104,169477,2,0,P|196:168|280:228,1,166.666666666667
328,224,169906,1,0,0:0:0:0:
380,184,170049,1,0,0:0:0:0:
424,132,170191,1,0,0:0:0:0:
428,64,170334,2,0,P|376:40|344:40,2,83.3333333333333
376,108,170763,6,0,B|332:144|332:144|304:148|236:172|260:240,1,166.666666666667
320,216,171191,2,0,B|284:172|284:172|280:144|256:76|188:100,1,166.666666666667
212,160,171620,2,0,B|256:124|256:124|284:120|352:96|328:28,1,166.666666666667
268,52,172049,2,0,B|304:96|304:96|308:124|332:192|400:168,1,166.666666666667
416,220,172477,5,0,0:0:0:0:
388,280,172620,1,0,0:0:0:0:
328,312,172763,1,0,0:0:0:0:
264,324,172906,2,0,P|224:276|256:176,1,166.666666666667
316,172,173334,2,0,P|376:132|384:112,2,83.3333333333333
304,240,173763,2,0,P|348:248|364:244,6,41.6666666666667
188,292,177620,6,0,P|160:252|304:208,1,250
324,92,178477,2,0,P|352:132|208:176,1,250
276,152,179191,1,0,0:0:0:0:
276,152,179334,1,0,0:0:0:0:
164,87,180191,6,0,B|128:72|64:92|56:152|68:204|120:224|120:224|92:264,1,250
240,328,181049,6,0,P|312:316|368:256,1,133.333333333333
380,232,181477,2,0,P|368:160|308:104,1,133.333333333333
284,88,181906,2,0,P|212:100|156:160,1,133.333333333333
128,204,182334,2,0,P|84:252|72:256,2,66.6666666666667
192,248,182763,5,0,0:0:0:0:
232,280,182906,1,0,0:0:0:0:
272,312,183049,1,0,0:0:0:0:
364,296,183191,2,0,P|360:252|276:212,1,133.333333333333
331,142,183620,2,0,P|271:118|256:56,1,133.333333333333
172,68,184049,1,0,0:0:0:0:
140,108,184192,1,0,0:0:0:0:
108,148,184335,1,0,0:0:0:0:
80,252,184477,6,0,L|224:208,1,133.333333333333
208,288,184906,2,0,L|352:244,1,133.333333333333
335,174,185334,2,0,L|191:218,1,133.333333333333
207,138,185763,2,0,L|63:182,1,133.333333333333
92,84,186191,6,0,P|148:72|160:48,1,66.6666666666667
228,36,186477,1,0,0:0:0:0:
284,108,186620,2,0,P|228:120|216:144,1,66.6666666666667
148,156,186906,1,0,0:0:0:0:
88,216,187049,2,0,L|120:244,1,33.3333333333333
148,232,187191,2,0,L|180:260,1,33.3333333333333
208,248,187334,2,0,L|240:276,1,33.3333333333333
268,264,187477,2,0,B|320:312|320:312|356:308|376:276,1,133.333333333333
360,200,187906,5,0,0:0:0:0:
308,192,188049,1,0,0:0:0:0:
256,184,188191,1,0,0:0:0:0:
168,152,188334,2,0,P|164:104|188:76,2,66.6666666666667
252,100,188763,1,0,0:0:0:0:
160,56,189049,1,0,0:0:0:0:
160,56,189191,2,0,B|132:96|132:96|88:96|64:140|96:168,1,133.333333333333
152,184,189620,5,0,0:0:0:0:
204,192,189763,1,0,0:0:0:0:
256,200,189905,1,0,0:0:0:0:
344,232,190048,2,0,P|348:280|324:308,2,66.6666666666667
260,284,190477,2,0,B|256:328|256:328|288:348,1,66.6666666666667
352,328,190763,1,0,0:0:0:0:
352,328,190905,2,0,B|380:288|380:288|424:288,2,66.6666666666667
324,244,191334,6,0,P|352:204|300:120,1,133.333333333333
272,188,191763,2,0,P|244:148|296:64,1,133.333333333333
352,56,192191,1,0,0:0:0:0:
444,44,192334,1,0,0:0:0:0:
344,80,192477,1,0,0:0:0:0:
436,72,192620,6,0,P|448:116|404:212,1,133.333333333333
336,188,193049,2,0,P|336:256|392:296,1,133.333333333333
312,236,193477,2,0,P|312:304|368:344,1,133.333333333333
288,288,193906,1,0,0:0:0:0:
264,340,194334,5,0,0:0:0:0:
112,296,194763,6,0,B|144:264|136:232|136:232|188:200,1,133.333333333333
280,188,195191,1,0,0:0:0:0:
260,140,195334,1,0,0:0:0:0:
240,92,195477,1,0,0:0:0:0:
132,56,195620,2,0,P|96:80|80:112,2,66.6666666666667
156,128,196049,2,0,P|192:104|208:72,2,66.6666666666667
96,204,196477,5,0,0:0:0:0:
144,224,196620,1,0,0:0:0:0:
192,244,196763,1,0,0:0:0:0:
296,288,196906,2,0,B|356:240|356:240|320:176,1,133.333333333333
296,124,197334,2,0,B|236:172|236:172|272:236,1,133.333333333333
360,216,197763,2,0,B|400:232|400:232|400:268,2,66.6666666666667
356,324,198191,6,0,B|400:312|436:320|472:336|472:336|472:304,1,133.333333333333
432,256,198620,2,0,B|388:244|352:252|316:268|316:268|316:236,1,133.333333333333
280,328,199049,1,0,0:0:0:0:
204,256,199334,1,0,0:0:0:0:
188,308,199477,2,0,P|132:272|128:256,2,66.6666666666667
252,256,199906,6,0,L|220:220,1,33.3333333333333
244,208,200049,2,0,L|212:172,1,33.3333333333333
236,160,200191,2,0,L|204:124,1,33.3333333333333
228,112,200334,2,0,B|196:68|196:68|176:96|128:112|116:96,1,133.333333333333
80,176,200763,2,0,P|120:212|148:220,2,66.6666666666667
80,280,201191,2,0,P|128:296|168:296,2,66.6666666666667
208,344,201620,6,0,L|232:321,1,33.3333333333333
256,336,201762,2,0,L|280:313,1,33.3333333333333
304,328,201905,2,0,L|328:305,1,33.3333333333333
392,244,202049,2,0,P|348:212|312:208,2,66.6666666666667
392,320,202477,1,0,0:0:0:0:
468,220,202763,1,0,0:0:0:0:
468,220,202906,2,0,P|416:176|396:104,1,133.333333333333
324,48,203334,6,0,L|299:70,1,33.3333333333333
276,56,203476,2,0,L|251:78,1,33.3333333333333
228,64,203619,2,0,L|203:86,1,33.3333333333333
140,148,203763,2,0,P|184:180|220:184,2,66.6666666666667
140,72,204191,1,0,0:0:0:0:
64,172,204477,1,0,0:0:0:0:
64,172,204620,2,0,P|116:216|124:232,2,66.6666666666667
100,292,205049,6,0,P|48:248|40:232,2,66.6666666666667
128,220,205477,2,0,B|168:248|180:280|168:316|168:316|212:324,1,133.333333333333
268,300,205906,1,0,0:0:0:0:
396,264,206191,1,0,0:0:0:0:
396,264,206334,1,0,0:0:0:0:
296,188,206620,1,0,0:0:0:0:
296,188,206763,6,0,P|292:144|312:116,2,66.6666666666667
340,256,207191,2,0,P|344:300|324:328,2,66.6666666666667
256,192,207620,12,0,208477,0:0:0:0:
