osu file format v14

[General]
AudioFilename: MyWay.mp3
AudioLeadIn: 0
PreviewTime: 26763
Countdown: 0
SampleSet: None
StackLeniency: 0.2
Mode: 0
LetterboxInBreaks: 1
EpilepsyWarning: 1
WidescreenStoryboard: 1

[Editor]
Bookmarks: 14763,55906,66191,76477,83334,85049,98763,112477,126191,136477,137334,138191,139049,139906,151906,153620,167334,174191,181049,194763,207620,208477,215334,222191,222406,222620,222834,223049
DistanceSpacing: 0.8
BeatDivisor: 3
GridSize: 8
TimelineZoom: 0.7000028

[Metadata]
Title:My Way
TitleUnicode:My Way
Artist:The Brig
ArtistUnicode:The Brig
Creator:MatsubuS
Version:Beginner
Source:
Tags:dubstep
BeatmapID:1256175
BeatmapSetID:593795

[Difficulty]
HPDrainRate:2
CircleSize:3
OverallDifficulty:2
ApproachRate:5
SliderMultiplier:0.999999999999999
SliderTickRate:1

[Events]
//Background and Video events
0,0,"maxresdefault.jpg",0,0
//Break Periods
2,69820,75037
2,153820,165894
//Storyboard Layer 0 (Background)
//Storyboard Layer 1 (Fail)
//Storyboard Layer 2 (Pass)
//Storyboard Layer 3 (Foreground)
//Storyboard Sound Samples

[TimingPoints]
1049,428.571428571429,4,2,0,70,1,0
28477,-100,4,2,0,70,0,1
41763,-100,4,2,0,70,0,0
119334,-100,4,2,0,70,0,1
126191,-100,4,2,0,70,0,0
181049,-100,4,2,0,70,0,1
193906,-100,4,2,0,70,0,0
222191,-100,4,2,0,60,0,0
223049,-100,4,2,0,50,0,0
223906,-100,4,2,0,40,0,0
224763,-100,4,2,0,30,0,0
225620,-100,4,2,0,20,0,0
226477,-100,4,2,0,10,0,0

[Colours]
Combo1 : 138,180,255
Combo2 : 255,128,192
Combo3 : 255,0,0
Combo4 : 0,128,255
Combo5 : 255,190,125
Combo6 : 196,255,255

[HitObjects]
96,328,1049,6,0,B|160:312|160:312|200:320|200:320|216:280|288:280,1,200
352,304,2334,1,0,0:0:0:0:
408,248,2763,2,0,P|416:184|304:152,1,200
232,184,4049,2,0,L|280:280,1,99.9999999999999
200,304,4906,5,0,0:0:0:0:
144,248,5334,2,0,B|104:208|104:208|112:160,1,99.9999999999999
136,88,6191,2,0,L|240:56,2,99.9999999999999
160,168,7477,1,0,0:0:0:0:
184,248,7906,6,0,B|216:312|216:312|256:384|328:344,1,200
288,280,9191,1,0,0:0:0:0:
336,216,9620,2,0,P|368:160|272:88,1,200
200,96,10906,2,0,L|96:80,1,99.9999999999999
112,160,11763,5,0,0:0:0:0:
64,224,12191,2,0,P|112:288|136:296,1,99.9999999999999
200,256,13049,2,0,P|248:272|272:312,1,99.9999999999999
352,280,13906,1,0,0:0:0:0:
400,208,14334,1,0,0:0:0:0:
408,128,14763,6,0,P|360:80|312:64,1,99.9999999999999
272,120,15620,2,0,B|208:144|208:144|160:128,1,99.9999999999999
104,168,16477,2,0,P|136:216|184:240,2,99.9999999999999
56,232,17763,1,0,0:0:0:0:
104,296,18191,6,0,L|216:312,1,99.9999999999999
280,288,19049,2,0,B|288:280|288:280|288:272|288:272|296:264|296:264|296:256|296:256|304:248|304:248|304:240|304:240|312:232|312:232|312:224|312:224|320:216|320:216|328:208,1,99.9999999999999
352,128,19906,2,0,P|328:88|264:64,2,99.9999999999999
272,144,21191,1,0,0:0:0:0:
192,128,21620,6,0,P|144:112|104:72,1,99.9999999999999
72,152,22477,2,0,P|120:168|168:208,1,99.9999999999999
216,152,23334,1,0,0:0:0:0:
288,104,23763,1,0,0:0:0:0:
360,56,24191,2,0,P|384:104|384:160,1,99.9999999999999
376,240,25049,6,0,B|392:304|392:304|424:336,2,99.9999999999999
296,224,26334,1,0,0:0:0:0:
256,312,26763,1,0,0:0:0:0:
88,280,27620,2,0,P|80:224|96:168,1,99.9999999999999
152,104,28477,6,0,P|200:120|264:112,1,99.9999999999999
312,72,29334,1,0,0:0:0:0:
392,96,29763,1,0,0:0:0:0:
448,152,30191,2,0,P|464:216|448:256,1,99.9999999999999
400,304,31049,2,0,L|320:224,2,99.9999999999999
320,328,32334,5,0,0:0:0:0:
240,312,32763,2,0,P|208:280|240:288,1,99.9999999999999
296,248,33620,2,0,P|296:200|256:160,3,99.9999999999999
184,176,35334,6,0,B|160:216|160:216|200:280,1,99.9999999999999
264,288,36191,1,0,0:0:0:0:
296,216,36620,1,0,0:0:0:0:
344,280,37049,2,0,P|416:240|424:208,1,99.9999999999999
416,152,37906,1,0,0:0:0:0:
360,96,38334,1,0,0:0:0:0:
304,40,38763,6,0,B|280:64|280:64|240:72|240:72|216:96,1,99.9999999999999
248,168,39620,2,0,B|272:144|272:144|312:136|312:136|336:112,1,99.9999999999999
408,88,40477,2,0,P|440:128|440:184,2,99.9999999999999
360,152,41763,1,0,0:0:0:0:
352,232,42191,6,0,P|320:264|256:288,1,99.9999999999999
256,208,43049,2,0,P|210:227|174:261,1,99.9999999999999
104,304,43906,1,0,0:0:0:0:
64,232,44334,1,0,0:0:0:0:
96,160,44763,2,0,P|136:128|200:112,1,99.9999999999999
256,128,45620,6,0,P|320:144|256:120,1,200
184,96,46906,1,0,0:0:0:0:
104,104,47334,2,0,L|136:208,1,99.9999999999999
216,200,48191,2,0,L|184:304,1,99.9999999999999
104,288,49049,6,0,P|120:248|264:232,1,200
328,264,50334,1,0,0:0:0:0:
408,264,50763,2,0,P|432:208|424:152,2,99.9999999999999
360,328,52049,1,0,0:0:0:0:
288,296,52477,6,0,P|288:256|280:304,1,200
360,328,53763,1,0,0:0:0:0:
384,256,54191,2,0,P|400:200|392:144,1,99.9999999999999
328,112,55049,1,0,0:0:0:0:
280,176,55477,1,0,0:0:0:0:
248,104,55906,6,0,B|208:128|208:128|152:120,1,99.9999999999999
96,64,56763,2,0,B|136:40|136:40|192:48,1,99.9999999999999
264,80,57620,2,0,P|336:96|376:88,1,99.9999999999999
408,160,58477,2,0,P|336:144|296:152,1,99.9999999999999
264,208,59334,6,0,B|280:256|280:256|320:296,1,99.9999999999999
248,336,60191,2,0,B|232:288|232:288|192:248,1,99.9999999999999
136,200,61049,2,0,P|160:160|136:112,1,99.9999999999999
56,112,61906,1,0,0:0:0:0:
59,197,62334,1,0,0:0:0:0:
104,264,62763,6,0,P|160:296|312:288,1,200
280,216,64049,1,0,0:0:0:0:
256,136,64477,2,0,P|200:144|168:184,1,99.9999999999999
240,216,65334,2,0,P|296:208|328:168,1,99.9999999999999
256,192,66191,12,0,69620,0:0:0:0:
72,48,76477,6,0,P|72:88|88:160,1,99.9999999999999
152,184,77334,2,0,P|224:208|256:208,1,99.9999999999999
328,184,78191,2,0,B|352:136|352:136|408:120,2,99.9999999999999
392,232,79477,1,0,0:0:0:0:
352,304,79906,6,0,P|296:288|256:256,1,99.9999999999999
256,184,80763,2,0,P|200:176|152:192,1,99.9999999999999
96,136,81620,1,0,0:0:0:0:
152,80,82049,1,0,0:0:0:0:
224,56,82477,1,0,0:0:0:0:
368,128,83334,6,0,L|424:184,2,66.6666666666666
320,152,84191,2,0,L|264:96,2,66.6666666666666
288,200,85049,6,0,P|240:216|192:256,1,99.9999999999999
256,304,85906,2,0,P|304:264|312:208,1,99.9999999999999
360,160,86763,2,0,L|392:128,3,33.3333333333333
456,176,87620,2,0,P|440:224|368:248,1,99.9999999999999
328,280,88477,6,0,B|304:288|304:288|288:272|288:272|264:288|264:288|248:272|248:272,1,99.9999999999999
208,208,89334,2,0,P|160:216|136:232,2,66.6666666666666
256,176,90191,1,0,0:0:0:0:
328,136,90620,1,0,0:0:0:0:
400,96,91049,2,0,L|440:72,3,33.3333333333333
464,152,91906,6,0,L|456:280,2,99.9999999999999
344,128,93191,2,0,P|304:144|312:208,1,99.9999999999999
328,272,94049,1,0,0:0:0:0:
256,304,94477,2,0,B|200:288|200:288|168:256,1,99.9999999999999
136,184,95334,6,0,P|112:128|224:112,1,200
216,176,96620,1,0,0:0:0:0:
288,216,97049,2,0,B|328:248|328:248|368:280|328:312,1,99.9999999999999
424,256,97906,2,0,B|384:224|384:224|344:192|384:160,1,99.9999999999999
320,112,98763,6,0,P|272:96|208:96,2,99.9999999999999
256,168,100049,1,0,0:0:0:0:
192,216,100477,2,0,P|144:232|88:224,1,99.9999999999999
96,144,101334,2,0,L|128:120,3,33.3333333333333
200,120,102191,6,0,B|224:144|248:136|248:136|272:128|312:152,1,99.9999999999999
368,112,103049,2,0,L|376:224,1,99.9999999999999
352,288,103906,1,0,0:0:0:0:
280,248,104334,1,0,0:0:0:0:
328,184,104763,1,0,0:0:0:0:
392,224,105191,1,0,0:0:0:0:
432,296,105620,6,0,P|336:320|280:248,1,200
280,168,106906,1,0,0:0:0:0:
232,232,107334,2,0,P|171:304|160:312,1,99.9999999999999
128,240,108191,2,0,P|188:167|200:160,1,99.9999999999999
264,128,109049,6,0,P|320:112|352:72,2,99.9999999999999
184,112,110334,1,0,0:0:0:0:
128,168,110763,2,0,L|152:208,3,33.3333333333333
224,208,111620,2,0,L|264:192,3,33.3333333333333
312,248,112477,6,0,P|288:296|240:320,1,99.9999999999999
168,320,113334,2,0,L|128:224,1,99.9999999999999
128,144,114191,1,0,0:0:0:0:
192,96,114620,1,0,0:0:0:0:
208,176,115049,2,0,P|184:232|144:248,1,99.9999999999999
72,256,115906,6,0,P|96:296|152:336,2,99.9999999999999
88,176,117191,1,0,0:0:0:0:
160,216,117620,2,0,P|208:248|256:248,1,99.9999999999999
328,248,118477,1,0,0:0:0:0:
392,208,118906,1,0,0:0:0:0:
448,152,119334,6,0,P|456:96|400:64,1,99.9999999999999
368,128,120191,2,0,B|320:152|320:152|264:144,1,99.9999999999999
200,112,121049,2,0,P|136:96|96:112,1,99.9999999999999
112,184,121906,1,0,0:0:0:0:
144,256,122334,1,0,0:0:0:0:
192,192,122763,6,0,P|216:160|288:144,1,99.9999999999999
344,168,123620,2,0,P|320:200|248:216,1,99.9999999999999
240,296,124477,2,0,L|344:344,2,99.9999999999999
304,256,125763,1,0,0:0:0:0:
384,232,126191,6,0,P|424:192|368:64,1,200
352,144,127477,2,0,L|248:176,1,99.9999999999999
184,216,128334,1,0,0:0:0:0:
128,272,128763,2,0,B|152:280|152:280|160:264|160:264|184:272|184:272|192:256|192:256|216:264|216:264|224:248|224:248|248:256|248:256|256:240|256:240|288:248,1,200
360,224,130049,6,0,P|408:168|392:128,1,99.9999999999999
328,112,130906,1,0,0:0:0:0:
256,144,131334,2,0,B|232:152|232:152|200:144,3,33.3333333333333
152,192,132191,2,0,B|150:199|150:199|158:223,3,33.3333333333333
224,272,133049,6,0,P|288:280|336:304,2,99.9999999999999
264,344,134334,2,0,L|304:240,1,99.9999999999999
248,192,135191,1,0,0:0:0:0:
200,128,135620,1,0,0:0:0:0:
128,96,136049,1,0,0:0:0:0:
256,192,136477,12,0,139049,0:0:0:0:
192,232,139906,6,0,B|144:192|168:136|168:136|208:184|280:136,1,200
224,72,141191,1,0,0:0:0:0:
144,64,141620,2,0,B|120:48|88:56|88:56|80:88|96:120,1,99.9999999999999
112,176,142477,2,0,P|144:224|192:240,2,99.9999999999999
48,328,144191,6,0,P|104:320|152:288,1,99.9999999999999
208,256,145049,2,0,P|240:208|240:160,1,99.9999999999999
200,96,145906,2,0,P|168:144|168:192,1,99.9999999999999
216,248,146763,6,0,B|256:272|256:272|280:264|280:264|304:280,2,99.9999999999999
272,192,148049,1,0,0:0:0:0:
336,144,148477,2,0,P|344:88|288:56,1,99.9999999999999
264,120,149334,2,0,L|152:144,1,99.9999999999999
120,200,150191,5,0,0:0:0:0:
184,248,150620,1,0,0:0:0:0:
256,280,151049,2,0,P|296:272|312:264,3,33.3333333333333
256,192,151906,12,0,153620,0:0:0:0:
128,312,167334,6,0,P|120:248|144:192,1,99.9999999999999
200,184,168191,2,0,P|240:208|304:216,1,99.9999999999999
328,288,169049,1,0,0:0:0:0:
400,256,169477,1,0,0:0:0:0:
440,184,169906,2,0,P|448:136|408:80,1,99.9999999999999
352,120,170763,6,0,P|288:136|152:104,1,200
88,72,172049,1,0,0:0:0:0:
32,128,172477,2,0,L|88:216,1,99.9999999999999
152,256,173334,1,0,0:0:0:0:
104,320,173763,1,0,0:0:0:0:
72,248,174191,6,0,P|80:200|120:160,1,99.9999999999999
152,88,175049,2,0,P|185:124|193:172,1,99.9999999999999
216,248,175906,1,0,0:0:0:0:
288,288,176334,1,0,0:0:0:0:
368,296,176763,2,0,P|408:264|416:208,2,99.9999999999999
320,232,178049,5,0,0:0:0:0:
296,160,178477,2,0,L|400:128,1,99.9999999999999
328,80,179334,1,0,0:0:0:0:
168,88,180191,6,0,B|200:112|200:112|208:144|208:144|224:160|224:160|232:184,1,99.9999999999999
232,248,181049,6,0,P|176:264|120:256,1,99.9999999999999
96,192,181906,2,0,L|144:88,1,99.9999999999999
216,80,182763,1,0,0:0:0:0:
296,96,183191,1,0,0:0:0:0:
376,112,183620,1,0,0:0:0:0:
456,136,184049,1,0,0:0:0:0:
472,216,184477,6,0,P|448:264|392:280,1,99.9999999999999
344,328,185334,1,0,0:0:0:0:
304,256,185763,1,0,0:0:0:0:
384,256,186191,2,0,P|416:208|392:152,1,99.9999999999999
328,192,187049,2,0,P|376:224|432:200,1,99.9999999999999
408,136,187906,6,0,P|376:72|344:48,1,99.9999999999999
304,112,188763,1,0,0:0:0:0:
232,152,189191,2,0,L|192:168,3,33.3333333333333
120,144,190049,1,0,0:0:0:0:
56,192,190477,1,0,0:0:0:0:
104,256,190906,2,0,L|80:296,3,33.3333333333333
144,336,191763,6,0,B|208:320|208:320|232:296,1,99.9999999999999
200,224,192620,1,0,0:0:0:0:
192,144,193049,2,0,P|256:128|304:136,2,99.9999999999999
288,272,194763,6,0,P|336:264|368:216,1,99.9999999999999
296,184,195620,2,0,B|232:208|232:208|208:248,1,99.9999999999999
216,312,196477,1,0,0:0:0:0:
296,328,196906,1,0,0:0:0:0:
376,336,197334,2,0,B|416:304|416:304|408:248,1,99.9999999999999
328,248,198191,6,0,P|304:208|312:144,2,99.9999999999999
408,224,199477,1,0,0:0:0:0:
456,160,199906,2,0,L|472:120,3,33.3333333333333
400,80,200763,2,0,L|272:104,1,99.9999999999999
256,160,201620,6,0,P|200:184|144:184,1,99.9999999999999
96,136,202477,2,0,P|152:112|208:112,1,99.9999999999999
240,176,203334,1,0,0:0:0:0:
256,256,203763,1,0,0:0:0:0:
200,312,204191,2,0,B|152:336|136:344|136:344|136:312|128:288,1,99.9999999999999
104,240,205049,6,0,B|56:200|64:160|64:160|112:176|184:136,1,200
240,120,206334,1,0,0:0:0:0:
320,120,206763,2,0,P|368:160|392:208,1,99.9999999999999
256,192,207620,12,0,208477,0:0:0:0:
