osu file format v14

[General]
AudioFilename: audio.mp3
AudioLeadIn: 0
PreviewTime: 152
Countdown: 0
SampleSet: Soft
StackLeniency: 0.6
Mode: 0
LetterboxInBreaks: 0
WidescreenStoryboard: 1

[Editor]
Bookmarks: 21597,38192,58618,77767,114856
DistanceSpacing: 0.3
BeatDivisor: 4
GridSize: 32
TimelineZoom: 2.991411

[Metadata]
Title:45 Minutes from "Somewhere Out There"
TitleUnicode:45 Minutes from "Somewhere Out There"
Artist:The Brave Little Abacus
ArtistUnicode:The Brave Little Abacus
Creator:zglock
Version:Insane
Source:
Tags:okumay an american tail english midwest emo math rock bla
BeatmapID:3391450
BeatmapSetID:1640108

[Difficulty]
HPDrainRate:4.7
CircleSize:5
OverallDifficulty:8
ApproachRate:9
SliderMultiplier:1.71
SliderTickRate:1

[Events]
//Background and Video events
0,0,"aa.png",0,0
//Break Periods
2,116750,135636
//Storyboard Layer 0 (Background)
//Storyboard Layer 1 (Fail)
//Storyboard Layer 2 (Pass)
//Storyboard Layer 3 (Foreground)
//Storyboard Layer 4 (Overlay)
//Storyboard Sound Samples

[TimingPoints]
215,319.148936170213,4,2,1,50,1,0
215,-333.333333333333,4,2,1,50,0,0
534,-100,4,2,1,70,0,0
693,319.148936170213,4,2,1,70,1,0
21597,319.148936170213,4,2,1,65,1,0
21597,-80,4,2,1,65,0,0
22155,-80,4,2,1,5,0,0
22235,-80,4,2,1,65,0,0
22315,-80,4,2,1,5,0,0
22394,-80,4,2,1,65,0,0
22474,-80,4,2,1,5,0,0
22554,-80,4,2,1,65,0,0
22634,-80,4,2,1,5,0,0
22714,-80,4,2,1,65,0,0
27261,-80,4,2,1,5,0,0
27341,-80,4,2,1,65,0,0
27421,-80,4,2,1,5,0,0
27501,-80,4,2,1,65,0,0
27581,-80,4,2,1,5,0,0
27660,-80,4,2,1,65,0,0
27740,-80,4,2,1,5,0,0
27820,-80,4,2,1,65,0,0
32368,-80,4,2,1,5,0,0
32448,-80,4,2,1,65,0,0
32527,-80,4,2,1,5,0,0
32607,-80,4,2,1,65,0,0
32687,-80,4,2,1,5,0,0
32767,-80,4,2,1,65,0,0
32847,-80,4,2,1,5,0,0
32926,-80,4,2,1,65,0,0
35799,319.148936170213,4,2,1,75,1,0
38192,-90.9090909090909,4,2,1,75,0,0
42979,-83.3333333333333,4,2,1,75,0,0
43458,-90.9090909090909,4,2,1,75,0,0
58618,-111.111111111111,4,2,1,60,0,0
77767,-80,4,2,1,80,0,1
103458,-75.0187546886722,4,2,1,85,0,1
109203,346.820809248555,4,2,1,85,1,1
109203,-75.0187546886722,4,2,1,85,0,1
109549,-80,4,2,1,85,0,1
110243,370.370370370371,4,2,1,85,1,1
110243,-80,4,2,1,85,0,1
110613,-90.9090909090909,4,2,1,85,0,1
110983,392.156862745098,4,2,1,80,1,1
110983,-90.9090909090909,4,2,1,80,0,1
111375,-100,4,2,1,75,0,1
111767,410.958904109589,4,2,1,75,1,1
112177,416.666666666667,4,2,1,75,1,1
112593,424.028268551237,4,2,1,70,1,1
112593,-111.111111111111,4,2,1,70,0,1
113017,451.127819548873,4,2,1,70,1,1
113017,-111.111111111111,4,2,1,70,0,1
113919,468.750000000001,4,2,1,65,1,1
113919,-125,4,2,1,65,0,1
114856,491.803278688525,4,2,1,70,1,0
115347,447.761194029851,4,2,1,50,1,0
115794,465.116279069767,4,2,1,50,1,0
116259,491.803278688524,4,2,1,50,1,0
117242,493.827160493827,4,2,1,50,1,0
117735,478.08764940239,4,2,1,50,1,0
118213,431.654676258992,4,2,1,50,1,0
118644,468.75,4,2,1,50,1,0
120050,482.897384305835,4,2,1,50,1,0
121015,444.444444444444,4,2,1,50,1,0
121459,466.92607003891,4,2,1,50,1,0
121925,474.308300395256,4,2,1,50,1,0
123347,465.116279069767,4,2,1,50,1,0
123812,458.015267175572,4,2,1,50,1,0
124270,483.870967741935,4,2,1,50,1,0
124753,497.925311203319,4,2,1,50,1,0
125250,477.137176938369,4,2,1,50,1,0
126204,472.440944881889,4,2,1,50,1,0
126676,466.019417475728,4,2,1,50,1,0
127608,456.273764258555,4,2,1,50,1,0
128520,461.538461538461,4,2,1,50,1,0
128981,483.870967741935,4,2,1,50,1,0
129464,475.247524752475,4,2,1,50,1,0
130414,480,4,2,1,50,1,0
131374,502.092050209205,4,2,1,50,1,0
131876,444.444444444444,4,2,1,50,1,0
132764,470.588235294117,4,2,1,50,1,0
133705,478.08764940239,4,2,1,50,1,0
134661,487.80487804878,4,2,1,50,1,0
135636,477.137176938369,4,2,1,50,1,0
137067,451.127819548872,4,2,1,40,1,0
137067,-166.666666666667,4,2,1,40,0,0
137518,470.588235294117,4,2,1,40,1,0
137518,-166.666666666667,4,2,1,40,0,0
139400,469.976344523992,4,2,1,40,1,0
139400,-166.666666666667,4,2,1,40,0,0
140339,-125,4,2,1,50,0,0
141279,329.67032967033,3,2,1,50,1,0
141279,-133.333333333333,3,2,1,50,0,0
141608,337.078651685394,3,2,1,50,1,0
141608,-133.333333333333,3,2,1,50,0,0
142282,329.67032967033,3,2,1,50,1,0
142282,-133.333333333333,3,2,1,50,0,0
142611,319.148936170213,3,2,1,50,1,0
142611,-133.333333333333,3,2,1,50,0,0
143887,310.880829015544,3,2,1,50,1,0
143887,-133.333333333333,3,2,1,50,0,0
144508,306.122448979592,3,2,1,50,1,0
144508,-133.333333333333,3,2,1,50,0,0
145120,304.568527918782,3,2,1,75,1,0
148774,-90.9090909090909,3,2,1,70,0,0
166135,-90.9090909090909,3,2,1,75,0,0
166439,-90.9090909090909,3,2,1,80,0,0
166744,-90.9090909090909,3,2,1,85,0,0
167048,-80,3,2,1,90,0,1
167277,-80,3,2,1,5,0,1
167353,-80,3,2,1,90,0,1
168191,-80,3,2,1,5,0,1
168267,-80,3,2,1,90,0,1
168800,-80,3,2,1,5,0,1
168876,-80,3,2,1,90,0,1
170323,-80,3,2,1,5,0,1
170399,-80,3,2,1,90,0,1
170627,-80,3,2,1,5,0,1
170703,-80,3,2,1,90,0,1
171845,-80,3,2,1,5,0,1
171922,-80,3,2,1,90,0,1
172759,-80,3,2,1,5,0,1
172835,-80,3,2,1,90,0,1
173368,-80,3,2,1,5,0,1
173444,-80,3,2,1,90,0,1
173977,-80,3,2,1,5,0,1
174054,-80,3,2,1,90,0,1
174282,-80,3,2,1,5,0,1
174358,-80,3,2,1,90,0,1
175805,-80,3,2,1,5,0,1
175881,-80,3,2,1,90,0,1
176109,-80,3,2,1,5,0,1
176185,-80,3,2,1,90,0,1
177632,-80,3,2,1,5,0,1
177708,-80,3,2,1,90,0,1
177937,-80,3,2,1,5,0,1
178013,-80,3,2,1,90,0,1
178622,331.491712707183,3,2,1,90,1,1
178622,-80,3,2,1,90,0,1
178953,-90.9090909090909,3,2,1,85,0,1
179616,340.909090909091,3,2,1,85,1,1
179616,-90.9090909090909,3,2,1,85,0,1
179956,-100,3,2,1,80,0,0
180297,368.098159509203,3,2,1,80,1,0
180665,372.670807453417,3,2,1,80,1,0
181037,-100,3,2,1,75,0,0
181410,392.156862745098,3,2,1,75,1,0
182194,413.793103448276,3,2,1,70,1,0
182194,-125,3,2,1,70,0,0
183021,441.176470588236,3,2,1,70,1,0
183462,451.127819548872,3,2,1,70,1,0
183913,444.444444444445,3,2,1,65,1,0
183913,-166.666666666667,3,2,1,65,0,0
184357,483.870967741936,3,2,1,60,1,0
184357,-250,3,2,1,60,0,0
185324,468.750000000001,3,2,1,60,1,0
185792,530.973451327433,4,2,1,60,1,0
186853,512.820512820512,4,2,1,60,1,0
188391,495.867768595041,4,2,1,55,1,0
189382,465.116279069767,4,2,1,50,1,0
189847,512.820512820512,4,2,1,45,1,0
190872,508.474576271186,4,2,1,40,1,0
193910,483.870967741935,4,2,1,35,1,0
194877,517.241379310344,4,2,1,35,1,0
195911,512.820512820512,4,2,1,30,1,0
196936,530.973451327433,4,2,1,30,1,0
197997,526.315789473683,4,2,1,30,1,0
199049,504.201680672268,4,2,1,30,1,0
200057,526.315789473683,4,2,1,30,1,0
201109,476.190476190475,4,2,1,30,1,0
201585,535.714285714285,4,2,1,30,1,0
203727,508.474576271185,4,2,1,30,1,0
204235,540.540540540539,4,2,1,30,1,0
205856,517.241379310344,4,2,1,30,1,0
206373,540.540540540539,4,2,1,30,1,0
206913,516.129032258064,4,2,1,30,1,0
207429,495.86776859504,4,2,1,30,1,0
208916,512.820512820512,4,2,1,30,1,0
210454,512.820512820512,4,2,1,30,1,0
211479,504.201680672268,4,2,1,30,1,0
212487,526.315789473683,4,2,1,30,1,0
213013,599.999999999999,4,2,1,30,1,0
213613,512.820512820512,4,2,1,30,1,0
214125,447.76119402985,4,2,1,30,1,0
214572,508.474576271186,4,2,1,30,1,0
215080,560.747663551401,4,2,1,30,1,0
215640,582.524271844659,4,2,1,30,1,0
216805,607.59493670886,4,2,1,30,1,0
221665,512.820512820512,4,2,1,30,1,0
222177,483.870967741935,4,2,1,30,1,0
223144,535.714285714285,4,2,1,30,1,0
223679,513.91862955032,4,2,1,30,1,0
227790,517.241379310344,4,2,1,30,1,0
229341,468.749999999999,4,2,1,30,1,0
229809,521.739130434782,4,2,1,30,1,0
230852,495.867768595041,4,2,1,30,1,0
231843,512.820512820512,4,2,1,30,1,0
232868,495.867768595041,4,2,1,30,1,0
233859,508.474576271186,4,2,1,30,1,0
234875,495.867768595041,4,2,1,30,1,0
235866,501.043841336116,4,2,1,30,1,0
237870,480,4,2,1,30,1,0
238830,521.739130434782,4,2,1,30,1,0
239873,495.867768595041,4,2,1,30,1,0
240864,480,4,2,1,30,1,0
241824,512.820512820512,4,2,1,30,1,0
244900,480,4,2,1,30,1,0
245860,526.315789473684,4,2,1,30,1,0
247438,491.803278688524,4,2,1,30,1,0
248421,500,4,2,1,30,1,0
248921,530.973451327433,4,2,1,30,1,0
249982,511.727078891258,4,2,1,30,1,0
251005,497.925311203319,4,2,1,30,1,0
252000,504.201680672268,4,2,1,30,1,0
252504,520.607375271149,4,2,1,30,1,0
253545,515.463917525773,4,2,1,30,1,0
254060,506.329113924051,4,2,1,30,1,0

[Colours]
Combo1 : 167,220,215
Combo2 : 249,255,128
Combo3 : 163,243,160
Combo4 : 255,192,130

[HitObjects]
101,209,215,6,0,P|114:189|127:176,1,38.4749988258362
92,280,534,6,0,P|89:244|64:102,1,171,6|0,3:2|3:0,0:0:0:0:
151,23,1012,2,0,P|142:84|141:121,1,85.5,8|0,0:0|3:0,0:0:0:0:
214,115,1331,2,0,P|217:73|224:31,1,85.5,0|0,3:0|3:0,0:0:0:0:
290,7,1650,1,8,0:0:0:0:
493,30,1810,6,0,B|406:7|424:85|322:61,1,171,2|0,3:2|3:0,0:0:0:0:
464,96,2288,2,0,P|472:138|474:193,1,85.5,8|0,0:0|3:0,0:0:0:0:
435,239,2607,1,0,3:0:0:0:
319,192,2767,1,8,0:0:0:0:
333,194,2847,1,8,0:0:0:0:
347,195,2927,1,8,0:0:0:0:
361,196,3007,1,8,0:0:0:0:
376,198,3086,6,0,P|277:229|202:259,1,171,4|2,3:2|3:2,0:0:0:0:
141,353,3565,1,2,3:2:0:0:
86,307,3724,2,0,P|34:293|-7:286,1,85.5,10|0,0:2|0:0,0:0:0:0:
208,325,4044,1,0,3:0:0:0:
73,377,4203,1,0,3:0:0:0:
137,250,4363,6,0,P|141:209|145:157,1,85.5,8|0,0:0|3:0,0:0:0:0:
86,30,4682,2,0,P|89:73|94:116,1,85.5,0|0,3:0|3:0,0:0:0:0:
214,165,5001,1,8,0:0:0:0:
264,115,5161,2,0,P|268:74|272:22,1,85.5,0|0,0:0|3:0,0:0:0:0:
272,30,5639,6,0,P|304:57|343:74,1,85.5,2|8,3:2|0:0,0:0:0:0:
404,36,5958,1,0,3:0:0:0:
316,166,6118,2,0,P|379:138|491:130,1,171,0|8,3:0|0:0,0:0:0:0:
512,191,6597,1,10,0:0:0:0:
362,275,6756,1,10,0:0:0:0:
302,235,6916,6,0,B|216:212|233:281|126:259,1,171,4|2,3:2|3:2,0:0:0:0:
107,197,7395,1,2,3:2:0:0:
127,57,7554,2,0,P|142:105|149:151,1,85.5,10|0,0:0|0:0,0:0:0:0:
43,227,7873,1,0,3:0:0:0:
0,170,8033,2,0,P|7:127|20:87,1,85.5,0|8,3:0|0:0,0:0:0:0:
172,2,8352,5,0,3:0:0:0:
233,40,8512,2,0,L|333:51,1,85.5,0|0,3:0|3:0,0:0:0:0:
457,81,8831,2,0,L|373:91,1,85.5,8|0,0:0|0:0,0:0:0:0:
498,23,9150,1,0,3:0:0:0:
498,23,9469,6,0,P|486:82|479:198,1,171,2|0,3:2|3:0,0:0:0:0:
341,221,9948,2,0,B|437:197|415:278|500:260,1,171,0|0,3:0|0:0,0:0:0:0:
370,285,10427,1,10,0:0:0:0:
238,138,10586,1,2,3:2:0:0:
307,157,10746,1,6,3:2:0:0:
419,50,10905,6,0,P|342:26|287:87,1,171,10|2,0:0|3:2,0:0:0:0:
186,185,11384,1,10,0:0:0:0:
128,143,11544,2,0,P|93:139|37:138,1,85.5,0|0,0:0|3:0,0:0:0:0:
0,194,11863,1,0,3:0:0:0:
130,312,12022,6,0,L|309:283,1,171,8|0,0:0|3:0,0:0:0:0:
363,310,12501,2,0,P|331:353|293:351,1,85.5,0|8,3:0|0:0,0:0:0:0:
420,149,12820,1,0,0:0:0:0:
455,212,12980,2,0,P|438:258|430:307,1,85.5,0|0,3:0|0:0,0:0:0:0:
346,136,13299,6,0,P|382:65|459:84,1,171,2|0,3:2|3:0,0:0:0:0:
303,193,13778,1,0,3:0:0:0:
230,78,13937,2,0,P|232:120|240:162,1,85.5,8|0,0:0|0:0,0:0:0:0:
281,29,14256,1,2,3:2:0:0:
186,205,14416,1,2,3:2:0:0:
125,169,14575,6,0,P|71:171|55:271,1,171,10|2,0:0|3:2,0:0:0:0:
196,276,15054,2,0,P|155:287|116:303,1,85.5,2|10,3:2|0:2,0:0:0:0:
87,367,15373,1,2,0:0:0:0:
241,334,15533,2,0,P|280:350|321:361,1,85.5,2|2,3:2|3:2,0:0:0:0:
383,328,15852,1,14,3:2:0:0:
468,213,16012,6,0,P|468:166|461:118,1,85.5,10|2,0:0|3:2,0:0:0:0:
394,131,16331,2,0,P|399:173|398:216,1,85.5,2|10,3:2|0:0,0:0:0:0:
347,265,16650,1,0,0:0:0:0:
246,106,16810,2,0,P|288:100|331:101,1,85.5,0|0,3:0|3:0,0:0:0:0:
212,238,17129,6,0,B|229:143|156:173|179:66,1,171,8|0,0:0|3:0,0:0:0:0:
271,281,17607,2,0,P|226:319|202:306,1,85.5,0|8,3:0|0:0,0:0:0:0:
146,271,17927,1,2,0:0:0:0:
176,77,18086,1,2,3:2:0:0:
176,77,18405,1,2,3:2:0:0:
111,104,18565,6,0,P|96:159|88:238,2,128.25,2|0|0,3:2|3:0|3:0,0:0:0:0:
100,97,19123,1,0,3:0:0:0:
89,89,19203,1,12,0:0:0:0:
28,263,19363,1,0,3:0:0:0:
28,263,19522,2,0,L|37:354,1,85.5,0|0,3:0|3:0,0:0:0:0:
100,377,19841,5,12,0:0:0:0:
216,247,20001,1,0,3:0:0:0:
216,247,20161,2,0,L|224:161,1,85.5,0|0,3:0|3:0,0:0:0:0:
278,119,20480,5,12,0:0:0:0:
372,284,20639,1,0,3:0:0:0:
372,284,20799,2,0,L|380:369,1,85.5,0|0,3:0|3:0,0:0:0:0:
447,384,21118,5,12,0:0:0:0:
480,232,21278,1,8,0:0:0:0:
512,80,21437,1,8,0:0:0:0:
454,18,21597,6,0,B|333:19|402:115|256:120,1,213.75,4|2,3:0|3:2,0:0:0:0:
263,112,21995,1,0,3:0:0:0:
248,105,22075,2,0,P|245:75|237:37,1,53.4375,10|0,0:2|0:2,0:0:0:0:
160,67,22235,2,0,P|162:96|171:135,1,53.4375,2|0,3:2|0:2,0:0:0:0:
266,203,22394,2,0,P|242:191|217:183,1,53.4375,10|0,0:2|0:2,0:0:0:0:
81,222,22554,2,0,P|101:204|124:190,1,53.4375,2|0,3:2|0:2,0:0:0:0:
176,255,22714,1,10,0:2:0:0:
29,383,22873,6,0,P|27:330|20:277,1,106.875,8|0,0:0|0:0,0:0:0:0:
184,338,23192,1,4,3:0:0:0:
113,381,23352,1,4,3:0:0:0:
261,365,23511,2,0,P|314:370|366:384,1,106.875,6|8,3:2|0:0,0:0:0:0:
423,323,23831,1,0,0:0:0:0:
423,323,24150,6,0,L|431:202,1,106.875,12|0,3:2|0:0,0:0:0:0:
449,74,24469,1,0,3:0:0:0:
481,151,24628,1,0,3:0:0:0:
348,204,24788,1,14,0:0:0:0:
265,191,24948,5,2,0:0:0:0:
264,174,25027,1,8,0:0:0:0:
263,158,25107,1,8,0:0:0:0:
262,142,25187,1,8,0:0:0:0:
261,126,25267,1,8,0:0:0:0:
260,110,25346,1,8,0:0:0:0:
259,94,25426,5,4,3:2:0:0:
296,270,25586,1,0,3:0:0:0:
296,270,25905,1,2,0:0:0:0:
296,270,26224,2,0,L|287:338,1,53.4375,8|0,0:0|3:0,0:0:0:0:
223,370,26384,2,0,L|170:362,1,53.4375,8|0,0:0|3:0,0:0:0:0:
123,297,26543,1,8,0:0:0:0:
265,191,26703,6,0,B|385:176|344:273|461:256,1,213.75,4|2,3:0|3:2,0:0:0:0:
466,243,27102,1,0,3:2:0:0:
475,229,27182,2,0,L|487:158,1,53.4375,10|0,0:2|0:2,0:0:0:0:
408,148,27341,2,0,L|399:95,1,53.4375,2|0,3:2|0:2,0:0:0:0:
496,17,27501,2,0,L|444:26,1,53.4375,10|0,0:2|0:2,0:0:0:0:
316,92,27660,2,0,L|263:83,1,53.4375,2|0,3:2|0:2,0:0:0:0:
361,21,27820,1,10,0:2:0:0:
214,17,27979,6,0,P|182:63|192:124,1,106.875,8|0,0:0|0:0,0:0:0:0:
213,254,28299,1,4,3:0:0:0:
265,191,28458,1,4,3:0:0:0:
120,164,28618,2,0,P|65:147|7:141,1,106.875,6|8,3:2|0:0,0:0:0:0:
54,230,28937,1,0,0:0:0:0:
54,230,29256,6,0,L|61:344,1,106.875,12|0,3:2|0:0,0:0:0:0:
219,374,29575,1,0,3:0:0:0:
144,337,29735,1,0,3:0:0:0:
293,267,29894,1,14,0:0:0:0:
393,361,30054,5,8,0:0:0:0:
378,359,30134,1,8,0:0:0:0:
363,357,30214,1,2,0:0:0:0:
348,355,30294,1,0,3:0:0:0:
333,353,30373,1,0,3:0:0:0:
318,351,30453,1,0,3:0:0:0:
303,350,30533,5,4,3:2:0:0:
136,254,30692,1,0,3:0:0:0:
136,254,31011,1,2,0:0:0:0:
136,254,31331,2,0,P|131:217|133:184,1,53.4375,8|0,0:0|3:0,0:0:0:0:
186,140,31490,2,0,P|190:103|189:70,1,53.4375,8|0,0:0|3:0,0:0:0:0:
136,26,31650,1,8,0:0:0:0:
272,77,31809,6,0,B|400:109|370:13|488:46,1,213.75,4|2,3:0|3:2,0:0:0:0:
483,56,32208,1,0,3:2:0:0:
491,69,32288,2,0,P|499:100|505:151,1,53.4375,10|0,0:2|0:2,0:0:0:0:
472,197,32448,2,0,P|449:219|407:250,1,53.4375,2|0,3:2|0:2,0:0:0:0:
371,176,32607,2,0,P|393:153|435:122,1,53.4375,10|0,0:2|0:2,0:0:0:0:
342,309,32767,2,0,P|347:282|354:256,1,53.4375,2|0,3:2|0:2,0:0:0:0:
287,162,32926,1,10,0:2:0:0:
171,273,33086,6,0,P|238:251|291:243,1,106.875,8|0,0:0|0:0,0:0:0:0:
327,382,33405,1,4,3:0:0:0:
260,331,33565,1,4,3:0:0:0:
81,335,33724,2,0,P|148:357|201:365,1,106.875,6|8,3:2|0:0,0:0:0:0:
91,252,34043,1,0,0:0:0:0:
91,252,34362,6,0,L|87:120,1,106.875,12|0,3:2|0:0,0:0:0:0:
60,5,34682,1,0,3:0:0:0:
33,83,34841,1,0,3:0:0:0:
170,129,35001,1,14,0:0:0:0:
252,112,35160,5,8,0:0:0:0:
252,95,35240,1,8,0:0:0:0:
253,78,35320,1,8,0:0:0:0:
254,61,35400,1,8,0:0:0:0:
255,45,35479,1,8,0:0:0:0:
256,28,35559,1,8,0:0:0:0:
257,11,35639,5,4,3:2:0:0:
394,141,35799,1,8,3:2:0:0:
315,168,35958,1,0,3:0:0:0:
381,307,36118,2,0,L|377:222,1,85.5,8|0,3:2|3:0,0:0:0:0:
169,334,36437,5,8,3:2:0:0:
248,361,36596,1,0,3:0:0:0:
235,194,36756,2,0,L|231:280,1,85.5,8|0,3:2|3:0,0:0:0:0:
92,308,37075,5,8,3:2:0:0:
7,292,37235,1,0,3:0:0:0:
124,172,37394,1,8,3:2:0:0:
152,252,37554,1,0,3:0:0:0:
33,97,37713,5,8,3:2:0:0:
192,122,37873,1,0,3:0:0:0:
322,27,38033,1,8,3:2:0:0:
388,68,38192,6,0,P|300:64|274:154,1,188.100005740357,12|0,3:2|3:0,0:0:0:0:
414,222,38671,2,0,P|369:209|323:203,1,94.0500028701783,8|0,0:0|3:0,0:0:0:0:
187,285,38990,2,0,P|233:278|279:267,1,94.0500028701783,0|2,3:0|3:2,0:0:0:0:
124,242,39309,1,10,0:0:0:0:
85,383,39469,6,0,B|109:286|27:310|54:202,1,188.100005740357,2|0,3:2|3:0,0:0:0:0:
150,19,39947,1,8,0:0:0:0:
177,92,40107,1,0,3:0:0:0:
30,134,40267,2,0,P|56:96|99:77,1,94.0500028701783,0|0,3:0|3:0,0:0:0:0:
227,33,40586,1,8,0:0:0:0:
204,165,40745,5,2,3:2:0:0:
346,91,40905,2,0,P|299:97|253:105,1,94.0500028701783,2|2,3:2|3:2,0:0:0:0:
154,224,41224,1,10,0:2:0:0:
211,277,41384,2,0,P|284:251|400:220,1,188.100005740357,2|2,3:2|3:2,0:0:0:0:
512,380,41862,5,10,0:2:0:0:
506,303,42022,2,0,P|441:281|456:379,1,188.100005740357,2|2,3:2|3:2,0:0:0:0:
496,204,42501,1,10,0:2:0:0:
431,160,42660,2,0,P|416:97|412:44,1,94.0500028701783,2|0,3:2|3:0,0:0:0:0:
170,55,42979,6,0,B|292:85|258:-20|380:20,1,205.199993737793,14|8,0:0|0:0,0:0:0:0:
318,180,43458,6,0,L|332:87,1,94.0500028701783,6|2,3:2|3:2,0:0:0:0:
382,224,43777,1,10,0:2:0:0:
274,324,43937,2,0,L|260:231,1,94.0500028701783,2|0,3:2|3:0,0:0:0:0:
479,333,44256,2,0,P|409:298|341:371,1,188.100005740357,2|2,3:2|3:2,0:0:0:0:
202,354,44735,5,2,3:2:0:0:
150,295,44894,2,0,P|95:276|55:267,1,94.0500028701783,2|10,3:2|0:0,0:0:0:0:
165,137,45213,2,0,P|178:182|186:228,1,94.0500028701783,2|0,3:2|3:0,0:0:0:0:
82,352,45533,1,2,3:2:0:0:
10,212,45692,5,10,0:0:0:0:
69,161,45852,2,0,P|88:85|-1:33,1,188.100005740357,2|2,3:2|3:2,0:0:0:0:
165,137,46330,1,2,0:0:0:0:
224,86,46490,2,0,P|252:74|327:63,1,94.0500028701783,8|0,0:2|0:0,0:0:0:0:
502,82,46809,1,0,3:0:0:0:
365,120,46969,2,0,P|393:132|468:143,1,94.0500028701783,2|0,0:0|3:0,0:0:0:0:
474,7,47288,6,0,P|427:14|384:31,1,94.0500028701783,2|2,3:2|3:2,0:0:0:0:
310,177,47607,2,0,L|304:271,1,94.0500028701783,10|2,0:2|3:2,0:0:0:0:
466,384,47926,1,10,0:2:0:0:
508,315,48086,1,2,3:2:0:0:
317,345,48245,1,2,3:2:0:0:
232,252,48405,6,0,B|134:241|173:325|58:321,1,188.100005740357,12|0,3:2|3:0,0:0:0:0:
21,192,48884,2,0,P|73:211|78:261,1,94.0500028701783,8|0,0:0|3:0,0:0:0:0:
10,268,49203,1,0,3:0:0:0:
150,381,49362,1,2,3:2:0:0:
223,355,49522,2,0,P|255:349|337:344,1,94.0500028701783,10|2,0:0|3:2,0:0:0:0:
458,206,49841,6,0,P|373:191|347:273,1,188.100005740357,2|8,3:2|0:0,0:0:0:0:
424,276,50320,1,0,3:0:0:0:
505,147,50479,2,0,L|513:48,1,94.0500028701783,0|0,3:0|3:0,0:0:0:0:
448,11,50799,1,8,0:0:0:0:
347,119,50958,6,0,B|243:133|282:55|175:64,1,188.100005740357,2|2,3:2|3:2,0:0:0:0:
123,123,51437,1,2,0:0:0:0:
250,216,51596,2,0,P|230:173|199:139,1,94.0500028701783,10|0,0:0|0:0,0:0:0:0:
73,182,51916,1,2,3:2:0:0:
181,251,52075,2,0,P|135:247|89:257,1,94.0500028701783,2|2,0:0|3:2,0:0:0:0:
43,322,52394,5,2,3:2:0:0:
101,378,52554,1,2,3:2:0:0:
247,294,52713,2,0,L|355:300,1,94.0500028701783,10|2,0:2|3:2,0:0:0:0:
489,237,53033,2,0,L|396:243,1,94.0500028701783,10|2,0:2|3:2,0:0:0:0:
365,371,53352,1,2,3:2:0:0:
319,222,53511,6,0,B|342:115|256:150|278:32,1,188.100005740357,14|2,3:2|3:2,0:0:0:0:
336,0,53990,1,10,0:0:0:0:
488,37,54150,2,0,P|433:106|351:76,1,188.100005740357,2|0,3:2|3:0,0:0:0:0:
214,3,54628,2,0,P|175:39|179:89,1,94.0500028701783,10|0,0:0|3:0,0:0:0:0:
217,141,54947,5,0,3:0:0:0:
99,97,55107,2,0,P|36:81|-4:82,1,94.0500028701783,2|10,3:2|0:0,0:0:0:0:
82,222,55426,2,0,P|129:219|174:206,1,94.0500028701783,2|0,3:2|3:0,0:0:0:0:
377,227,55745,2,0,B|279:201|306:297|197:274,1,188.100005740357,2|2,3:2|3:2,0:0:0:0:
392,364,56224,5,6,3:0:0:0:
351,298,56384,1,10,0:0:0:0:
242,359,56543,2,0,L|144:343,1,94.0500028701783,6|6,3:0|3:0,0:0:0:0:
13,258,56862,5,10,0:2:0:0:
82,222,57022,1,4,3:0:0:0:
85,384,57181,1,10,0:2:0:0:
17,181,57341,1,4,3:0:0:0:
147,263,57501,5,6,3:2:0:0:
241,162,57660,2,0,P|195:170|151:186,1,94.0500028701783,4|14,3:0|0:0,0:0:0:0:
61,53,57979,2,0,P|69:100|84:144,1,94.0500028701783,4|10,3:0|0:0,0:0:0:0:
225,243,58299,1,2,3:2:0:0:
321,170,58458,1,2,3:2:0:0:
442,288,58618,6,0,B|355:306|385:228|288:249,1,153.899995303345,14|0,3:2|3:0,0:0:0:0:
254,361,59096,2,0,P|283:336|317:317,1,76.9499976516724,8|0,0:0|3:0,0:0:0:0:
201,312,59416,2,0,L|115:298,1,76.9499976516724,0|0,3:0|3:0,0:0:0:0:
72,347,59735,1,8,0:0:0:0:
1,226,59894,6,0,P|54:183|89:242,1,153.899995303345,2|0,3:2|3:0,0:0:0:0:
144,165,60373,2,0,P|179:161|219:152,1,76.9499976516724,8|0,0:0|3:0,0:0:0:0:
246,87,60692,1,0,3:0:0:0:
331,197,60852,1,8,0:0:0:0:
318,195,60931,1,8,0:0:0:0:
306,193,61011,1,8,0:0:0:0:
293,191,61090,1,8,0:0:0:0:
281,189,61170,5,12,3:2:0:0:
379,142,61330,2,0,P|398:176|400:214,1,76.9499976516724,10|2,0:0|3:2,0:0:0:0:
352,267,61650,1,2,3:2:0:0:
504,296,61809,2,0,P|438:275|414:341,1,153.899995303345,10|0,0:0|3:0,0:0:0:0:
499,204,62288,1,0,3:0:0:0:
462,143,62447,1,8,0:0:0:0:
502,83,62607,6,0,L|514:-2,1,76.9499976516724,0|0,3:0|3:0,0:0:0:0:
439,1,62926,2,0,L|429:78,1,76.9499976516724,0|8,3:0|0:0,0:0:0:0:
374,121,63245,1,0,0:0:0:0:
219,151,63405,1,0,3:0:0:0:
219,151,63724,6,0,P|186:139|134:135,1,76.9499976516724,2|8,3:2|0:0,0:0:0:0:
87,175,64043,1,0,3:0:0:0:
1,94,64203,1,0,3:0:0:0:
77,78,64362,1,0,3:0:0:0:
75,91,64442,1,0,3:0:0:0:
73,104,64521,1,4,3:0:0:0:
26,26,64681,5,6,3:0:0:0:
191,6,64841,1,6,3:0:0:0:
147,62,65001,1,14,3:2:0:0:
219,150,65160,6,0,P|224:189|227:227,1,76.9499976516724,10|2,0:0|3:2,0:0:0:0:
189,287,65479,1,2,3:2:0:0:
306,330,65639,2,0,B|225:309|245:375|159:356,1,153.899995303345,10|0,0:0|3:0,0:0:0:0:
99,325,66118,1,0,3:0:0:0:
0,384,66277,1,8,0:0:0:0:
28,316,66437,6,0,P|33:273|36:222,1,76.9499976516724,0|0,3:0|3:0,0:0:0:0:
87,108,66756,2,0,P|82:146|80:185,1,76.9499976516724,0|8,3:0|0:0,0:0:0:0:
125,239,67075,1,0,0:0:0:0:
298,207,67235,1,0,3:0:0:0:
298,207,67554,6,0,P|311:164|306:125,1,76.9499976516724,2|8,3:2|0:0,0:0:0:0:
258,83,67873,1,2,3:2:0:0:
378,45,68033,2,0,B|296:61|316:-1|224:15,1,153.899995303345,2|0,3:2|0:0,0:0:0:0:
377,117,68511,1,10,0:2:0:0:
504,26,68671,1,10,3:2:0:0:
436,3,68830,1,14,3:2:0:0:
437,156,68990,6,0,L|430:240,1,76.9499976516724,10|2,0:0|3:2,0:0:0:0:
472,288,69309,1,2,3:2:0:0:
325,292,69469,2,0,P|387:287|392:363,1,153.899995303345,10|0,0:0|3:0,0:0:0:0:
322,363,69947,1,0,3:0:0:0:
267,250,70107,1,8,0:0:0:0:
328,212,70267,6,0,P|333:174|336:126,1,76.9499976516724,0|0,0:0|3:0,0:0:0:0:
278,10,70586,2,0,P|283:48|285:87,1,76.9499976516724,0|8,3:0|0:0,0:0:0:0:
230,130,70905,1,0,0:0:0:0:
389,91,71064,1,0,3:0:0:0:
389,91,71384,6,0,P|439:73|476:65,1,76.9499976516724,2|8,3:2|0:0,0:0:0:0:
512,117,71703,1,2,3:2:0:0:
474,269,71862,1,2,3:2:0:0:
424,219,72022,2,0,P|433:181|447:145,1,76.9499976516724
426,321,72341,1,2,3:2:0:0:
353,231,72501,1,2,3:2:0:0:
304,283,72660,6,0,B|224:307|246:235|153:256,1,153.899995303345,10|2,0:0|3:2,0:0:0:0:
127,366,73139,1,2,3:2:0:0:
183,322,73299,1,10,0:0:0:0:
143,187,73458,2,0,P|110:205|91:238,1,76.9499976516724,2|2,0:2|3:2,0:0:0:0:
215,184,73777,1,2,3:2:0:0:
85,136,73937,1,14,3:2:0:0:
234,47,74096,6,0,P|245:83|251:122,1,76.9499976516724,10|2,0:0|3:2,0:0:0:0:
308,161,74416,1,2,3:2:0:0:
447,186,74575,2,0,P|377:186|366:255,1,153.899995303345,10|0,0:0|3:0,0:0:0:0:
484,338,75054,1,0,3:0:0:0:
428,293,75213,1,8,0:0:0:0:
365,327,75373,6,0,P|328:334|283:337,1,76.9499976516724,0|0,0:0|3:0,0:0:0:0:
167,273,75692,2,0,P|206:275|244:283,1,76.9499976516724,0|8,3:0|0:0,0:0:0:0:
236,384,76011,1,0,0:0:0:0:
106,314,76171,1,0,3:0:0:0:
106,314,76490,1,10,0:0:0:0:
167,273,76650,6,0,L|183:107,1,153.899995303345,2|2,3:2|3:2,0:0:0:0:
181,119,77288,2,0,P|165:131|154:147,1,38.4749988258362,8|8,0:0|0:0,0:0:0:0:
85,155,77447,2,0,P|100:195|110:206,1,38.4749988258362,0|0,3:0|3:0,0:0:0:0:
67,254,77607,1,8,0:0:0:0:
3,79,77767,6,0,P|63:72|217:-20,1,213.75,12|0,3:2|3:0,0:0:0:0:
251,68,78245,1,8,0:0:0:0:
399,17,78405,2,0,P|334:-9|297:11,1,106.875,0|0,3:0|3:0,0:0:0:0:
312,131,78724,2,0,P|362:113|415:103,1,106.875,0|8,3:0|0:0,0:0:0:0:
340,215,79043,6,0,B|230:238|263:142|138:168,1,213.75,0|0,3:0|3:0,0:0:0:0:
92,239,79522,1,8,0:0:0:0:
22,64,79681,2,0,P|49:125|56:175,1,106.875,0|2,3:0|3:2,0:0:0:0:
34,310,80001,1,2,3:2:0:0:
34,310,80320,6,0,P|93:331|140:316,1,106.875,4|2,3:2|3:2,0:0:0:0:
304,334,80639,2,0,P|252:346|201:365,1,106.875,2|8,3:2|0:0,0:0:0:0:
319,247,80958,1,0,3:0:0:0:
439,356,81118,1,2,3:2:0:0:
485,278,81277,2,0,P|490:224|493:171,1,106.875,2|0,3:2|0:0,0:0:0:0:
320,163,81596,6,0,B|450:169|394:77|514:84,1,213.75,2|0,3:2|3:0,0:0:0:0:
349,78,82075,1,8,0:0:0:0:
349,78,82235,2,0,B|218:84|274:-7|154:0,1,213.75,0|2,3:0|3:2,0:0:0:0:
0,48,82713,1,8,0:0:0:0:
69,100,82873,1,0,3:0:0:0:
69,100,83033,2,0,P|122:96|174:83,1,106.875,0|0,3:0|3:0,0:0:0:0:
106,272,83352,2,0,P|41:284|25:157,1,213.75,8|0,0:0|3:0,0:0:0:0:
99,181,83830,5,0,3:0:0:0:
178,323,83990,2,0,P|231:329|284:330,1,106.875,8|0,0:0|3:0,0:0:0:0:
408,320,84309,1,0,3:0:0:0:
340,261,84469,2,0,P|319:226|337:153,1,106.875,0|0,3:0|0:0,0:0:0:0:
407,119,84788,1,0,3:0:0:0:
489,276,84947,1,2,3:2:0:0:
512,189,85107,1,2,3:2:0:0:
512,189,85426,1,4,3:2:0:0:
408,320,85586,5,2,3:2:0:0:
340,261,85745,2,0,L|206:246,1,106.875,2|8,3:2|0:0,0:0:0:0:
172,187,86064,1,0,3:0:0:0:
269,44,86224,1,2,3:2:0:0:
324,113,86384,1,2,3:2:0:0:
235,125,86543,2,0,P|188:97|139:77,1,106.875,8|2,0:0|3:2,0:0:0:0:
71,131,86862,5,0,3:0:0:0:
104,323,87022,2,0,P|98:270|84:218,1,106.875,0|8,3:0|0:0,0:0:0:0:
190,302,87341,2,0,P|243:313|299:321,1,106.875,0|2,3:0|3:2,0:0:0:0:
460,286,87660,2,0,P|414:260|362:265,1,106.875,2|8,3:2|0:0,0:0:0:0:
485,194,87979,1,0,3:0:0:0:
412,142,88139,2,0,P|404:101|402:28,1,106.875,0|0,3:0|3:0,0:0:0:0:
256,0,88458,2,0,B|239:107|342:69|324:196,1,213.75,8|0,0:0|3:0,0:0:0:0:
164,228,88937,6,0,P|189:183|238:163,1,106.875,0|8,3:0|0:0,0:0:0:0:
143,10,89256,2,0,P|135:63|133:117,1,106.875,0|0,3:0|3:0,0:0:0:0:
75,278,89575,2,0,P|72:224|65:172,1,106.875,0|8,3:0|0:0,0:0:0:0:
155,317,89894,1,0,3:2:0:0:
302,290,90054,1,2,3:2:0:0:
236,360,90213,1,2,3:2:0:0:
236,360,90533,6,0,P|308:378|354:396,1,106.875,0|2,3:0|3:2,0:0:0:0:
491,287,90852,2,0,P|441:305|389:317,1,106.875,2|8,3:2|0:0,0:0:0:0:
369,230,91171,1,4,3:2:0:0:
501,128,91330,1,2,3:2:0:0:
456,207,91490,1,2,3:2:0:0:
456,207,91809,6,0,P|394:134|379:120,1,106.875,2|0,3:2|0:0,0:0:0:0:
201,182,92128,2,0,P|254:175|306:162,1,106.875,0|8,3:0|0:0,0:0:0:0:
181,15,92447,2,0,B|191:139|102:83|115:214,1,213.75,0|2,3:0|3:2,0:0:0:0:
135,345,92926,1,12,0:0:0:0:
179,267,93086,1,0,3:0:0:0:
68,286,93245,5,2,3:2:0:0:
68,286,93405,1,2,3:2:0:0:
222,342,93564,2,0,P|264:329|341:317,1,106.875,10|2,0:2|3:2,0:0:0:0:
464,308,93884,1,2,3:2:0:0:
398,367,94043,1,2,3:2:0:0:
353,235,94203,2,0,L|336:129,1,106.875,10|2,0:0|3:2,0:0:0:0:
164,100,94522,6,0,B|287:125|256:20|366:47,1,213.75,0|8,3:0|0:0,0:0:0:0:
426,108,95001,1,0,3:0:0:0:
353,235,95160,1,2,3:2:0:0:
435,198,95320,1,2,3:2:0:0:
435,198,95639,1,4,3:2:0:0:
398,367,95799,5,2,3:2:0:0:
322,320,95958,2,0,P|250:300|216:302,1,106.875,2|8,3:2|0:0,0:0:0:0:
154,361,96277,1,0,3:0:0:0:
22,291,96437,1,2,3:2:0:0:
78,124,96596,2,0,P|84:177|87:230,1,106.875,2|8,3:2|0:0,0:0:0:0:
164,101,96916,1,2,3:2:0:0:
56,40,97075,6,0,P|-3:62|1:107,1,106.875,2|2,3:2|3:2,0:0:0:0:
140,15,97394,2,0,P|171:8|254:-1,1,106.875,8|0,0:0|3:0,0:0:0:0:
336,129,97713,1,2,3:2:0:0:
255,89,97873,1,2,3:2:0:0:
379,0,98033,2,0,P|420:34|405:84,1,106.875,10|2,0:0|3:2,0:0:0:0:
263,176,98352,6,0,P|250:227|243:280,1,106.875,0|0,3:0|3:0,0:0:0:0:
404,322,98671,2,0,B|295:293|324:394|199:365,1,213.75,8|0,0:0|3:0,0:0:0:0:
79,337,99150,1,0,3:0:0:0:
157,295,99309,1,8,0:0:0:0:
30,261,99469,6,0,P|11:152|1:48,1,213.75,0|0,3:0|3:0,0:0:0:0:
71,0,99947,1,8,0:0:0:0:
197,98,100107,2,0,P|145:88|92:87,1,106.875,0|2,3:0|3:2,0:0:0:0:
262,34,100426,1,2,3:2:0:0:
262,34,100745,1,4,3:2:0:0:
204,182,100905,5,2,3:2:0:0:
274,233,101064,2,0,P|328:231|380:221,1,106.875,2|8,3:2|0:0,0:0:0:0:
428,149,101384,1,0,3:0:0:0:
419,347,101543,1,2,3:2:0:0:
505,327,101703,2,0,P|504:278|455:266,1,106.875,2|8,3:2|0:0,0:0:0:0:
334,367,102022,1,2,3:2:0:0:
257,321,102181,6,0,P|205:322|159:348,1,106.875,0|0,3:0|3:0,0:0:0:0:
14,248,102501,2,0,P|66:249|113:275,1,106.875,8|0,0:0|3:0,0:0:0:0:
244,224,102820,1,10,0:0:0:0:
244,224,102900,1,8,0:0:0:0:
244,223,102979,2,0,L|192:233,1,53.4375,2|0,3:2|3:0,0:0:0:0:
115,122,103139,2,0,L|125:175,1,53.4375,8|0,0:0|3:0,0:0:0:0:
294,153,103299,1,0,3:0:0:0:
178,41,103458,6,0,P|240:88|258:67,2,113.971502486866,12|0|0,0:0|3:0|3:0,0:0:0:0:
18,79,103937,2,0,P|40:31|91:41,2,113.971502486866,8|0|0,0:0|3:0|3:0,0:0:0:0:
115,122,104416,2,0,P|134:252|143:373,1,227.943004973732,12|2,0:0|0:0,0:0:0:0:
232,375,104894,1,8,0:0:0:0:
232,375,104974,1,8,0:0:0:0:
232,375,105054,1,4,3:0:0:0:
296,321,105213,1,4,3:0:0:0:
286,148,105373,6,0,P|229:160|256:253,1,170.957253730299,8|0,0:0|0:0,0:0:0:0:
247,250,105692,2,0,P|342:250|380:318,1,170.957253730299,0|0,3:0|0:0,0:0:0:0:
379,308,106011,6,0,P|391:236|405:182,2,113.971502486866,12|0|0,0:0|3:0|3:0,0:0:0:0:
474,147,106490,2,0,P|461:75|448:20,2,113.971502486866,8|0|0,0:0|3:0|3:0,0:0:0:0:
366,4,106969,2,0,B|244:-16|281:80|150:56,1,227.943004973732,12|2,0:0|0:0,0:0:0:0:
79,27,107447,1,8,0:0:0:0:
79,27,107527,1,8,0:0:0:0:
79,27,107607,1,4,3:0:0:0:
21,89,107767,1,4,3:0:0:0:
80,260,107926,6,0,P|133:199|100:126,1,170.957253730299,8|0,0:0|0:0,0:0:0:0:
99,125,108245,2,0,P|131:194|226:239,1,170.957253730299,0|0,3:0|0:0,0:0:0:0:
211,237,108564,6,0,P|161:319|151:349,2,113.971502486866,12|0|0,0:0|3:0|3:0,0:0:0:0:
371,327,109043,2,0,P|314:321|258:327,1,113.971502486866,8|0,0:0|3:0,0:0:0:0:
411,242,109376,1,0,3:0:0:0:
483,384,109549,2,0,P|502:248|505:167,1,213.75,12|2,0:0|0:0,0:0:0:0:
445,110,110070,2,0,L|433:55,2,53.4375,8|8|4,0:0|0:0|3:0,0:0:0:0:
378,163,110428,1,4,3:0:0:0:
227,89,110613,1,8,0:0:0:0:
308,59,110798,1,8,0:0:0:0:
293,143,110983,2,0,P|285:190|282:237,1,94.0500028701783,0|0,3:0|0:0,0:0:0:0:
254,344,111375,6,0,P|201:278|120:258,1,171,12|0,0:0|3:0,0:0:0:0:
42,247,111972,2,0,P|60:208|95:184,1,85.5,8|0,0:0|3:0,0:0:0:0:
173,182,112385,1,0,3:0:0:0:
43,113,112593,2,0,P|119:105|192:82,1,153.899995303345,12|2,0:0|0:0,0:0:0:0:
240,143,113242,2,0,L|300:154,2,38.4749988258362,10|8|0,0:0|0:0|3:0,0:0:0:0:
335,101,113693,1,0,3:0:0:0:
391,201,113919,6,0,P|357:203|323:212,1,68.4,14|0,0:0|3:0,0:0:0:0:
339,286,114387,2,0,P|373:283|406:275,1,68.4,2|8,3:2|0:0,0:0:0:0:
406,275,114856,5,4,3:2:0:0:
185,34,137067,5,0,0:0:0:0:
185,34,137518,2,0,P|164:81|145:193,1,153.899995303345,2|0,0:3|0:0,0:0:0:0:
209,225,138459,2,0,P|244:174|345:183,1,153.899995303345,2|0,0:3|0:0,0:0:0:0:
287,238,139400,2,0,B|273:323|332:298|319:387,1,153.899995303345,2|0,0:3|0:0,0:0:0:0:
228,366,140339,6,0,P|149:349|25:337,1,205.2,2|0,0:3|0:0,0:0:0:0:
81,263,141279,6,0,L|97:188,1,64.1250024461747,2|0,0:0|0:0,0:0:0:0:
48,145,141608,1,2,0:0:0:0:
48,145,141945,2,0,L|32:70,1,64.1250024461747,2|0,0:0|0:0,0:0:0:0:
81,27,142282,1,2,0:0:0:0:
81,27,142611,6,0,L|144:41,1,64.1250024461747,2|0,0:0|0:0,0:0:0:0:
211,13,142930,1,2,0:0:0:0:
211,13,143249,2,0,L|273:0,1,64.1250024461747,2|0,0:0|0:0,0:0:0:0:
333,45,143568,1,2,0:0:0:0:
333,45,143887,6,0,L|346:107,1,64.1250024461747,2|0,0:0|0:0,0:0:0:0:
302,169,144197,1,2,0:0:0:0:
302,169,144508,1,0,0:0:0:0:
339,230,144661,2,0,L|325:292,2,64.1250024461747,8|4|0,0:0|3:3|3:0,0:0:0:0:
414,197,145120,5,4,3:0:0:0:
393,336,145272,2,0,P|355:368|309:370,1,85.5,0|0,3:0|3:0,0:0:0:0:
254,326,145576,1,2,3:2:0:0:
114,368,145729,1,10,3:2:0:0:
166,288,145881,1,2,3:2:0:0:
38,229,146033,5,4,3:0:0:0:
119,219,146185,2,0,P|131:177|140:129,1,85.5,0|0,3:0|3:0,0:0:0:0:
95,68,146490,1,2,3:2:0:0:
240,10,146642,1,10,3:2:0:0:
178,63,146795,1,2,3:2:0:0:
330,91,146947,5,4,3:0:0:0:
249,105,147099,2,0,P|227:163|221:196,1,85.5,0|8,3:0|3:2,0:0:0:0:
278,245,147404,1,2,3:2:0:0:
427,297,147556,1,2,3:2:0:0:
369,244,147708,1,0,3:0:0:0:
369,244,147784,1,0,3:0:0:0:
369,244,147861,5,12,3:2:0:0:
238,317,148013,1,12,3:2:0:0:
238,317,148317,1,12,3:2:0:0:
443,376,148470,1,12,3:2:0:0:
443,376,148774,6,0,B|495:360|495:360|540:297|504:215,1,188.100005740357,6|0,3:2|3:0,0:0:0:0:
443,185,149231,1,10,0:0:0:0:
475,90,149383,2,0,B|492:104|499:124|499:124|478:104|444:104,1,94.0500028701783,0|4,3:0|3:0,0:0:0:0:
336,0,149688,2,0,B|304:-7|288:23|288:23|418:33,1,188.100005740357,2|0,3:2|3:0,0:0:0:0:
494,8,150145,1,8,0:0:0:0:
371,111,150297,2,0,L|277:104,1,94.0500028701783,6|0,3:0|0:0,0:0:0:0:
141,161,150602,6,0,B|188:137|188:137|253:176|246:264,1,188.100005740357,6|0,3:2|0:0,0:0:0:0:
151,287,151059,2,0,B|169:270|157:244|157:244|128:246|123:271,1,94.0500028701783,2|0,3:2|0:0,0:0:0:0:
222,329,151363,1,0,3:0:0:0:
328,261,151515,1,10,0:0:0:0:
398,319,151668,1,0,3:0:0:0:
398,319,151744,1,0,3:0:0:0:
398,319,151820,1,8,3:2:0:0:
489,223,151972,2,0,B|472:203|472:203|432:198|405:242,1,94.0500028701783,8|0,0:0|0:0,0:0:0:0:
485,308,152277,1,8,3:2:0:0:
332,371,152429,6,0,L|138:357,1,188.100005740357,6|0,3:2|3:0,0:0:0:0:
14,305,152886,1,8,0:0:0:0:
124,219,153038,1,0,3:0:0:0:
94,293,153190,1,4,3:0:0:0:
75,157,153343,2,0,B|114:120|179:143|196:182|196:182|203:152|187:126,1,188.100005740357,2|0,3:2|3:0,0:0:0:0:
8,107,153800,1,8,0:0:0:0:
67,18,153952,2,0,B|80:-2|80:-2|94:30|78:68,1,94.0500028701783,4|0,3:0|0:0,0:0:0:0:
218,32,154257,6,0,B|199:51|169:53|169:53|310:85,1,188.100005740357,6|0,3:2|0:0,0:0:0:0:
448,26,154713,2,0,B|417:9|417:9|363:30,1,94.0500028701783,8|0,3:2|0:0,0:0:0:0:
376,111,155018,1,0,3:0:0:0:
489,239,155170,1,10,0:0:0:0:
427,295,155323,1,0,3:0:0:0:
427,295,155399,1,0,3:0:0:0:
427,295,155475,1,8,0:0:0:0:
319,236,155627,2,0,B|302:213|302:213|365:232,1,94.0500028701783,8|0,0:0|3:0,0:0:0:0:
507,320,155932,1,0,3:0:0:0:
430,182,156084,6,0,B|430:152|452:135|452:135|445:89|445:89|492:60|480:3,1,188.100005740357,6|0,3:2|3:0,0:0:0:0:
489,239,156541,1,8,0:0:0:0:
354,148,156693,2,0,B|325:127|325:127|252:139,1,94.0500028701783,0|4,3:0|3:0,0:0:0:0:
210,235,156998,2,0,B|180:248|186:275|186:275|237:211|313:211,1,188.100005740357,2|0,3:2|0:0,0:0:0:0:
358,271,157455,1,8,0:0:0:0:
252,348,157607,2,0,B|271:369|271:369|264:332|288:303,1,94.0500028701783,4|0,3:0|0:0,0:0:0:0:
496,320,157911,6,0,B|484:287|441:291|441:291|416:360|351:355,1,188.100005740357,6|0,3:2|0:0,0:0:0:0:
417,214,158368,2,0,B|438:188|438:188|448:156|419:117,1,94.0500028701783,0|0,3:0|0:0,0:0:0:0:
358,89,158673,1,0,3:0:0:0:
504,2,158825,1,10,0:0:0:0:
502,89,158977,1,0,3:0:0:0:
502,89,159054,1,0,3:0:0:0:
502,89,159130,1,8,3:2:0:0:
345,6,159282,2,0,B|275:3|275:3|253:36,1,94.0500028701783,8|0,0:0|0:0,0:0:0:0:
277,103,159587,1,8,3:2:0:0:
153,141,159739,6,0,B|138:112|109:111|109:111|182:92|216:173,1,188.100005740357,6|0,3:2|3:0,0:0:0:0:
188,300,160196,1,8,0:0:0:0:
156,224,160348,1,0,3:0:0:0:
270,311,160500,1,4,3:0:0:0:
138,366,160652,2,0,B|79:330|9:348|9:348|32:311|67:334,1,188.100005740357,2|0,3:2|3:0,0:0:0:0:
222,384,161109,1,8,0:0:0:0:
351,323,161262,2,0,B|377:304|374:272|374:272|363:294|340:301,1,94.0500028701783,4|0,3:0|0:0,0:0:0:0:
359,136,161566,6,0,B|326:100|326:100|269:150|311:237,1,188.100005740357,6|0,3:2|0:0,0:0:0:0:
420,200,162023,2,0,B|484:184|484:184|518:207,1,94.0500028701783,0|0,3:0|0:0,0:0:0:0:
471,271,162328,1,0,3:0:0:0:
437,112,162480,1,10,0:0:0:0:
501,53,162632,1,0,3:0:0:0:
501,53,162708,1,0,3:0:0:0:
501,53,162784,1,8,0:0:0:0:
385,3,162937,2,0,B|356:13|356:13|428:30,1,94.0500028701783,8|0,0:0|0:0,0:0:0:0:
310,80,163241,1,8,3:2:0:0:
164,33,163394,6,0,B|156:10|129:-5|129:-5|274:16,1,188.100005740357,6|0,3:2|3:0,0:0:0:0:
221,93,163850,1,8,0:0:0:0:
95,151,164003,2,0,B|72:121|72:121|96:70,1,94.0500028701783,0|4,3:0|3:0,0:0:0:0:
215,205,164307,2,0,B|208:173|177:167|177:167|158:298,1,188.100005740357,2|0,3:2|3:0,0:0:0:0:
250,288,164764,1,8,0:0:0:0:
250,288,164840,1,0,0:0:0:0:
250,288,164916,1,4,3:0:0:0:
386,360,165069,1,0,3:0:0:0:
386,360,165145,1,0,3:0:0:0:
386,360,165221,5,14,3:2:0:0:
338,190,165373,2,0,B|363:218|363:218|353:273,1,94.0500028701783,10|4,3:2|3:0,0:0:0:0:
341,265,165602,1,4,3:0:0:0:
329,257,165678,1,14,3:2:0:0:
284,59,165830,2,0,B|259:87|259:87|269:143,1,94.0500028701783,10|0,3:2|3:0,0:0:0:0:
453,199,166135,5,14,0:0:0:0:
370,24,166287,1,2,3:2:0:0:
491,113,166439,2,0,B|503:97|487:85|487:85|417:100,1,94.0500028701783,14|0,0:0|3:0,0:0:0:0:
498,336,166744,2,0,B|513:348|525:332|525:332|510:262,1,94.0500028701783,14|8,0:0|3:2,0:0:0:0:
365,166,167048,6,0,L|123:143,1,213.75,6|4,3:2|3:0,0:0:0:0:
89,214,167505,1,0,0:0:0:0:
167,337,167658,2,0,B|185:332|190:311|190:311|179:239,1,106.875,4|0,3:0|0:0,0:0:0:0:
363,353,167962,2,0,B|335:344|335:344|313:374|264:371,1,106.875,10|0,0:0|0:0,0:0:0:0:
478,219,168267,2,0,B|456:238|456:238|471:272|444:313,1,106.875,4|0,3:0|0:0,0:0:0:0:
419,52,168571,2,0,B|425:80|425:80|462:84|484:128,1,106.875,4|0,3:0|0:0,0:0:0:0:
232,33,168876,6,0,B|288:18|288:18|359:73|312:158,1,213.75,4|0,3:2|3:0,0:0:0:0:
123,246,169333,2,0,B|179:261|179:261|250:206|203:121,1,213.75,2|0,0:0|0:0,0:0:0:0:
117,152,169790,1,10,0:0:0:0:
44,297,169942,1,0,0:0:0:0:
206,350,170094,2,0,B|187:374|187:374|149:389|115:351,1,106.875,4|0,3:0|0:0,0:0:0:0:
38,204,170399,1,4,3:0:0:0:
38,204,170703,6,0,B|10:48|10:48|21:84|63:100,1,213.75,6|4,3:2|3:0,0:0:0:0:
96,13,171160,1,0,0:0:0:0:
271,43,171312,2,0,B|245:69|245:69|168:60,1,106.875,4|0,3:0|0:0,0:0:0:0:
340,189,171617,2,0,B|308:159|317:125|317:125|326:155|355:163,1,106.875,10|0,0:0|0:0,0:0:0:0:
305,274,171922,1,4,3:0:0:0:
429,163,172074,1,0,3:0:0:0:
398,318,172226,2,0,B|430:288|421:254|421:254|412:284|383:292,1,106.875,0|4,0:0|3:0,0:0:0:0:
260,356,172531,6,0,B|209:372|209:372|136:313|191:216,1,213.75,4|0,3:2|3:0,0:0:0:0:
270,180,172988,1,2,0:0:0:0:
199,75,173140,2,0,B|176:55|176:55|162:95|190:139,1,106.875,0|0,3:0|0:0,0:0:0:0:
344,125,173444,1,10,0:0:0:0:
251,0,173597,1,0,3:0:0:0:
81,102,173749,2,0,B|14:83|14:83|36:74|55:82,1,106.875,4|0,3:0|0:0,0:0:0:0:
113,188,174054,1,4,3:0:0:0:
113,188,174358,6,0,B|76:198|74:230|74:230|99:389,1,213.75,6|4,3:2|3:0,0:0:0:0:
181,306,174815,1,0,0:0:0:0:
358,363,174967,2,0,B|291:373|291:373|261:348,1,106.875,4|0,3:0|0:0,0:0:0:0:
206,213,175272,1,10,0:0:0:0:
402,279,175424,1,0,0:0:0:0:
352,202,175576,2,0,B|348:186|354:169|354:169|319:189|323:239,1,106.875,4|0,3:0|0:0,0:0:0:0:
453,355,175881,2,0,B|456:370|450:387|450:387|485:367|481:317,1,106.875,4|0,3:0|0:0,0:0:0:0:
447,193,176185,6,0,B|405:114|460:50|460:50|507:109,1,213.75,4|0,3:2|3:0,0:0:0:0:
299,16,176642,2,0,B|315:43|352:46|352:46|197:77,1,213.75,2|0,0:0|0:0,0:0:0:0:
29,59,177099,2,0,B|55:29|55:29|131:39,1,106.875,10|0,0:0|0:0,0:0:0:0:
156,165,177404,2,0,B|130:135|130:135|54:145,1,106.875,4|0,3:0|0:0,0:0:0:0:
204,243,177708,1,4,3:0:0:0:
204,243,178013,6,0,B|270:183|355:208|355:208|320:206|299:240,1,213.75,6|4,3:2|3:0,0:0:0:0:
273,313,178470,1,0,0:0:0:0:
99,308,178622,2,0,B|98:334|118:344|118:344|182:337,1,106.875,4|0,3:0|0:0,0:0:0:0:
354,359,178953,2,0,B|494:365|494:365|468:360|450:329,1,188.100005740357,10|4,0:0|3:0,0:0:0:0:
439,245,179450,1,0,3:0:0:0:
512,181,179616,2,0,B|526:155|512:128|512:128|512:152|491:169,1,94.0500028701783,0|4,0:0|3:0,0:0:0:0:
368,175,179956,6,0,L|188:153,1,171,4|0,3:2|3:0,0:0:0:0:
198,154,180665,1,0,3:0:0:0:
128,105,181037,2,0,P|155:29|206:87,1,171,10|0,0:0|3:0,0:0:0:0:
207,67,181802,1,0,3:0:0:0:
121,192,182194,6,0,P|74:232|84:311,2,136.8,0|0|0,3:0|3:0|3:0,0:0:0:0:
121,192,183462,1,0,3:0:0:0:
142,265,183913,2,0,P|216:276|259:297,1,102.599996868897,10|0,0:0|3:0,0:0:0:0:
241,287,184840,2,0,P|283:284|323:274,1,68.4,0|0,3:0|3:0,0:0:0:0:
351,216,185792,5,6,3:2:0:0:
256,192,185924,12,0,193910,0:0:0:0:
