osu file format v14

[General]
AudioFilename: audio.mp3
AudioLeadIn: 0
PreviewTime: 152
Countdown: 0
SampleSet: Soft
StackLeniency: 0.6
Mode: 0
LetterboxInBreaks: 0
WidescreenStoryboard: 1

[Editor]
Bookmarks: 21597,38192,58618,77767,114856
DistanceSpacing: 1
BeatDivisor: 4
GridSize: 32
TimelineZoom: 2.991411

[Metadata]
Title:45 Minutes from "Somewhere Out There"
TitleUnicode:45 Minutes from "Somewhere Out There"
Artist:The Brave Little Abacus
ArtistUnicode:The Brave Little Abacus
Creator:zglock
Version:Hard
Source:
Tags:okumay an american tail english midwest emo math rock bla
BeatmapID:3409480
BeatmapSetID:1640108

[Difficulty]
HPDrainRate:3.6
CircleSize:3.7
OverallDifficulty:6.2
ApproachRate:8
SliderMultiplier:1.44
SliderTickRate:1

[Events]
//Background and Video events
0,0,"aa.png",0,0
//Break Periods
2,116750,135636
//Storyboard Layer 0 (Background)
//Storyboard Layer 1 (Fail)
//Storyboard Layer 2 (Pass)
//Storyboard Layer 3 (Foreground)
//Storyboard Layer 4 (Overlay)
//Storyboard Sound Samples

[TimingPoints]
215,319.148936170213,4,2,1,50,1,0
534,-100,4,2,1,70,0,0
693,319.148936170213,4,2,1,70,1,0
21597,319.148936170213,4,2,1,65,1,0
21597,-90.9090909090909,4,2,1,65,0,0
35799,319.148936170213,4,2,1,75,1,0
35799,-90.9090909090909,4,2,1,75,0,0
38192,-95.2380952380952,4,2,1,75,0,0
58618,-111.111111111111,4,2,1,60,0,0
77767,-86.9565217391304,4,2,1,80,0,1
103458,-83.3333333333333,4,2,1,85,0,1
109203,346.820809248555,4,2,1,85,1,1
109203,-83.3333333333333,4,2,1,85,0,1
109549,-83.3333333333333,4,2,1,85,0,1
110243,370.370370370371,4,2,1,85,1,1
110243,-83.3333333333333,4,2,1,85,0,1
110613,-90.9090909090909,4,2,1,85,0,1
110983,392.156862745098,4,2,1,80,1,1
110983,-90.9090909090909,4,2,1,80,0,1
111375,-100,4,2,1,75,0,1
111767,410.958904109589,4,2,1,75,1,1
112177,416.666666666667,4,2,1,75,1,1
112593,424.028268551237,4,2,1,70,1,1
113017,451.127819548873,4,2,1,70,1,1
113919,468.750000000001,4,2,1,65,1,1
113919,-111.111111111111,4,2,1,65,0,1
114856,491.803278688525,4,2,1,70,1,0
115347,447.761194029851,4,2,1,50,1,0
115794,465.116279069767,4,2,1,50,1,0
116259,491.803278688524,4,2,1,50,1,0
117242,493.827160493827,4,2,1,50,1,0
117735,478.08764940239,4,2,1,50,1,0
118213,431.654676258992,4,2,1,50,1,0
118644,468.75,4,2,1,50,1,0
120050,482.897384305835,4,2,1,50,1,0
121015,444.444444444444,4,2,1,50,1,0
121459,466.92607003891,4,2,1,50,1,0
121925,474.308300395256,4,2,1,50,1,0
123347,465.116279069767,4,2,1,50,1,0
123812,458.015267175572,4,2,1,50,1,0
124270,483.870967741935,4,2,1,50,1,0
124753,497.925311203319,4,2,1,50,1,0
125250,477.137176938369,4,2,1,50,1,0
126204,472.440944881889,4,2,1,50,1,0
126676,466.019417475728,4,2,1,50,1,0
127608,456.273764258555,4,2,1,50,1,0
128520,461.538461538461,4,2,1,50,1,0
128981,483.870967741935,4,2,1,50,1,0
129464,475.247524752475,4,2,1,50,1,0
130414,480,4,2,1,50,1,0
131374,502.092050209205,4,2,1,50,1,0
131876,444.444444444444,4,2,1,50,1,0
132764,470.588235294117,4,2,1,50,1,0
133705,478.08764940239,4,2,1,50,1,0
134661,487.80487804878,4,2,1,50,1,0
135636,477.137176938369,4,2,1,50,1,0
137067,451.127819548872,4,2,1,40,1,0
137518,470.588235294117,4,2,1,40,1,0
137518,-133.333333333333,4,2,1,40,0,0
139400,469.976344523992,4,2,1,40,1,0
139400,-117.647058823529,4,2,1,40,0,0
140339,-117.647058823529,4,2,1,50,0,0
141279,329.67032967033,3,2,1,50,1,0
141279,-166.666666666667,3,2,1,50,0,0
141608,337.078651685394,3,2,1,50,1,0
141608,-166.666666666667,3,2,1,50,0,0
142282,329.67032967033,3,2,1,50,1,0
142282,-166.666666666667,3,2,1,50,0,0
142611,319.148936170213,3,2,1,50,1,0
142611,-166.666666666667,3,2,1,50,0,0
143887,310.880829015544,3,2,1,50,1,0
143887,-166.666666666667,3,2,1,50,0,0
144508,306.122448979592,3,2,1,50,1,0
144508,-166.666666666667,3,2,1,50,0,0
145120,304.568527918782,3,2,1,75,1,0
148774,-100,3,2,1,70,0,0
166135,-100,3,2,1,75,0,0
166439,-100,3,2,1,80,0,0
166744,-100,3,2,1,85,0,0
167048,-86.9565217391304,3,2,1,90,0,1
178622,331.491712707183,3,2,1,90,1,1
178622,-86.9565217391304,3,2,1,90,0,1
178953,-90.9090909090909,3,2,1,85,0,1
179616,340.909090909091,3,2,1,85,1,1
179616,-90.9090909090909,3,2,1,85,0,1
179956,-100,3,2,1,80,0,0
180297,368.098159509203,3,2,1,80,1,0
180665,372.670807453417,3,2,1,80,1,0
181037,-111.111111111111,3,2,1,75,0,0
181410,392.156862745098,3,2,1,75,1,0
182194,413.793103448276,3,2,1,70,1,0
183021,441.176470588236,3,2,1,70,1,0
183462,451.127819548872,3,2,1,70,1,0
183913,444.444444444445,3,2,1,65,1,0
184357,483.870967741936,3,2,1,60,1,0
185324,468.750000000001,3,2,1,60,1,0
185792,530.973451327433,4,2,1,60,1,0
186853,512.820512820512,4,2,1,60,1,0
188391,495.867768595041,4,2,1,55,1,0
189382,465.116279069767,4,2,1,50,1,0
189847,512.820512820512,4,2,1,45,1,0
190872,508.474576271186,4,2,1,40,1,0
193910,483.870967741935,4,2,1,35,1,0
194877,517.241379310344,4,2,1,35,1,0
195911,512.820512820512,4,2,1,30,1,0
196936,530.973451327433,4,2,1,30,1,0
197997,526.315789473683,4,2,1,30,1,0
199049,504.201680672268,4,2,1,30,1,0
200057,526.315789473683,4,2,1,30,1,0
201109,476.190476190475,4,2,1,30,1,0
201585,535.714285714285,4,2,1,30,1,0
203727,508.474576271185,4,2,1,30,1,0
204235,540.540540540539,4,2,1,30,1,0
205856,517.241379310344,4,2,1,30,1,0
206373,540.540540540539,4,2,1,30,1,0
206913,516.129032258064,4,2,1,30,1,0
207429,495.86776859504,4,2,1,30,1,0
208916,512.820512820512,4,2,1,30,1,0
210454,512.820512820512,4,2,1,30,1,0
211479,504.201680672268,4,2,1,30,1,0
212487,526.315789473683,4,2,1,30,1,0
213013,599.999999999999,4,2,1,30,1,0
213613,512.820512820512,4,2,1,30,1,0
214125,447.76119402985,4,2,1,30,1,0
214572,508.474576271186,4,2,1,30,1,0
215080,560.747663551401,4,2,1,30,1,0
215640,582.524271844659,4,2,1,30,1,0
216805,607.59493670886,4,2,1,30,1,0
221665,512.820512820512,4,2,1,30,1,0
222177,483.870967741935,4,2,1,30,1,0
223144,535.714285714285,4,2,1,30,1,0
223679,513.91862955032,4,2,1,30,1,0
227790,517.241379310344,4,2,1,30,1,0
229341,468.749999999999,4,2,1,30,1,0
229809,521.739130434782,4,2,1,30,1,0
230852,495.867768595041,4,2,1,30,1,0
231843,512.820512820512,4,2,1,30,1,0
232868,495.867768595041,4,2,1,30,1,0
233859,508.474576271186,4,2,1,30,1,0
234875,495.867768595041,4,2,1,30,1,0
235866,501.043841336116,4,2,1,30,1,0
237870,480,4,2,1,30,1,0
238830,521.739130434782,4,2,1,30,1,0
239873,495.867768595041,4,2,1,30,1,0
240864,480,4,2,1,30,1,0
241824,512.820512820512,4,2,1,30,1,0
244900,480,4,2,1,30,1,0
245860,526.315789473684,4,2,1,30,1,0
247438,491.803278688524,4,2,1,30,1,0
248421,500,4,2,1,30,1,0
248921,530.973451327433,4,2,1,30,1,0
249982,511.727078891258,4,2,1,30,1,0
251005,497.925311203319,4,2,1,30,1,0
252000,504.201680672268,4,2,1,30,1,0
252504,520.607375271149,4,2,1,30,1,0
253545,515.463917525773,4,2,1,30,1,0
254060,506.329113924051,4,2,1,30,1,0

[Colours]
Combo1 : 167,220,215
Combo2 : 249,255,128
Combo3 : 163,243,160
Combo4 : 255,192,130

[HitObjects]
187,354,215,5,0,0:0:0:0:
318,293,534,6,0,P|329:231|339:142,1,144,6|0,3:2|3:0,0:0:0:0:
283,90,1012,2,0,P|251:109|198:121,1,72,8|0,0:0|3:0,0:0:0:0:
163,60,1331,2,0,P|131:40|78:29,2,72,0|0|8,3:0|3:0|0:0,0:0:0:0:
95,124,1810,2,0,P|35:181|42:258,1,144,2|0,3:2|3:0,0:0:0:0:
90,295,2288,2,0,L|164:289,1,72,8|0,0:0|3:0,0:0:0:0:
229,245,2607,1,0,3:0:0:0:
284,307,2767,2,0,L|278:350,3,36,8|8|8|8,0:0|0:0|0:0|0:0,0:0:0:0:
314,368,3086,6,0,P|370:352|470:349,2,144,4|2|10,3:2|3:2|0:2,0:0:0:0:
161,289,4044,1,0,3:0:0:0:
161,289,4203,1,0,3:0:0:0:
107,219,4363,2,0,P|94:184|88:138,1,72,8|0,0:0|3:0,0:0:0:0:
149,96,4682,2,0,P|161:61|167:15,1,72,0|0,3:0|3:0,0:0:0:0:
91,0,5001,1,8,0:0:0:0:
26,54,5161,2,0,L|8:144,1,72,0|0,0:0|3:0,0:0:0:0:
177,172,5639,6,0,L|259:156,1,72,2|8,3:2|0:0,0:0:0:0:
299,95,5958,1,0,3:0:0:0:
363,148,6118,2,0,B|337:220|385:215|356:299,1,144,0|8,3:0|0:0,0:0:0:0:
418,345,6597,1,10,0:0:0:0:
490,304,6756,1,10,0:0:0:0:
455,219,6916,6,0,L|466:72,1,144,4|2,3:2|3:2,0:0:0:0:
413,13,7395,1,2,3:2:0:0:
352,67,7554,2,0,P|301:76|274:76,1,72,10|0,0:0|0:0,0:0:0:0:
214,32,7873,1,0,3:0:0:0:
155,89,8033,2,0,L|148:160,1,72,0|8,3:0|0:0,0:0:0:0:
213,210,8352,2,0,L|220:281,2,72,0|0|0,3:0|3:0|3:0,0:0:0:0:
277,161,8831,1,8,0:0:0:0:
414,264,9150,1,0,3:0:0:0:
267,349,9469,6,0,P|214:364|142:308,1,144,2|0,3:2|3:0,0:0:0:0:
50,331,9948,2,0,P|68:289|97:176,1,144,0|0,3:0|0:0,0:0:0:0:
55,123,10427,1,10,0:0:0:0:
93,49,10586,1,2,3:2:0:0:
93,49,10746,1,6,3:2:0:0:
153,120,10905,6,0,P|216:86|302:85,1,144,10|2,0:0|3:2,0:0:0:0:
333,148,11384,1,10,0:0:0:0:
403,105,11544,2,0,L|483:95,2,72,0|0|0,0:0|3:0|3:0,0:0:0:0:
410,194,12022,2,0,P|442:258|442:330,1,144,8|0,0:0|3:0,0:0:0:0:
368,360,12501,2,0,P|334:341|298:327,1,72,0|8,3:0|0:0,0:0:0:0:
225,352,12820,1,0,0:0:0:0:
179,283,12980,1,0,3:0:0:0:
285,159,13299,6,0,L|297:12,1,144,2|0,3:2|3:0,0:0:0:0:
217,0,13778,1,0,3:0:0:0:
162,62,13937,2,0,L|154:156,1,72,8|0,0:0|0:0,0:0:0:0:
98,191,14256,1,2,3:2:0:0:
98,191,14416,1,2,3:2:0:0:
181,222,14575,2,0,P|250:246|320:282,1,144,10|2,0:0|3:2,0:0:0:0:
383,241,15054,2,0,P|417:238|476:225,1,72,2|10,3:2|0:2,0:0:0:0:
498,165,15373,2,0,P|495:130|482:72,2,72,2|2|2,0:0|3:2|3:2,0:0:0:0:
411,69,15852,5,14,3:2:0:0:
333,105,16012,2,0,P|296:94|261:89,1,72,10|2,0:0|3:2,0:0:0:0:
198,136,16331,2,0,P|161:146|126:152,1,72,2|10,3:2|0:0,0:0:0:0:
58,108,16650,2,0,L|50:31,2,72,0|0|0,0:0|3:0|3:0,0:0:0:0:
10,179,17129,2,0,P|38:215|71:321,1,144,8|0,0:0|3:0,0:0:0:0:
137,350,17607,2,0,P|182:364|210:353,1,72,0|8,3:0|0:0,0:0:0:0:
268,308,17927,1,2,0:0:0:0:
229,235,18086,1,2,3:2:0:0:
333,105,18405,1,2,3:2:0:0:
391,161,18565,6,0,P|381:219|380:278,2,108,2|0|0,3:2|3:0|3:0,0:0:0:0:
463,117,19203,1,12,0:0:0:0:
405,60,19363,1,0,3:0:0:0:
405,60,19522,2,0,L|391:-20,1,72,0|0,3:0|3:0,0:0:0:0:
333,105,19841,1,12,0:0:0:0:
267,58,20001,1,0,3:0:0:0:
267,58,20161,2,0,L|187:72,1,72,0|0,3:0|3:0,0:0:0:0:
154,138,20480,5,12,0:0:0:0:
215,194,20639,1,0,3:0:0:0:
215,194,20799,2,0,P|225:236|221:277,1,72,0|0,3:0|3:0,0:0:0:0:
174,328,21118,1,12,0:0:0:0:
99,293,21278,1,8,0:0:0:0:
38,349,21437,1,8,0:0:0:0:
13,256,21597,6,0,P|-5:174|20:90,1,158.400004833985,4|2,3:0|3:2,0:0:0:0:
31,99,21995,1,0,3:0:0:0:
50,94,22075,2,0,L|147:108,1,79.2000024169923,10|2,0:2|3:2,0:0:0:0:
202,49,22394,1,10,0:2:0:0:
202,49,22554,1,2,3:2:0:0:
269,115,22714,1,10,0:2:0:0:
338,43,22873,6,0,P|398:13|493:34,1,158.400004833985,8|4,0:0|3:0,0:0:0:0:
512,114,23352,1,4,3:0:0:0:
445,174,23511,1,6,3:2:0:0:
499,356,23831,1,0,0:0:0:0:
314,311,24150,6,0,B|231:300|258:366|159:352,1,158.400004833985,12|0,3:2|3:0,0:0:0:0:
112,289,24628,1,0,3:0:0:0:
178,228,24788,1,14,0:0:0:0:
117,163,24948,1,2,0:0:0:0:
117,163,25027,1,8,0:0:0:0:
117,163,25107,2,0,L|114:110,3,39.6000012084961,8|8|8|8,0:0|0:0|0:0|0:0,0:0:0:0:
83,93,25426,6,0,P|31:110|20:136,1,79.2000024169923,4|0,3:2|3:0,0:0:0:0:
112,289,25905,1,2,0:0:0:0:
271,198,26224,1,8,0:0:0:0:
271,198,26384,1,8,0:0:0:0:
341,248,26543,1,8,0:0:0:0:
433,200,26703,6,0,P|429:150|453:33,1,158.400004833985,4|2,3:0|3:2,0:0:0:0:
433,31,27102,1,0,3:2:0:0:
417,19,27182,2,0,L|338:6,1,79.2000024169923,10|2,0:2|3:2,0:0:0:0:
268,62,27501,1,10,0:2:0:0:
268,62,27660,1,2,3:2:0:0:
184,33,27820,1,10,0:2:0:0:
99,85,27979,6,0,P|88:168|87:268,1,158.400004833985,8|4,0:0|3:0,0:0:0:0:
157,299,28458,1,4,3:0:0:0:
220,231,28618,1,6,3:2:0:0:
370,318,28937,1,0,0:0:0:0:
214,363,29256,6,0,P|152:343|38:324,1,158.400004833985,12|0,3:2|3:0,0:0:0:0:
6,253,29735,1,0,3:0:0:0:
59,178,29894,1,14,0:0:0:0:
11,103,30054,1,8,0:0:0:0:
11,103,30134,1,8,0:0:0:0:
11,103,30214,2,0,L|4:52,3,39.6000012084961,2|0|0|0,0:0|3:0|3:0|3:0,0:0:0:0:
38,34,30533,6,0,P|76:19|117:23,1,79.2000024169923,4|0,3:2|3:0,0:0:0:0:
218,161,31011,1,2,0:0:0:0:
95,285,31331,1,8,0:0:0:0:
95,285,31490,1,8,0:0:0:0:
161,346,31650,1,8,0:0:0:0:
237,280,31809,6,0,B|330:257|308:332|406:303,1,158.400004833985,4|2,3:0|3:2,0:0:0:0:
402,295,32208,1,0,3:2:0:0:
417,283,32288,2,0,P|422:236|431:202,1,79.2000024169923,10|2,0:2|3:2,0:0:0:0:
490,140,32607,1,10,0:2:0:0:
490,140,32767,1,2,3:2:0:0:
443,56,32926,1,10,0:2:0:0:
366,126,33086,6,0,L|204:132,1,158.400004833985,8|4,0:0|3:0,0:0:0:0:
139,75,33565,1,4,3:0:0:0:
212,22,33724,1,6,3:2:0:0:
121,170,34043,1,0,0:0:0:0:
7,19,34362,6,0,P|23:82|28:190,1,158.400004833985,12|0,3:2|3:0,0:0:0:0:
78,252,34841,1,0,3:0:0:0:
19,323,35001,1,14,0:0:0:0:
105,380,35160,1,8,0:0:0:0:
105,380,35240,1,8,0:0:0:0:
105,380,35320,2,0,L|157:361,3,39.6000012084961,8|8|8|8,0:0|0:0|0:0|0:0,0:0:0:0:
161,327,35639,1,4,3:2:0:0:
249,366,35799,6,0,P|286:352|332:352,1,79.2000024169923,8|0,3:2|3:0,0:0:0:0:
386,283,36118,2,0,P|423:297|469:297,1,79.2000024169923,8|0,3:2|3:0,0:0:0:0:
405,191,36437,2,0,P|365:192|328:206,1,79.2000024169923,8|0,3:2|3:0,0:0:0:0:
268,138,36756,2,0,P|228:136|191:122,1,79.2000024169923,8|0,3:2|3:0,0:0:0:0:
150,42,37075,5,8,3:2:0:0:
150,42,37235,1,0,3:0:0:0:
232,0,37394,1,8,3:2:0:0:
232,0,37554,1,0,3:0:0:0:
309,55,37713,2,0,L|397:69,2,79.2000024169923,8|0|8,3:2|3:0|3:2,0:0:0:0:
470,42,38192,6,0,B|493:127|428:101|448:202,1,151.199995385742,12|0,3:2|3:0,0:0:0:0:
416,268,38671,2,0,L|433:352,1,75.5999976928712,8|0,0:0|3:0,0:0:0:0:
348,368,38990,2,0,P|301:356|273:353,2,75.5999976928712,0|2|10,3:0|3:2|0:0,0:0:0:0:
334,278,39469,2,0,P|309:193|306:116,1,151.199995385742,2|0,3:2|3:0,0:0:0:0:
348,56,39947,1,8,0:0:0:0:
348,56,40107,1,0,3:0:0:0:
265,28,40267,2,0,P|226:20|188:20,1,75.5999976928712,0|0,3:0|3:0,0:0:0:0:
136,87,40586,1,8,0:0:0:0:
204,147,40745,5,2,3:2:0:0:
204,147,40905,2,0,P|206:190|204:228,2,75.5999976928712,2|2|10,3:2|3:2|0:2,0:0:0:0:
121,186,41384,2,0,P|63:199|-2:264,1,151.199995385742,2|2,3:2|3:2,0:0:0:0:
40,337,41862,1,10,0:2:0:0:
120,308,42022,2,0,P|235:319|299:336,1,151.199995385742,2|2,3:2|3:2,0:0:0:0:
341,378,42501,1,10,0:2:0:0:
396,312,42660,2,0,P|400:274|403:227,1,75.5999976928712,2|0,3:2|3:0,0:0:0:0:
409,146,42979,2,0,P|340:172|313:240,1,151.199995385742,14|8,0:0|0:0,0:0:0:0:
241,181,43458,6,0,P|199:167|158:159,2,75.5999976928712,6|2|10,3:2|3:2|0:2,0:0:0:0:
284,103,43937,2,0,L|297:20,1,75.5999976928712,2|0,3:2|3:0,0:0:0:0:
377,1,44256,2,0,P|416:1|472:89,1,151.199995385742,2|2,3:2|3:2,0:0:0:0:
409,146,44735,1,2,3:2:0:0:
479,200,44894,2,0,P|490:252|491:285,1,75.5999976928712,2|10,3:2|0:0,0:0:0:0:
453,351,45213,2,0,P|402:334|297:318,1,151.199995385742,2|2,3:2|3:2,0:0:0:0:
238,368,45692,1,10,0:0:0:0:
166,317,45852,6,0,L|150:134,1,151.199995385742,2|2,3:2|3:2,0:0:0:0:
141,80,46330,1,2,0:0:0:0:
103,4,46490,2,0,P|40:42|62:107,1,151.199995385742,8|0,0:2|3:0,0:0:0:0:
22,185,46969,2,0,P|35:230|39:264,1,75.5999976928712,2|0,0:0|3:0,0:0:0:0:
2,339,47288,1,2,3:2:0:0:
2,339,47447,1,2,3:2:0:0:
83,370,47607,2,0,L|164:354,1,75.5999976928712,10|2,0:2|3:2,0:0:0:0:
217,293,47926,2,0,L|291:307,2,75.5999976928712,10|2|2,0:2|3:2|3:2,0:0:0:0:
144,227,48405,6,0,B|131:142|196:173|177:82,1,151.199995385742,12|0,3:2|3:0,0:0:0:0:
191,1,48884,2,0,P|229:16|253:44,1,75.5999976928712,8|0,0:0|3:0,0:0:0:0:
266,127,49203,1,0,3:0:0:0:
333,70,49362,2,0,P|362:60|410:60,2,75.5999976928712,2|10|2,3:2|0:0|3:2,0:0:0:0:
382,144,49841,2,0,L|370:300,1,151.199995385742,2|8,3:2|0:0,0:0:0:0:
432,355,50320,1,0,3:0:0:0:
500,301,50479,2,0,L|506:214,1,75.5999976928712,0|0,3:0|3:0,0:0:0:0:
512,139,50799,1,8,0:0:0:0:
469,57,50958,6,0,P|378:21|324:21,1,151.199995385742,2|2,3:2|3:2,0:0:0:0:
267,84,51437,1,2,0:0:0:0:
196,32,51596,2,0,L|108:20,1,75.5999976928712,10|0,0:0|0:0,0:0:0:0:
56,77,51916,1,2,3:2:0:0:
124,129,52075,2,0,L|198:139,1,75.5999976928712,2|2,0:0|3:2,0:0:0:0:
257,210,52394,1,2,3:2:0:0:
257,210,52554,1,2,3:2:0:0:
186,263,52713,2,0,P|169:304|155:356,1,75.5999976928712,10|2,0:2|3:2,0:0:0:0:
231,383,53033,2,0,L|316:371,2,75.5999976928712,10|2|2,0:2|3:2|3:2,0:0:0:0:
320,280,53511,6,0,P|365:304|482:336,1,151.199995385742,14|2,3:2|3:2,0:0:0:0:
512,263,53990,1,10,0:0:0:0:
444,210,54150,2,0,L|431:37,1,151.199995385742,2|0,3:2|3:0,0:0:0:0:
360,14,54628,2,0,P|323:48|289:64,1,75.5999976928712,10|0,0:0|3:0,0:0:0:0:
223,22,54947,1,0,3:0:0:0:
168,88,55107,2,0,L|157:164,1,75.5999976928712,2|10,3:2|0:0,0:0:0:0:
96,224,55426,2,0,L|107:300,1,75.5999976928712,2|0,3:2|3:0,0:0:0:0:
27,334,55745,2,0,L|1:158,1,151.199995385742,2|2,3:2|3:2,0:0:0:0:
56,112,56224,5,6,3:0:0:0:
56,112,56384,1,10,0:0:0:0:
2,40,56543,2,0,P|50:24|83:27,1,75.5999976928712,6|6,3:0|3:0,0:0:0:0:
147,82,56862,1,10,0:2:0:0:
222,27,57022,1,4,3:0:0:0:
293,85,57181,2,0,L|304:168,1,75.5999976928712,10|4,0:2|3:0,0:0:0:0:
377,212,57501,5,6,3:2:0:0:
293,249,57660,2,0,P|273:288|265:329,1,75.5999976928712,4|14,3:0|0:0,0:0:0:0:
344,365,57979,2,0,P|380:354|417:353,1,75.5999976928712,4|10,3:0|0:0,0:0:0:0:
454,271,58299,1,2,3:2:0:0:
454,271,58458,1,2,3:2:0:0:
377,212,58618,6,0,P|385:147|403:85,1,129.599996044922,14|0,3:2|3:0,0:0:0:0:
485,67,59096,2,0,P|472:38|450:15,1,64.799998022461,8|0,0:0|3:0,0:0:0:0:
371,11,59416,2,0,L|295:13,2,64.799998022461,0|0|8,3:0|3:0|0:0,0:0:0:0:
317,93,59894,2,0,P|276:115|188:177,1,129.599996044922,2|0,3:2|3:0,0:0:0:0:
182,238,60373,2,0,P|144:210|131:187,1,64.799998022461,8|0,0:0|3:0,0:0:0:0:
142,116,60692,1,0,3:0:0:0:
83,59,60852,2,0,L|44:52,3,32.3999990112305,8|8|8|8,0:0|0:0|0:0|0:0,0:0:0:0:
25,82,61171,1,12,3:2:0:0:
46,171,61330,6,0,P|57:221|67:309,1,129.599996044922,10|2,0:0|3:2,0:0:0:0:
122,356,61809,1,10,0:0:0:0:
197,323,61969,2,0,L|275:310,2,64.799998022461,0|0|0,0:0|3:0|3:0,0:0:0:0:
146,257,62447,2,0,P|160:160|172:108,1,129.599996044922,8|0,0:0|3:0,0:0:0:0:
200,55,62926,2,0,P|233:78|242:119,1,64.799998022461,0|8,3:0|0:0,0:0:0:0:
275,173,63245,1,0,0:0:0:0:
347,132,63405,1,0,3:0:0:0:
472,244,63724,6,0,P|455:305|449:387,1,129.599996044922,2|0,3:2|3:0,0:0:0:0:
371,321,64203,1,0,3:0:0:0:
301,364,64362,1,0,3:0:0:0:
301,364,64442,1,0,3:0:0:0:
301,364,64522,2,0,L|224:355,1,64.799998022461,4|6,3:0|3:0,0:0:0:0:
158,339,64841,1,6,3:0:0:0:
218,267,65001,1,14,3:2:0:0:
153,216,65160,6,0,P|145:150|148:72,1,129.599996044922,10|2,0:0|3:2,0:0:0:0:
204,32,65639,1,10,0:0:0:0:
274,75,65799,2,0,L|345:81,2,64.799998022461,0|0|0,0:0|3:0|3:0,0:0:0:0:
233,152,66277,2,0,L|362:162,1,129.599996044922,8|0,0:0|3:0,0:0:0:0:
437,190,66756,2,0,P|447:229|448:264,1,64.799998022461,0|8,3:0|0:0,0:0:0:0:
405,320,67075,1,0,0:0:0:0:
326,291,67235,1,0,3:0:0:0:
178,372,67554,6,0,P|93:357|39:353,1,129.599996044922,2|2,3:2|3:2,0:0:0:0:
18,280,68033,2,0,L|9:138,1,129.599996044922,2|0,3:2|0:0,0:0:0:0:
49,68,68511,1,10,0:2:0:0:
128,117,68671,1,10,3:2:0:0:
128,117,68830,1,14,3:2:0:0:
190,62,68990,6,0,L|324:45,1,129.599996044922,10|2,0:0|3:2,0:0:0:0:
384,97,69469,1,10,0:0:0:0:
328,159,69628,2,0,P|318:201|320:231,2,64.799998022461,0|0|0,0:0|3:0|3:0,0:0:0:0:
403,208,70107,2,0,P|453:155|504:118,1,129.599996044922,8|0,0:0|3:0,0:0:0:0:
502,43,70586,2,0,P|467:33|433:38,1,64.799998022461,0|8,3:0|0:0,0:0:0:0:
384,97,70905,1,0,0:0:0:0:
334,31,71064,1,0,3:0:0:0:
211,149,71384,6,0,P|194:212|190:289,1,129.599996044922,2|2,3:2|3:2,0:0:0:0:
245,335,71862,1,2,3:2:0:0:
323,309,72022,2,0,L|407:299,1,64.799998022461
467,335,72341,1,2,3:2:0:0:
467,335,72501,1,2,3:2:0:0:
507,250,72660,6,0,P|507:196|513:106,1,129.599996044922,10|2,0:0|3:2,0:0:0:0:
479,40,73139,2,0,P|441:67|428:99,1,64.799998022461,2|10,3:2|0:0,0:0:0:0:
368,146,73458,2,0,P|336:140|295:130,1,64.799998022461,2|2,0:2|3:2,0:0:0:0:
238,69,73777,1,2,3:2:0:0:
155,108,73937,1,14,3:2:0:0:
91,56,74096,6,0,P|45:53|23:132,1,129.599996044922,10|2,0:0|3:2,0:0:0:0:
89,160,74575,1,10,0:0:0:0:
34,221,74735,2,0,P|23:260|21:291,2,64.799998022461,0|0|0,0:0|3:0|3:0,0:0:0:0:
107,270,75213,2,0,P|160:257|251:247,1,129.599996044922,8|0,0:0|3:0,0:0:0:0:
301,199,75692,2,0,P|308:163|299:131,1,64.799998022461,0|8,3:0|0:0,0:0:0:0:
248,73,76011,1,0,0:0:0:0:
303,9,76171,1,0,3:0:0:0:
433,120,76490,5,10,0:0:0:0:
388,187,76650,2,0,L|397:321,1,129.599996044922,2|2,3:2|3:2,0:0:0:0:
234,362,77288,1,8,0:0:0:0:
234,362,77368,1,8,0:0:0:0:
234,362,77447,2,0,L|188:356,2,32.3999990112305,0|0|8,3:0|3:0|0:0,0:0:0:0:
111,366,77767,6,0,P|137:291|214:267,1,165.600003158569,12|0,3:2|3:0,0:0:0:0:
274,199,78245,1,8,0:0:0:0:
198,145,78405,2,0,P|190:111|182:53,1,82.8000015792847,0|0,3:0|3:0,0:0:0:0:
249,0,78724,2,0,L|330:13,1,82.8000015792847,0|8,3:0|0:0,0:0:0:0:
434,46,79043,2,0,P|378:106|378:187,1,165.600003158569,0|0,3:0|3:0,0:0:0:0:
461,227,79522,1,8,0:0:0:0:
385,279,79681,2,0,L|369:367,1,82.8000015792847,0|2,3:0|3:2,0:0:0:0:
281,382,80001,1,2,3:2:0:0:
156,249,80320,6,0,P|114:237|69:235,1,82.8000015792847,4|2,3:2|3:2,0:0:0:0:
12,167,80639,2,0,P|22:106|123:116,1,165.600003158569,2|0,3:2|3:0,0:0:0:0:
183,157,81118,1,2,3:2:0:0:
237,84,81277,1,2,3:2:0:0:
365,212,81596,6,0,P|431:256|507:230,1,165.600003158569,2|0,3:2|3:0,0:0:0:0:
444,164,82075,1,8,0:0:0:0:
444,164,82235,2,0,P|420:69|391:5,1,165.600003158569,0|2,3:0|3:2,0:0:0:0:
302,19,82713,1,8,0:0:0:0:
237,84,82873,1,0,3:0:0:0:
237,84,83033,2,0,P|177:92|148:89,1,82.8000015792847,0|0,3:0|3:0,0:0:0:0:
135,1,83352,2,0,P|87:30|76:136,1,165.600003158569,8|0,0:0|3:0,0:0:0:0:
150,181,83830,5,0,3:0:0:0:
94,253,83990,2,0,P|90:292|84:337,1,82.8000015792847,8|0,0:0|3:0,0:0:0:0:
164,378,84309,1,0,3:0:0:0:
231,316,84469,2,0,P|296:288|396:306,1,165.600003158569,0|0,3:0|3:0,0:0:0:0:
446,370,84947,1,2,3:2:0:0:
476,284,85107,1,2,3:2:0:0:
391,122,85426,1,4,3:2:0:0:
470,169,85586,5,2,3:2:0:0:
390,213,85745,2,0,P|350:207|289:205,1,82.8000015792847,2|8,3:2|0:0,0:0:0:0:
228,159,86064,1,0,3:0:0:0:
161,221,86224,1,2,3:2:0:0:
161,221,86384,2,0,L|148:317,1,82.8000015792847,2|8,3:2|0:0,0:0:0:0:
76,357,86703,1,2,3:2:0:0:
7,298,86862,5,0,3:0:0:0:
7,298,87022,2,0,P|0:247|-1:210,1,82.8000015792847,0|8,3:0|0:0,0:0:0:0:
58,146,87341,2,0,P|65:95|66:58,1,82.8000015792847,0|2,3:0|3:2,0:0:0:0:
138,8,87660,2,0,P|187:-3|231:0,1,82.8000015792847,2|8,3:2|0:0,0:0:0:0:
291,54,87979,1,0,3:0:0:0:
225,117,88139,2,0,L|213:211,1,82.8000015792847,0|0,3:0|3:0,0:0:0:0:
292,246,88458,2,0,P|359:236|425:308,1,165.600003158569,8|0,0:0|3:0,0:0:0:0:
335,326,88937,6,0,P|271:348|242:366,1,82.8000015792847,0|8,3:0|0:0,0:0:0:0:
180,307,89256,2,0,L|93:294,1,82.8000015792847,0|0,3:0|3:0,0:0:0:0:
39,224,89575,2,0,P|27:179|29:132,1,82.8000015792847,0|8,3:0|0:0,0:0:0:0:
84,71,89894,1,0,3:2:0:0:
154,128,90054,1,2,3:2:0:0:
154,128,90213,2,0,P|202:139|240:137,1,82.8000015792847,2|8,3:2|0:0,0:0:0:0:
308,82,90533,5,0,3:0:0:0:
308,82,90692,1,2,3:2:0:0:
386,128,90852,1,2,3:2:0:0:
490,276,91170,1,4,3:2:0:0:
411,320,91330,1,2,3:2:0:0:
411,320,91490,2,0,P|357:305|318:299,1,82.8000015792847,2|8,3:2|0:0,0:0:0:0:
252,347,91809,6,0,P|206:352|173:332,1,82.8000015792847,2|0,3:2|0:0,0:0:0:0:
142,249,92128,2,0,L|157:165,1,82.8000015792847,0|8,3:0|0:0,0:0:0:0:
174,77,92447,2,0,P|122:34|32:75,1,165.600003158569,0|2,3:0|3:2,0:0:0:0:
68,151,92926,1,12,0:0:0:0:
68,151,93086,1,0,3:0:0:0:
9,220,93245,6,0,P|2:259|0:304,1,82.8000015792847,2|2,3:2|3:2,0:0:0:0:
66,365,93564,2,0,P|105:371|150:374,1,82.8000015792847,10|2,0:2|3:2,0:0:0:0:
216,312,93884,1,2,3:2:0:0:
176,230,94043,1,2,3:2:0:0:
240,165,94203,1,10,0:0:0:0:
240,165,94362,1,2,3:2:0:0:
282,245,94522,6,0,B|378:270|350:181|449:206,1,165.600003158569,0|8,3:0|0:0,0:0:0:0:
502,143,95001,1,0,3:0:0:0:
436,88,95160,1,2,3:2:0:0:
436,88,95320,1,2,3:2:0:0:
423,282,95639,1,4,3:2:0:0:
500,340,95799,5,2,3:2:0:0:
411,377,95958,2,0,L|318:370,1,82.8000015792847,2|8,3:2|0:0,0:0:0:0:
238,355,96277,1,0,3:0:0:0:
179,284,96437,1,2,3:2:0:0:
179,284,96596,2,0,P|169:216|170:189,1,82.8000015792847,2|8,3:2|0:0,0:0:0:0:
225,129,96916,1,2,3:2:0:0:
153,72,97075,6,0,L|65:67,1,82.8000015792847,2|2,3:2|3:2,0:0:0:0:
8,134,97394,2,0,P|37:182|46:221,1,82.8000015792847,8|0,0:0|3:0,0:0:0:0:
5,290,97713,1,2,3:2:0:0:
5,290,97873,1,2,3:2:0:0:
41,373,98033,2,0,P|81:359|128:355,1,82.8000015792847,10|2,0:0|3:2,0:0:0:0:
179,284,98352,5,0,3:0:0:0:
179,284,98511,1,0,3:0:0:0:
238,355,98671,2,0,P|351:360|389:318,1,165.600003158569,8|0,0:0|3:0,0:0:0:0:
467,293,99150,1,0,3:0:0:0:
394,238,99309,1,8,0:0:0:0:
444,161,99469,6,0,P|452:122|455:72,1,82.8000015792847,0|0,3:0|0:0,0:0:0:0:
385,20,99788,2,0,P|346:12|296:9,1,82.8000015792847,0|8,3:0|0:0,0:0:0:0:
252,84,100107,1,0,3:0:0:0:
166,53,100267,1,2,3:2:0:0:
166,53,100426,1,2,3:2:0:0:
82,214,100745,1,4,3:2:0:0:
167,181,100905,5,2,3:2:0:0:
237,238,101064,2,0,L|247:336,1,82.8000015792847,2|8,3:2|0:0,0:0:0:0:
163,361,101384,1,0,3:0:0:0:
94,309,101543,1,2,3:2:0:0:
94,309,101703,2,0,P|35:302|11:302,1,82.8000015792847,2|8,3:2|0:0,0:0:0:0:
82,214,102022,1,2,3:2:0:0:
18,148,102181,6,0,L|9:59,1,82.8000015792847,0|0,3:0|3:0,0:0:0:0:
99,44,102501,2,0,L|107:126,1,82.8000015792847,8|0,0:0|3:0,0:0:0:0:
196,174,102820,1,10,0:0:0:0:
196,174,102900,1,8,0:0:0:0:
196,174,102979,1,2,3:2:0:0:
284,150,103139,1,8,0:0:0:0:
335,225,103299,1,0,3:0:0:0:
315,353,103458,6,0,P|233:317|258:239,1,172.799994726563,12|0,0:0|3:0,0:0:0:0:
335,225,103937,2,0,P|426:228|480:299,1,172.799994726563,8|0,0:0|3:0,0:0:0:0:
492,160,104416,2,0,P|468:120|412:-6,1,172.799994726563,12|2,0:0|0:0,0:0:0:0:
347,69,104894,1,8,0:0:0:0:
347,69,104974,1,8,0:0:0:0:
347,69,105054,1,4,3:0:0:0:
264,22,105213,1,4,3:0:0:0:
187,78,105373,5,8,0:0:0:0:
335,225,105692,1,0,3:0:0:0:
133,279,106011,6,0,P|78:225|5:160,1,172.799994726563,12|0,0:0|3:0,0:0:0:0:
86,109,106490,2,0,P|174:120|139:208,1,172.799994726563,8|0,0:0|3:0,0:0:0:0:
224,266,106969,2,0,P|291:327|398:329,1,172.799994726563,12|2,0:0|0:0,0:0:0:0:
424,262,107447,1,8,0:0:0:0:
424,262,107527,1,8,0:0:0:0:
424,262,107607,1,4,3:0:0:0:
335,225,107767,1,4,3:0:0:0:
361,134,107926,5,8,0:0:0:0:
205,24,108245,1,0,3:0:0:0:
394,20,108564,6,0,P|294:69|240:123,1,172.799994726563,12|0,0:0|3:0,0:0:0:0:
178,173,109043,2,0,P|133:149|89:137,1,86.3999973632813,8|0,0:0|3:0,0:0:0:0:
21,194,109376,1,0,3:0:0:0:
99,247,109549,2,0,P|149:283|222:381,1,172.799994726563,12|2,0:0|0:0,0:0:0:0:
303,330,110070,1,8,0:0:0:0:
303,330,110156,1,8,0:0:0:0:
303,330,110243,2,0,L|313:239,1,86.3999973632813,4|4,3:0|3:0,0:0:0:0:
375,184,110613,2,0,P|421:165|455:166,2,79.2000024169923,8|8|0,0:0|0:0|3:0,0:0:0:0:
277,55,111375,6,0,P|339:67|435:77,1,144,12|0,0:0|3:0,0:0:0:0:
468,10,111972,1,8,0:0:0:0:
468,10,112177,2,0,P|492:36|500:70,1,72,0|0,3:0|3:0,0:0:0:0:
466,149,112593,2,0,P|439:205|414:314,1,144,12|2,0:0|0:0,0:0:0:0:
475,347,113242,2,0,L|513:356,2,36,10|8|0,0:0|0:0|3:0,0:0:0:0:
391,367,113693,1,0,3:0:0:0:
339,302,113919,6,0,P|289:290|271:289,1,64.799998022461,14|0,0:0|3:0,0:0:0:0:
217,349,114387,2,0,P|167:361|149:362,1,64.799998022461,2|8,3:2|0:0,0:0:0:0:
93,301,114856,5,4,3:2:0:0:
178,225,137067,5,0,0:0:0:0:
272,269,137518,2,0,B|335:236|387:278|360:298|414:342|477:310,2,216.000008239746,2|2|2,0:3|0:3|0:3,0:0:0:0:
259,175,140339,2,0,P|279:98|351:0,1,183.600003501892,2|0,0:3|0:0,0:0:0:0:
234,0,141279,6,0,P|177:3|149:14,1,86.3999973632813,2|2,0:0|0:0,0:0:0:0:
75,85,141945,2,0,P|49:135|44:165,1,86.3999973632813,2|2,0:0|0:0,0:0:0:0:
69,265,142611,2,0,P|100:312|123:331,1,86.3999973632813,2|2,0:0|0:0,0:0:0:0:
222,360,143249,2,0,P|278:356|307:346,1,86.3999973632813,2|2,0:0|0:0,0:0:0:0:
380,275,143887,2,0,P|405:224|410:194,1,86.3999973632813,2|2,0:0|0:0,0:0:0:0:
385,95,144508,1,0,0:0:0:0:
385,95,144661,2,0,L|398:45,2,43.1999986816407,8|4|0,0:0|3:3|3:0,0:0:0:0:
324,164,145120,6,0,P|277:183|240:183,2,72,4|0|0,3:0|3:0|3:0,0:0:0:0:
266,93,145576,1,2,3:2:0:0:
180,131,145729,2,0,L|100:113,1,72,10|2,3:2|3:2,0:0:0:0:
27,71,146033,2,0,L|22:-11,2,72,4|0|0,3:0|3:0|3:0,0:0:0:0:
1,161,146490,1,2,3:2:0:0:
83,205,146642,2,0,P|91:234|93:281,1,72,10|2,3:2|3:2,0:0:0:0:
67,366,146947,6,0,P|28:346|-2:336,2,72,4|0|8,3:0|3:0|3:2,0:0:0:0:
158,342,147404,1,2,3:2:0:0:
241,383,147556,2,0,P|249:329|240:301,1,72,2|0,3:2|3:0,0:0:0:0:
236,297,147784,1,0,3:0:0:0:
227,280,147861,5,12,3:2:0:0:
270,175,148013,1,12,3:2:0:0:
440,252,148318,5,12,3:2:0:0:
483,357,148470,1,12,3:2:0:0:
347,232,148774,6,0,B|378:136|378:136|427:114,1,144,6|0,3:2|3:0,0:0:0:0:
496,82,149231,1,10,0:0:0:0:
424,33,149383,2,0,B|403:23|403:23|388:47|356:49,1,72,0|4,3:0|3:0,0:0:0:0:
276,46,149688,2,0,B|269:77|287:99|287:99|253:201,1,144,2|0,3:2|3:0,0:0:0:0:
225,262,150145,1,8,0:0:0:0:
175,191,150297,2,0,B|153:174|128:178|128:178|141:184|151:198,1,72,6|0,3:0|0:0,0:0:0:0:
85,254,150602,6,0,B|38:216|46:160|46:160|20:169|18:196,1,144,6|0,3:2|0:0,0:0:0:0:
12,88,151059,2,0,B|58:64|103:100|103:100|152:72,1,144,2|0,3:2|3:0,0:0:0:0:
209,22,151515,1,10,0:0:0:0:
284,84,151668,1,0,3:0:0:0:
284,84,151744,1,0,3:0:0:0:
284,84,151820,1,8,3:2:0:0:
366,59,151972,1,8,0:0:0:0:
478,194,152277,1,8,3:2:0:0:
419,261,152429,6,0,B|386:234|386:234|367:159|433:123,1,144,6|0,3:2|3:0,0:0:0:0:
486,75,152886,1,8,0:0:0:0:
437,0,153038,1,0,3:0:0:0:
437,0,153191,1,4,3:0:0:0:
366,59,153343,2,0,B|350:77|328:73|328:73|291:20|214:46,1,144,2|0,3:2|3:0,0:0:0:0:
178,102,153800,1,8,0:0:0:0:
216,179,153952,2,0,B|243:168|256:142|256:142|260:170,1,72,4|0,3:0|0:0,0:0:0:0:
233,269,154257,6,0,B|176:274|143:233|143:233|106:254,1,144,6|0,3:2|0:0,0:0:0:0:
33,301,154713,2,0,B|25:355|25:355|44:385,1,72,8|0,3:2|0:0,0:0:0:0:
120,380,155018,1,0,3:0:0:0:
202,356,155170,1,10,0:0:0:0:
295,376,155323,1,0,3:0:0:0:
295,376,155399,1,0,3:0:0:0:
295,376,155475,2,0,B|318:367|345:370|345:370|366:350,1,72,8|8,0:0|0:0,0:0:0:0:
409,286,155779,1,0,3:0:0:0:
409,286,155932,1,0,3:0:0:0:
318,227,156084,6,0,B|291:213|301:182|301:182|332:80,1,144,6|0,3:2|3:0,0:0:0:0:
382,28,156541,1,8,0:0:0:0:
301,0,156693,2,0,B|273:-8|273:-8|248:-9|226:18,1,72,0|4,3:0|3:0,0:0:0:0:
191,80,156998,2,0,B|161:75|138:95|138:95|37:65,1,144,2|0,3:2|0:0,0:0:0:0:
8,144,157455,1,8,0:0:0:0:
80,189,157607,2,0,B|94:244|94:244|77:230,1,72,4|0,3:0|0:0,0:0:0:0:
46,312,157911,6,0,B|99:343|143:310|143:310|147:336|121:352,1,144,6|0,3:2|0:0,0:0:0:0:
219,361,158368,2,0,B|270:370|270:370|299:321|365:334,1,144,0|0,3:0|3:0,0:0:0:0:
423,374,158825,1,10,0:0:0:0:
480,309,158977,1,0,3:0:0:0:
480,309,159054,1,0,3:0:0:0:
480,309,159130,1,8,3:2:0:0:
431,230,159282,1,8,0:0:0:0:
259,253,159587,1,8,3:2:0:0:
194,175,159739,6,0,B|159:132|168:75|168:75|189:86|187:115,1,144,6|0,3:2|3:0,0:0:0:0:
269,130,160196,1,8,0:0:0:0:
330,69,160348,2,0,B|312:46|312:46|269:42,1,72,0|4,3:0|3:0,0:0:0:0:
352,152,160652,2,0,B|377:148|397:166|397:166|498:140,1,144,2|0,3:2|3:0,0:0:0:0:
503,227,161109,1,8,0:0:0:0:
430,274,161262,2,0,B|414:294|414:294|406:316|406:351,1,72,4|0,3:0|0:0,0:0:0:0:
324,365,161566,6,0,B|310:349|284:351|284:351|267:293|201:295,1,144,6|0,3:2|0:0,0:0:0:0:
145,352,162023,2,0,B|119:348|95:360|95:360|66:343,1,72,0|0,3:0|0:0,0:0:0:0:
15,289,162328,1,0,3:0:0:0:
63,217,162480,1,10,0:0:0:0:
15,145,162632,1,0,3:0:0:0:
15,145,162708,1,0,3:0:0:0:
15,145,162784,2,0,B|27:129|21:102|21:102|-2:84,1,72,8|8,0:0|0:0,0:0:0:0:
68,32,163089,1,0,0:0:0:0:
68,32,163241,1,8,3:2:0:0:
126,114,163394,6,0,B|141:132|172:133|172:133|208:90|276:102,1,144,6|0,3:2|3:0,0:0:0:0:
320,154,163850,1,8,0:0:0:0:
246,200,164003,2,0,B|235:246|235:246|243:277,1,72,0|4,3:0|3:0,0:0:0:0:
301,331,164307,2,0,B|315:310|341:312|341:312|450:336,1,144,2|0,3:2|3:0,0:0:0:0:
495,269,164764,2,0,L|505:232,2,36,8|0|4,0:0|0:0|3:0,0:0:0:0:
444,173,165069,1,0,3:0:0:0:
444,173,165145,1,0,3:0:0:0:
444,173,165221,5,14,3:2:0:0:
477,78,165373,2,0,B|488:32|488:32|475:5,1,72,10|4,3:2|3:0,0:0:0:0:
459,7,165602,1,4,3:0:0:0:
441,5,165678,1,14,3:2:0:0:
375,82,165830,2,0,B|357:96|357:96|330:106|293:90,1,72,10|0,3:2|3:0,0:0:0:0:
224,27,166135,5,14,0:0:0:0:
138,92,166287,1,2,3:2:0:0:
225,154,166439,2,0,B|237:180|237:202|237:202|218:219,1,72,14|0,0:0|3:0,0:0:0:0:
129,276,166744,2,0,B|117:302|117:324|117:324|136:341,1,72,14|8,0:0|3:2,0:0:0:0:
269,376,167048,6,0,B|295:386|314:367|314:367|323:226,1,165.600003158569,6|4,3:2|3:0,0:0:0:0:
376,167,167505,1,0,0:0:0:0:
452,230,167658,2,0,B|473:254|473:254|481:281|467:314,1,82.8000015792847,4|0,3:0|0:0,0:0:0:0:
469,133,167962,2,0,B|450:116|445:89|445:89|324:72,1,165.600003158569,10|4,0:0|3:0,0:0:0:0:
237,248,168571,1,4,3:0:0:0:
46,189,168876,6,0,B|40:164|21:151|21:151|27:110|71:81|116:95,1,165.600003158569,4|0,3:2|3:0,0:0:0:0:
148,185,169333,2,0,B|136:211|134:235|134:235|159:359,1,165.600003158569,2|0,0:0|0:0,0:0:0:0:
63,381,169790,1,10,0:0:0:0:
63,381,169942,1,0,0:0:0:0:
3,301,170094,1,4,3:0:0:0:
148,185,170399,1,4,3:0:0:0:
24,30,170703,6,0,B|36:54|63:54|63:54|108:0|209:28,1,165.600003158569,6|4,3:2|3:0,0:0:0:0:
216,107,171160,1,0,0:0:0:0:
291,42,171312,2,0,B|306:29|331:30|331:30|307:42|297:72,1,82.8000015792847,4|0,3:0|0:0,0:0:0:0:
306,157,171617,2,0,B|321:182|309:209|309:209|255:235|268:309,1,165.600003158569,10|4,0:0|3:0,0:0:0:0:
343,367,172074,1,0,3:0:0:0:
407,292,172226,2,0,B|466:270|466:270|454:300,1,82.8000015792847,0|4,0:0|3:0,0:0:0:0:
404,191,172531,6,0,B|421:96|421:96|461:90|482:44,1,165.600003158569,4|0,3:2|3:0,0:0:0:0:
393,0,172988,1,2,0:0:0:0:
329,76,173140,2,0,B|312:98|280:98|280:98|291:82|306:80,1,82.8000015792847,0|0,3:0|0:0,0:0:0:0:
211,22,173444,1,10,0:0:0:0:
211,22,173597,1,0,3:0:0:0:
185,117,173749,1,4,3:0:0:0:
29,240,174054,1,4,3:0:0:0:
94,52,174358,6,0,B|74:75|76:110|76:110|126:219,1,165.600003158569,6|4,3:2|3:0,0:0:0:0:
218,215,174815,1,0,0:0:0:0:
183,308,174967,2,0,B|157:318|127:302|127:302|111:325,1,82.8000015792847,4|0,3:0|0:0,0:0:0:0:
14,339,175272,1,10,0:0:0:0:
29,240,175424,1,0,0:0:0:0:
29,240,175576,2,0,B|29:214|29:214|1:156,1,82.8000015792847,4|0,3:0|0:0,0:0:0:0:
88,109,175881,2,0,B|88:83|88:83|115:65|116:25,1,82.8000015792847,4|0,3:0|0:0,0:0:0:0:
191,122,176185,6,0,B|203:141|229:146|229:146|366:115,1,165.600003158569,4|0,3:2|3:0,0:0:0:0:
391,31,176642,1,2,0:0:0:0:
460,102,176795,2,0,B|478:124|476:157|476:157|458:143|453:127,1,82.8000015792847,0|0,3:0|0:0,0:0:0:0:
493,242,177099,2,0,B|468:253|440:238|440:238|420:264,1,82.8000015792847,10|0,0:0|0:0,0:0:0:0:
371,345,177404,1,4,3:0:0:0:
185,275,177708,1,4,3:0:0:0:
11,371,178013,6,0,B|34:363|40:336|40:336|15:215,1,165.600003158569,6|4,3:2|3:0,0:0:0:0:
52,127,178470,1,0,0:0:0:0:
136,183,178622,2,0,B|145:190|160:185|160:185|181:160|217:163,1,82.8000015792847,4|0,3:0|0:0,0:0:0:0:
312,120,178953,6,0,B|341:83|326:33|326:33|311:76|254:89,1,158.400004833985,10|4,0:0|3:0,0:0:0:0:
190,72,179450,1,0,3:0:0:0:
113,18,179616,2,0,B|62:11|62:11|90:37,1,79.2000024169923,0|4,0:0|3:0,0:0:0:0:
52,127,179956,6,0,B|46:146|30:166|30:166|13:213|35:292,1,144,4|0,3:2|3:0,0:0:0:0:
147,365,180665,1,0,3:0:0:0:
290,315,181037,2,0,B|289:292|303:284|303:284|297:271|297:271|323:234|299:188,1,129.599996044922,10|0,0:0|3:0,0:0:0:0:
195,113,181802,1,0,3:0:0:0:
348,73,182194,6,0,L|503:98,2,144,0|0|0,3:0|3:0|3:0,0:0:0:0:
245,19,183462,1,0,3:0:0:0:
195,113,183913,6,0,P|150:176|173:258,1,144,10|0,0:0|3:0,0:0:0:0:
189,355,184840,2,0,P|118:341|56:306,1,144,0|0,3:0|3:0,0:0:0:0:
64,218,185792,5,6,3:2:0:0:
256,192,185924,12,0,193910,0:0:0:0:
