osu file format v14

[General]
AudioFilename: audio.mp3
AudioLeadIn: 0
PreviewTime: 27131
Countdown: 1
SampleSet: Normal
StackLeniency: 0.7
Mode: 0
LetterboxInBreaks: 0
WidescreenStoryboard: 0

[Editor]
Bookmarks: 41900
DistanceSpacing: 1.9
BeatDivisor: 12
GridSize: 4
TimelineZoom: 1

[Metadata]
Title:Our souls were Clean
TitleUnicode:Our souls were Clean
Artist:The Body
ArtistUnicode:The Body
Creator:Pachiru
Version:America
Source:The Purge: Anarchy
Tags:
BeatmapID:1300478
BeatmapSetID:616676

[Difficulty]
HPDrainRate:6
CircleSize:4
OverallDifficulty:6
ApproachRate:9.3
SliderMultiplier:3.59999990463257
SliderTickRate:1

[Events]
//Background and Video events
0,0,"maxresdefault-26.jpg",0,0
//Break Periods
//Storyboard Layer 0 (Background)
//Storyboard Layer 1 (Fail)
//Storyboard Layer 2 (Pass)
//Storyboard Layer 3 (Foreground)
//Storyboard Sound Samples

[TimingPoints]
617,923.076923076923,4,1,0,100,1,0
14463,923.076923076923,4,1,0,100,1,0
15386,2000,4,1,0,100,1,0
16886,1875,4,1,0,100,1,0
17354,4000,4,1,0,100,1,0
18354,4000,4,1,0,100,1,0
20854,2000,4,1,0,100,1,0
27131,923.076923076923,4,1,0,100,1,0
27131,-66.6666666666667,4,1,0,100,0,1
41900,-66.6666666666667,4,1,0,100,0,0

[HitObjects]
156,176,617,6,0,P|216:156|272:176,1,119.999996821086
212,240,1078,1,0,0:0:0:0:
252,84,1232,1,0,0:0:0:0:
344,216,1386,1,0,0:0:0:0:
72,128,1540,6,0,L|88:264,1,119.999996821086
4,200,2001,1,0,0:0:0:0:
56,48,2155,1,0,0:0:0:0:
153,177,2309,1,0,0:0:0:0:
338,73,2463,5,0,0:0:0:0:
393,179,2617,1,0,0:0:0:0:
307,95,2770,1,0,0:0:0:0:
413,150,2924,1,0,0:0:0:0:
294,132,3078,1,0,0:0:0:0:
411,108,3232,1,0,0:0:0:0:
224,241,3386,6,0,L|219:330,1,89.9999976158143
145,274,3693,2,0,L|149:184,1,89.9999976158143
69,227,4001,2,0,L|64:316,1,89.9999976158143
212,129,4309,6,0,B|156:108|156:108|81:123,1,119.999996821086
162,35,4770,1,0,0:0:0:0:
149,196,4924,1,0,0:0:0:0:
15,104,5078,1,0,0:0:0:0:
265,67,5232,6,0,P|291:117|264:191,1,119.999996821086
369,106,5693,1,0,0:0:0:0:
212,129,5847,1,0,0:0:0:0:
309,265,6001,1,0,0:0:0:0:
453,71,6155,6,0,L|447:141,1,59.9999984105428
305,38,6463,1,0,0:0:0:0:
477,77,6617,2,0,L|471:136,1,59.9999984105428
329,44,6925,1,0,0:0:0:0:
178,145,7078,6,0,L|183:234,1,89.9999976158143
257,178,7385,2,0,L|253:88,1,89.9999976158143
333,131,7693,2,0,L|338:220,1,89.9999976158143
101,199,8001,6,0,L|95:68,1,119.999996821086
256,27,8463,1,0,0:0:0:0:
187,97,8616,1,0,0:0:0:0:
168,16,8770,1,0,0:0:0:0:
312,161,8924,6,0,P|308:213|298:280,1,119.999996821086
450,354,9386,1,0,0:0:0:0:
390,278,9540,1,0,0:0:0:0:
364,357,9693,1,0,0:0:0:0:
477,195,9847,6,0,L|471:134,2,59.9999984105428
385,85,10309,2,0,L|379:144,2,59.9999984105428
199,236,10770,6,0,L|288:231,1,89.9999976158143
232,157,11077,2,0,L|142:161,1,89.9999976158143
185,81,11385,2,0,L|274:76,1,89.9999976158143
191,326,11693,6,0,P|126:286|112:202,1,119.999996821086
233,150,12155,1,0,0:0:0:0:
199,236,12309,1,0,0:0:0:0:
138,161,12463,1,0,0:0:0:0:
247,26,12616,6,0,B|310:18|310:18|370:42,1,119.999996821086
324,192,13078,1,0,0:0:0:0:
380,268,13232,1,0,0:0:0:0:
412,176,13386,1,0,0:0:0:0:
296,272,13540,5,0,0:0:0:0:
240,192,13693,1,0,0:0:0:0:
292,112,13847,1,0,0:0:0:0:
216,268,14001,1,0,0:0:0:0:
132,220,14155,1,0,0:0:0:0:
48,268,14309,1,0,0:0:0:0:
128,380,14463,5,0,0:0:0:0:
128,380,15386,6,0,P|216:320|80:252,1,269.999992847443
138,302,17354,1,0,0:0:0:0:
364,80,18354,5,0,0:0:0:0:
364,80,19354,2,0,P|348:152|372:216,1,134.999996423721
444,144,21354,1,0,0:0:0:0:
256,328,22354,5,0,0:0:0:0:
332,272,23354,2,0,P|236:244|168:296,1,179.999995231629
400,212,25187,6,0,L|364:72,1,119.999996821086
308,188,26187,2,0,L|272:48,1,119.999996821086
40,96,27131,6,0,B|108:92|108:92|140:116|140:116|212:112,1,180.000002098084
84,172,27592,1,0,0:0:0:0:
172,36,27746,1,0,0:0:0:0:
316,108,27900,1,0,0:0:0:0:
400,244,28054,6,0,B|380:192|396:152|396:152|412:108|396:60,1,180.000002098084
472,192,28515,1,0,0:0:0:0:
400,336,28669,1,0,0:0:0:0:
276,232,28823,1,0,0:0:0:0:
64,364,28977,6,0,P|16:284|40:184,1,180.000002098084
100,104,29438,2,0,P|142:181|125:267,1,180.000002098084
4,76,29900,6,0,P|56:28|196:64,1,180.000002098084
300,112,30361,1,0,0:0:0:0:
204,240,30515,2,0,L|196:132,1,90.0000010490418
416,136,30823,6,0,P|404:232|432:328,1,180.000002098084
504,172,31284,1,0,0:0:0:0:
428,28,31438,1,0,0:0:0:0:
312,144,31592,1,0,0:0:0:0:
132,40,31746,6,0,P|232:8|320:48,1,180.000002098084
256,260,32207,2,0,P|200:168|228:92,1,180.000002098084
364,252,32669,2,0,P|332:336|246:368,1,180.000002098084
292,168,33131,2,0,P|364:147|453:214,1,180.000002098084
256,260,33592,2,0,P|200:168|228:92,1,180.000002098084
336,216,34054,1,0,0:0:0:0:
316,376,34207,1,0,0:0:0:0:
168,308,34361,1,0,0:0:0:0:
416,244,34515,6,0,B|426:208|410:172|410:172|426:148|426:148|410:116|426:72,1,180.000002098084
504,216,34977,1,0,0:0:0:0:
416,352,35131,1,0,0:0:0:0:
336,216,35284,1,0,0:0:0:0:
172,312,35438,6,0,P|116:256|172:188,1,180.000002098084
56,328,35900,2,0,P|28:236|64:156,1,180.000002098084
343,188,36361,6,0,P|396:251|340:312,1,180.000002098084
453,161,36823,2,0,P|484:244|456:328,1,180.000002098084
256,252,37284,6,0,L|256:56,1,180.000002098084
