osu file format v14

[General]
AudioFilename: audio.mp3
AudioLeadIn: 0
PreviewTime: -1
Countdown: 1
SampleSet: Normal
StackLeniency: 0.7
Mode: 3
LetterboxInBreaks: 0
SpecialStyle: 0
WidescreenStoryboard: 1

[Editor]
Bookmarks: 22166,33545
DistanceSpacing: 1
BeatDivisor: 4
GridSize: 16
TimelineZoom: 1.9

[Metadata]
Title:Rift Rivals Theme (feat. The Bloody Beetroots)
TitleUnicode:Rift Rivals Theme (feat. The Bloody Beetroots)
Artist:The Bloody Beetroots
ArtistUnicode:The Bloody Beetroots
Creator:Sy[K]es
Version:EZ
Source:
Tags:
BeatmapID:1696000
BeatmapSetID:808180

[Difficulty]
HPDrainRate:3
CircleSize:4
OverallDifficulty:3
ApproachRate:5
SliderMultiplier:1.4
SliderTickRate:1

[Events]
//Background and Video events
0,0,"rr-header.jpg",0,0
//Break Periods
//Storyboard Layer 0 (Background)
//Storyboard Layer 1 (Fail)
//Storyboard Layer 2 (Pass)
//Storyboard Layer 3 (Foreground)
//Storyboard Sound Samples

[TimingPoints]
11132.1373924813,344.827586206897,4,1,1,45,1,0

[HitObjects]
448,192,11132,5,0,0:0:0:0:
448,192,11476,1,0,0:0:0:0:
192,192,11821,1,0,0:0:0:0:
192,192,12166,1,0,0:0:0:0:
64,192,12511,1,0,0:0:0:0:
64,192,12856,1,0,0:0:0:0:
192,192,13201,1,0,0:0:0:0:
320,192,13545,1,0,0:0:0:0:
320,192,13890,1,0,0:0:0:0:
192,192,14235,1,0,0:0:0:0:
192,192,14580,1,0,0:0:0:0:
448,192,14925,1,0,0:0:0:0:
448,192,15270,1,0,0:0:0:0:
192,192,15270,1,0,0:0:0:0:
64,192,15614,1,0,0:0:0:0:
64,192,15959,1,0,0:0:0:0:
448,192,16304,1,0,0:0:0:0:
448,192,16649,1,0,0:0:0:0:
192,192,16994,1,0,0:0:0:0:
192,192,17339,1,0,0:0:0:0:
448,192,17339,128,0,17683:0:0:0:0:
64,192,17683,1,0,0:0:0:0:
448,192,18028,1,0,0:0:0:0:
320,192,18373,1,0,0:0:0:0:
192,192,18718,1,0,0:0:0:0:
64,192,19063,1,0,0:0:0:0:
320,192,19407,1,0,0:0:0:0:
192,192,19752,1,0,0:0:0:0:
448,192,20097,1,0,0:0:0:0:
64,192,20097,128,0,20787:0:0:0:0:
448,192,20787,128,8,21821:0:0:0:0:
64,192,21821,1,8,0:0:0:0:
320,192,22166,1,8,0:0:0:0:
192,192,22511,1,0,0:0:0:0:
64,192,22856,1,8,0:0:0:0:
192,192,23201,1,0,0:0:0:0:
320,192,23373,1,0,0:0:0:0:
448,192,23545,1,0,0:0:0:0:
192,192,23890,1,0,0:0:0:0:
320,192,24235,1,8,0:0:0:0:
64,192,24580,1,8,0:0:0:0:
320,192,24925,1,0,0:0:0:0:
320,192,25270,1,0,0:0:0:0:
192,192,25614,1,8,0:0:0:0:
64,192,25959,1,0,0:0:0:0:
192,192,26132,1,0,0:0:0:0:
320,192,26304,1,0,0:0:0:0:
64,192,26649,128,0,26994:0:0:0:0:
448,192,26994,128,8,27339:0:0:0:0:
64,192,27339,1,8,0:0:0:0:
192,192,27683,128,0,28028:0:0:0:0:
320,192,27683,128,4,28028:0:0:0:0:
448,192,28373,128,8,28718:0:0:0:0:
320,192,28373,128,0,28718:0:0:0:0:
64,192,28718,128,0,29063:0:0:0:0:
448,192,29063,1,0,0:0:0:0:
320,192,29407,1,0,0:0:0:0:
192,192,29580,1,0,0:0:0:0:
64,192,29752,1,8,0:0:0:0:
64,192,30097,1,8,0:0:0:0:
192,192,30442,1,0,0:0:0:0:
448,192,30442,128,4,31132:0:0:0:0:
192,192,31132,1,8,0:0:0:0:
64,192,31476,128,0,31821:0:0:0:0:
192,192,31476,128,0,31821:0:0:0:0:
448,192,32166,1,0,0:0:0:0:
192,192,32511,1,0,0:0:0:0:
320,192,32511,1,8,0:0:0:0:
448,192,32856,128,8,33201:0:0:0:0:
64,192,33201,1,4,0:0:0:0:
320,192,33545,128,0,33890:0:0:0:0:
448,192,33890,128,8,34235:0:0:0:0:
64,192,34235,1,4,0:0:0:0:
192,192,34580,128,0,34925:0:0:0:0:
448,192,34925,1,0,0:0:0:0:
64,192,35270,1,8,0:0:0:0:
192,192,35442,1,0,0:0:0:0:
320,192,35614,1,0,0:0:0:0:
320,192,35959,1,4,0:0:0:0:
448,192,36304,1,0,0:0:0:0:
320,192,36649,1,8,0:0:0:0:
192,192,36994,1,4,0:0:0:0:
64,192,37339,1,0,0:0:0:0:
448,192,37339,128,0,37683:0:0:0:0:
192,192,37683,128,0,38028:0:0:0:0:
448,192,38028,128,8,38373:0:0:0:0:
64,192,38373,1,0,0:0:0:0:
192,192,38718,128,4,39063:0:0:0:0:
448,192,39407,128,8,39752:0:0:0:0:
64,192,39407,1,0,0:0:0:0:
320,192,39752,1,4,0:0:0:0:
64,192,40097,128,0,40442:0:0:0:0:
320,192,40442,128,0,40787:0:0:0:0:
192,192,40787,1,8,0:0:0:0:
448,192,41132,128,0,41476:0:0:0:0:
64,192,41476,1,4,0:0:0:0:
64,192,41821,128,0,42166:0:0:0:0:
448,192,42166,128,8,42511:0:0:0:0:
64,192,42511,1,4,0:0:0:0:
320,192,42856,128,0,43201:0:0:0:0:
192,192,43373,1,0,0:0:0:0:
64,192,43545,128,8,43890:0:0:0:0:
448,192,43890,1,0,0:0:0:0:
192,192,44235,128,4,44580:0:0:0:0:
448,192,44580,128,2,44925:0:0:0:0:
192,192,44925,128,2,45270:0:0:0:0:
448,192,45270,128,2,45614:0:0:0:0:
320,192,45614,128,2,45959:0:0:0:0:
192,192,45959,128,2,46304:0:0:0:0:
64,192,46304,128,2,46649:0:0:0:0:
320,192,46649,128,2,46994:0:0:0:0:
64,192,46994,128,4,47339:0:0:0:0:
448,192,47339,128,2,47683:0:0:0:0:
192,192,47683,128,2,48028:0:0:0:0:
64,192,48028,128,2,48373:0:0:0:0:
448,192,48373,128,4,48718:0:0:0:0:
64,192,48718,128,2,49063:0:0:0:0:
192,192,49063,128,2,49407:0:0:0:0:
320,192,49407,128,2,49752:0:0:0:0:
448,192,49752,128,4,50097:0:0:0:0:
192,192,50097,128,2,50442:0:0:0:0:
320,192,50442,128,2,50787:0:0:0:0:
64,192,50787,128,2,51132:0:0:0:0:
448,192,51132,128,6,51476:0:0:0:0:
192,192,51476,128,0,51821:0:0:0:0:
320,192,51821,1,0,0:0:0:0:
448,192,51821,128,0,52166:0:0:0:0:
64,192,52166,128,0,52511:0:0:0:0:
320,192,52511,1,0,0:0:0:0:
448,192,52511,128,4,52856:0:0:0:0:
320,192,52856,1,0,0:0:0:0:
192,192,53201,1,0,0:0:0:0:
320,192,53373,1,0,0:0:0:0:
448,192,53545,1,0,0:0:0:0:
192,192,53890,1,4,0:0:0:0:
64,192,54235,1,0,0:0:0:0:
192,192,54580,1,0,0:0:0:0:
320,192,54752,1,0,0:0:0:0:
192,192,54925,1,0,0:0:0:0:
64,192,55097,1,0,0:0:0:0:
320,192,55270,1,0,0:0:0:0:
448,192,55270,128,4,55614:0:0:0:0:
192,192,55614,128,0,55959:0:0:0:0:
320,192,55959,1,0,0:0:0:0:
448,192,56132,1,0,0:0:0:0:
320,192,56304,1,0,0:0:0:0:
64,192,56304,128,0,56649:0:0:0:0:
192,192,56649,1,0,0:0:0:0:
448,192,56649,128,4,56994:0:0:0:0:
320,192,56994,1,4,0:0:0:0:
192,192,56994,128,0,57339:0:0:0:0:
64,192,57339,1,4,0:0:0:0:
448,192,57339,128,0,57683:0:0:0:0:
192,192,57683,128,0,58028:0:0:0:0:
448,192,58028,1,8,0:0:0:0:
320,192,58201,1,0,0:0:0:0:
192,192,58373,1,0,0:0:0:0:
64,192,58545,1,8,0:0:0:0:
192,192,58718,1,0,0:0:0:0:
320,192,58890,1,8,0:0:0:0:
448,192,59063,1,0,0:0:0:0:
320,192,59235,1,8,0:0:0:0:
192,192,59407,1,0,0:0:0:0:
64,192,59580,1,0,0:0:0:0:
192,192,59752,1,8,0:0:0:0:
320,192,59925,1,0,0:0:0:0:
448,192,60097,1,8,0:0:0:0:
320,192,60270,1,0,0:0:0:0:
192,192,60442,1,8,0:0:0:0:
64,192,60442,1,0,0:0:0:0:
320,192,60614,1,8,0:0:0:0:
448,192,60787,1,12,0:0:0:0:
320,192,60959,1,0,0:0:0:0:
192,192,61132,1,8,0:0:0:0:
64,192,61304,1,0,0:0:0:0:
192,192,61476,128,8,61821:0:0:0:0:
320,192,61994,1,0,0:0:0:0:
448,192,62166,128,8,62511:0:0:0:0:
320,192,62683,1,0,0:0:0:0:
192,192,62856,128,8,63201:0:0:0:0:
320,192,63373,1,8,0:0:0:0:
64,192,63545,1,0,0:0:0:0:
192,192,63718,1,8,0:0:0:0:
320,192,63890,1,0,0:0:0:0:
192,192,64063,1,8,0:0:0:0:
448,192,64235,1,0,0:0:0:0:
320,192,64407,1,8,0:0:0:0:
192,192,64580,1,0,0:0:0:0:
64,192,64925,128,8,65270:0:0:0:0:
192,192,65270,128,8,65442:0:0:0:0:
320,192,65442,128,8,65614:0:0:0:0:
64,192,65959,128,0,66304:0:0:0:0:
192,192,65959,1,8,0:0:0:0:
448,192,66304,128,0,66649:0:0:0:0:
320,192,66649,1,8,0:0:0:0:
64,192,66994,128,0,68373:0:0:0:0:
192,192,67511,128,0,68373:0:0:0:0:
320,192,67856,128,0,68373:0:0:0:0:
448,192,68201,128,4,68373:0:0:0:0:
