osu file format v14

[General]
AudioFilename: audio.mp3
AudioLeadIn: 0
PreviewTime: 96663
Countdown: 0
SampleSet: Normal
StackLeniency: 0
Mode: 0
LetterboxInBreaks: 0
WidescreenStoryboard: 0

[Editor]
Bookmarks: 31146,38075,41518,45375,48804,62520,65092,69377,76235,83092,89949,113949,120806,124235,125949,141377,151377,151663,158520,159806,164520,167092,188520,193663,199663,200663
DistanceSpacing: 0.2
BeatDivisor: 3
GridSize: 8
TimelineZoom: 1.9

[Metadata]
Title:Widowmaker
TitleUnicode:Widowmaker
Artist:The Black Dahlia Murder
ArtistUnicode:The Black Dahlia Murder
Creator:HML
Version:Crimes of Lust
Source:
Tags:
BeatmapID:2011762
BeatmapSetID:960929

[Difficulty]
HPDrainRate:5.5
CircleSize:4.2
OverallDifficulty:9
ApproachRate:9.7
SliderMultiplier:1.9
SliderTickRate:1

[Events]
//Background and Video events
0,0,"BG.png",0,0
//Break Periods
2,31720,33583
//Storyboard Layer 0 (Background)
//Storyboard Layer 1 (Fail)
//Storyboard Layer 2 (Pass)
//Storyboard Layer 3 (Foreground)
//Storyboard Sound Samples

[TimingPoints]
28235,285.714285714286,3,1,0,60,1,0
28235,-333.333333333333,3,1,0,60,0,0
28309,-100,3,1,0,5,0,0
31237,-100,3,1,0,60,0,0
34663,-100,3,3,0,40,0,0
34949,-100,3,1,0,60,0,0
35092,-250,3,1,0,60,0,0
35163,-250,3,2,0,5,0,0
35949,-250,3,1,0,40,0,0
36020,-250,3,2,0,5,0,0
37663,-250,3,1,0,40,0,0
37734,-250,3,2,0,5,0,0
38092,-100,3,1,0,60,0,0
41949,-100,3,1,0,60,0,1
45235,-133.333333333333,3,3,0,40,0,1
45377,-100,3,1,0,60,0,0
47949,-80,3,1,0,60,0,0
48163,-80,3,2,0,5,0,0
48806,-80,3,1,0,60,0,0
49663,-100,3,1,0,60,0,0
50520,-80,3,1,0,60,0,0
51377,-100,3,1,0,60,0,0
52235,-80,3,1,0,60,0,0
56520,-100,3,1,0,60,0,0
57377,-80,3,1,0,60,0,0
58235,-100,3,1,0,60,0,0
59092,-80,3,1,0,60,0,0
59949,-100,3,1,0,60,0,0
60806,-80,3,1,0,60,0,0
61663,-100,3,1,0,60,0,0
62520,-125,3,1,0,60,0,0
63949,-100,3,1,0,60,0,0
64235,-125,3,1,0,60,0,0
65377,-125,3,3,0,40,0,0
65949,-125,3,1,0,60,0,0
67377,-100,3,1,0,60,0,0
67663,-125,3,1,0,60,0,0
69377,-80,3,1,0,60,0,0
70235,-100,3,1,0,60,0,0
71092,-80,3,1,0,60,0,0
71949,-100,3,1,0,60,0,0
72806,-80,3,1,0,60,0,0
73663,-100,3,1,0,60,0,0
74235,-80,3,1,0,60,0,0
75377,-100,3,1,0,60,0,0
76235,-80,3,1,0,60,0,0
77092,-100,3,1,0,60,0,0
77949,-80,3,1,0,60,0,0
78806,-100,3,1,0,60,0,0
79663,-80,3,1,0,60,0,0
82806,-100,3,1,0,60,0,0
83092,-125,3,1,0,60,0,0
84520,-100,3,1,0,60,0,0
84806,-125,3,1,0,60,0,0
85949,-125,3,3,0,40,0,0
86520,-125,3,1,0,60,0,0
87949,-100,3,1,0,60,0,0
88235,-125,3,1,0,60,0,0
89949,-100,3,1,0,60,0,0
91377,-83.3333333333333,3,1,0,60,0,0
91663,-100,3,1,0,60,0,0
92806,-125,3,3,0,40,0,0
93377,-100,3,1,0,60,0,0
94806,-83.3333333333333,3,1,0,60,0,0
95092,-100,3,1,0,60,0,0
95949,-71.4285714285714,3,1,0,60,0,0
96092,-125,3,3,0,40,0,0
96377,-100,3,1,0,60,0,0
96806,-100,3,1,0,60,0,1
97663,-100,3,1,0,60,0,0
98520,-100,3,1,0,60,0,1
99377,-100,3,1,0,60,0,0
99663,-200,3,2,0,40,0,0
99949,-133.333333333333,3,2,0,50,0,0
100163,-133.333333333333,3,2,0,5,0,0
100235,-100,3,1,0,60,0,1
101092,-100,3,1,0,60,0,0
101949,-100,3,1,0,60,0,1
102806,-200,3,1,0,60,0,0
103020,-200,3,2,0,5,0,0
103092,-133.333333333333,3,1,0,60,0,0
103306,-133.333333333333,3,2,0,5,0,0
103377,-100,3,1,0,60,0,0
103592,-100,3,2,0,5,0,0
103663,-100,3,1,0,60,0,1
104520,-100,3,3,0,40,0,0
105092,-100,3,1,0,60,0,0
105377,-100,3,1,0,60,0,1
106235,-100,3,1,0,60,0,0
107092,-100,3,1,0,60,0,1
107949,-200,3,1,0,60,0,0
108163,-200,3,2,0,5,0,0
108235,-133.333333333333,3,1,0,60,0,0
108449,-133.333333333333,3,2,0,5,0,0
108520,-100,3,1,0,60,0,0
108735,-100,3,2,0,5,0,0
108806,-100,3,1,0,60,0,1
109663,-100,3,1,0,60,0,0
109949,-100,3,3,0,40,0,0
110520,-100,3,1,0,60,0,1
113806,-133.333333333333,3,3,0,40,0,1
113949,-100,3,1,0,60,0,0
120235,-100,3,3,0,40,0,0
120520,-100,3,1,0,60,0,0
126163,-100,3,2,0,5,0,0
126235,-100,3,1,0,60,0,0
127663,-100,3,1,0,60,0,1
128520,-111.111111111111,3,1,0,60,0,1
129306,-111.111111111111,3,2,0,5,0,1
129377,-100,3,1,0,60,0,1
133663,-111.111111111111,3,1,0,60,0,1
133877,-111.111111111111,3,2,0,5,0,1
133949,-100,3,1,0,60,0,1
134235,-100,3,3,0,40,0,1
134520,-100,3,1,0,60,0,1
137092,-111.111111111111,3,1,0,60,0,1
137306,-111.111111111111,3,2,0,5,0,1
137377,-111.111111111111,3,1,0,60,0,1
137877,-111.111111111111,3,2,0,5,0,1
137949,-100,3,1,0,60,0,1
138806,-111.111111111111,3,1,0,60,0,1
138877,-111.111111111111,3,2,0,5,0,1
139306,-111.111111111111,3,1,0,60,0,1
139449,-111.111111111111,3,2,0,5,0,1
139663,-100,3,1,0,60,0,1
140520,-111.111111111111,3,1,0,60,0,1
140735,-111.111111111111,3,2,0,5,0,1
140806,-100,3,1,0,60,0,1
141092,-100,3,3,0,40,0,1
141377,-100,3,1,0,60,0,1
142235,-90.9090909090909,3,1,0,60,0,1
142806,-100,3,1,0,60,0,1
143092,-83.3333333333333,3,1,0,60,0,1
143663,-100,3,1,0,60,0,1
143949,-76.9230769230769,3,1,0,60,0,1
144520,-100,3,1,0,60,0,1
144806,-166.666666666667,3,1,0,60,0,1
145092,-100,3,1,0,60,0,1
145192,-100,3,1,0,60,0,1
145663,-90.9090909090909,3,1,0,60,0,1
149092,-83.3333333333333,3,1,0,60,0,1
149949,-76.9230769230769,3,1,0,60,0,1
150806,-71.4285714285714,3,1,0,60,0,1
151663,-100,3,1,0,60,0,1
153377,-80,3,1,0,60,0,1
154092,-100,3,1,0,60,0,1
154235,-80,3,1,0,60,0,1
155092,-666.666666666667,3,1,0,60,0,0
155163,-666.666666666667,3,2,0,5,0,0
158092,-100,3,1,0,60,0,0
160235,-80,3,1,0,60,0,0
161377,-80,3,3,0,40,0,0
161949,-80,3,1,0,60,0,0
164520,-100,3,1,0,60,0,0
164806,-100,3,3,0,40,0,0
164949,-100,3,1,0,60,0,0
165092,-100,3,3,0,40,0,0
165377,-125,3,1,0,60,0,0
167092,-125,3,3,0,40,0,0
167949,-133.333333333333,3,1,0,60,0,0
168020,-133.333333333333,3,2,0,5,0,0
168806,-100,3,1,0,60,0,1
169663,-100,3,1,0,60,0,0
170520,-100,3,1,0,60,0,1
171377,-100,3,1,0,60,0,0
171663,-200,3,2,0,50,0,0
171949,-133.333333333333,3,2,0,50,0,0
172163,-133.333333333333,3,2,0,5,0,0
172235,-100,3,1,0,60,0,1
173092,-100,3,1,0,60,0,0
173949,-100,3,1,0,60,0,1
174806,-200,3,1,0,60,0,0
175020,-200,3,2,0,5,0,0
175092,-133.333333333333,3,1,0,60,0,0
175306,-133.333333333333,3,2,0,5,0,0
175377,-100,3,1,0,60,0,0
175592,-100,3,2,0,5,0,0
175663,-100,3,1,0,60,0,1
176520,-100,3,3,0,40,0,0
177092,-100,3,1,0,60,0,0
177377,-100,3,1,0,60,0,1
178235,-100,3,1,0,60,0,0
179092,-100,3,1,0,60,0,1
179949,-200,3,1,0,60,0,0
180163,-200,3,2,0,5,0,0
180235,-133.333333333333,3,1,0,60,0,0
180449,-133.333333333333,3,2,0,5,0,0
180520,-100,3,1,0,60,0,0
180735,-100,3,2,0,5,0,0
180806,-100,3,1,0,60,0,1
181663,-100,3,1,0,60,0,0
181806,-100,3,3,0,40,0,0
182092,-100,3,1,0,60,0,0
182163,-100,3,3,0,40,0,0
182235,-100,3,1,0,60,0,0
182306,-100,3,3,0,40,0,0
182520,-100,3,1,0,60,0,1
183377,-100,3,1,0,60,0,0
184235,-100,3,1,0,60,0,1
185092,-100,3,1,0,60,0,0
185377,-200,3,2,0,50,0,0
185663,-133.333333333333,3,2,0,50,0,0
185877,-133.333333333333,3,2,0,5,0,0
185949,-100,3,1,0,60,0,1
186806,-200,3,1,0,60,0,0
187663,-100,3,1,0,60,0,1
188520,-200,3,1,0,60,0,0
188735,-200,3,2,0,5,0,0
188806,-133.333333333333,3,1,0,60,0,0
189020,-133.333333333333,3,2,0,5,0,0
189092,-100,3,1,0,60,0,0
189306,-100,3,2,0,5,0,0
189377,-100,3,1,0,60,0,1
190235,-100,3,3,0,40,0,0
190806,-100,3,1,0,60,0,0
191092,-100,3,1,0,60,0,1
191949,-200,3,1,0,60,0,0
192806,-100,3,1,0,60,0,1
193663,-200,3,1,0,60,0,0
193877,-200,3,2,0,5,0,0
193949,-133.333333333333,3,1,0,60,0,0
194163,-133.333333333333,3,2,0,5,0,0
194235,-100,3,1,0,60,0,0
194449,-100,3,2,0,5,0,0
194520,-100,3,1,0,60,0,1
195377,-100,3,1,0,60,0,0
195520,-100,3,3,0,40,0,0
195663,-100,3,1,0,60,0,0
195806,-100,3,3,0,40,0,0
195949,-100,3,1,0,60,0,0
196092,-100,3,3,0,40,0,0
196235,-1000,3,1,0,60,0,0
196306,-1000,3,2,0,5,0,0
197663,-100,3,3,0,40,0,0
197949,-100,3,1,0,60,0,0
199663,-250,3,1,0,60,0,0
199735,-250,3,2,0,5,0,0

[Colours]
Combo1 : 87,81,119
Combo2 : 206,132,32
Combo3 : 169,171,97

[HitObjects]
32,153,28235,6,0,B|71:105|147:135|137:198|137:198|185:168|228:195|227:202|226:208|277:237|335:206|335:206|298:176|299:122|345:81|410:89|427:149,1,584.249982170106,6|0,0:0|0:0,0:0:0:0:
441,224,31234,5,8,0:0:0:0:
445,33,31377,1,6,0:0:0:0:
488,297,31520,1,6,0:0:0:0:
396,292,34092,5,0,0:0:0:0:
396,316,34163,1,0,0:0:0:0:
397,340,34234,5,14,0:0:0:0:
313,199,34377,1,0,0:0:0:0:
499,347,34520,5,14,0:0:0:0:
414,158,34663,1,0,0:0:0:0:
414,182,34734,1,0,0:0:0:0:
415,206,34805,1,0,0:0:0:0:
331,65,34949,1,8,0:0:0:0:
453,39,35092,6,0,B|332:65|332:65|288:46|288:46|243:54,1,209,6|2,0:0|0:0,0:0:0:0:
174,12,35949,6,0,B|145:60|170:115|213:133|213:133|187:197|187:197|220:284|182:344|80:335|71:280,1,437,2|0,0:0|0:0,0:0:0:0:
8,274,37663,6,0,P|27:237|80:222,1,95,2|0,0:0|0:0,0:0:0:0:
26,147,38092,5,0,0:0:0:0:
30,99,38163,1,0,0:0:0:0:
34,52,38234,5,0,0:0:0:0:
41,57,38306,1,0,0:0:0:0:
49,62,38377,1,0,0:0:0:0:
57,68,38449,1,0,0:0:0:0:
65,73,38521,5,6,0:0:0:0:
92,54,38592,1,8,0:0:0:0:
124,48,38663,1,0,0:0:0:0:
157,54,38735,1,8,0:0:0:0:
184,71,38806,5,2,0:0:0:0:
211,52,38877,1,8,0:0:0:0:
243,46,38948,1,0,0:0:0:0:
276,51,39020,1,8,0:0:0:0:
304,70,39092,6,0,L|295:18,1,47.5,2|8,0:0|0:0,0:0:0:0:
449,0,39234,2,0,L|440:46,2,47.5,2|8|6,0:0|0:0|0:0,0:0:0:0:
203,6,39449,5,8,0:0:0:0:
211,52,39520,1,8,0:0:0:0:
219,99,39591,1,8,0:0:0:0:
227,146,39663,1,8,0:0:0:0:
235,193,39734,1,8,0:0:0:0:
243,240,39806,1,8,0:0:0:0:
251,286,39877,1,8,0:0:0:0:
259,333,39949,5,2,0:0:0:0:
263,324,40020,1,0,0:0:0:0:
267,316,40091,1,0,0:0:0:0:
271,307,40163,1,8,0:0:0:0:
275,299,40235,5,6,0:0:0:0:
300,320,40306,1,8,0:0:0:0:
332,329,40377,1,0,0:0:0:0:
365,322,40449,1,8,0:0:0:0:
390,302,40520,5,2,0:0:0:0:
384,269,40592,1,8,0:0:0:0:
378,236,40663,1,0,0:0:0:0:
372,203,40735,1,8,0:0:0:0:
367,170,40806,6,0,L|430:172,1,47.5,6|0,0:0|0:0,0:0:0:0:
512,60,40949,2,0,L|449:62,2,47.5,2|0|6,0:0|0:0|0:0,0:0:0:0:
297,23,41163,5,8,0:0:0:0:
267,59,41234,1,8,0:0:0:0:
224,80,41305,1,8,0:0:0:0:
177,80,41377,1,8,0:0:0:0:
135,60,41448,1,8,0:0:0:0:
105,23,41520,5,0,0:0:0:0:
95,22,41591,1,0,0:0:0:0:
86,21,41662,1,0,0:0:0:0:
76,21,41734,1,0,0:0:0:0:
53,39,41807,5,0,0:0:0:0:
48,38,41878,1,0,0:0:0:0:
24,20,41949,5,6,0:0:0:0:
43,46,42020,1,8,0:0:0:0:
55,77,42091,1,0,0:0:0:0:
56,110,42163,1,8,0:0:0:0:
47,142,42234,1,0,0:0:0:0:
27,168,42305,1,8,0:0:0:0:
22,201,42376,1,0,0:0:0:0:
32,232,42448,1,8,0:0:0:0:
55,256,42519,1,0,0:0:0:0:
86,268,42591,1,8,0:0:0:0:
118,264,42662,1,0,0:0:0:0:
146,246,42734,1,8,0:0:0:0:
163,218,42806,5,6,0:0:0:0:
185,247,42877,1,8,0:0:0:0:
220,262,42948,1,0,0:0:0:0:
257,257,43020,1,8,0:0:0:0:
287,235,43091,1,0,0:0:0:0:
302,200,43163,1,8,0:0:0:0:
298,163,43235,6,0,L|362:168,1,47.5,2|8,0:0|0:0,0:0:0:0:
479,107,43377,2,0,L|431:103,3,47.5,2|8|0|8,0:0|0:0|0:0|0:0,0:0:0:0:
490,361,43663,5,6,0:0:0:0:
447,358,43734,1,8,0:0:0:0:
404,355,43805,1,0,0:0:0:0:
362,352,43877,1,8,0:0:0:0:
319,348,43948,1,0,0:0:0:0:
277,345,44020,1,8,0:0:0:0:
234,342,44092,6,0,L|224:290,1,47.5,2|8,0:0|0:0,0:0:0:0:
100,338,44235,2,0,L|110:390,3,47.5,2|8|0|8,0:0|0:0|0:0|0:0,0:0:0:0:
116,221,44520,5,6,0:0:0:0:
162,222,44591,1,8,0:0:0:0:
201,195,44662,1,0,0:0:0:0:
217,152,44734,1,8,0:0:0:0:
206,106,44805,1,0,0:0:0:0:
170,76,44877,1,8,0:0:0:0:
124,74,44949,6,0,L|130:14,1,47.5,6|8,0:0|0:0,0:0:0:0:
10,4,45092,1,8,0:0:0:0:
5,51,45163,1,8,0:0:0:0:
0,98,45235,2,0,L|60:104,1,35.625001358986
36,218,45377,6,0,L|44:325,1,95,6|0,0:0|0:0,0:0:0:0:
1,384,45592,1,0,0:0:0:0:
13,376,45663,2,0,P|59:361|104:373,1,95
199,368,45877,1,0,0:0:0:0:
192,380,45950,2,0,P|237:391|281:376,1,95
144,194,46163,1,0,0:0:0:0:
137,206,46234,6,0,L|145:313,1,95,6|0,0:0|0:0,0:0:0:0:
102,372,46449,1,0,0:0:0:0:
114,364,46520,2,0,P|160:349|205:361,1,95
300,356,46734,1,0,0:0:0:0:
293,368,46807,2,0,P|338:379|382:364,1,95
253,187,47020,1,0,0:0:0:0:
246,199,47092,6,0,L|253:293,1,95,6|0,0:0|0:0,0:0:0:0:
211,365,47306,1,0,0:0:0:0:
223,357,47377,2,0,P|269:342|314:354,1,95
409,349,47591,1,0,0:0:0:0:
402,361,47664,2,0,P|447:372|491:357,1,95
362,180,47877,1,0,0:0:0:0:
355,192,47949,6,0,B|361:233|361:233|354:256|354:256|407:262|407:262|417:271|417:271|474:276,1,178.125,6|0,0:0|0:0,0:0:0:0:
254,167,48806,6,0,B|268:137|268:137|268:46,1,118.75,6|8,0:0|0:0,0:0:0:0:
355,192,49092,2,0,L|355:61,1,118.75,0|8,0:0|0:0,0:0:0:0:
456,167,49377,2,0,B|442:137|442:137|442:46,1,118.75,0|8,0:0|0:0,0:0:0:0:
423,250,49663,6,0,L|420:310,3,47.5,2|0|8|0,0:0|0:0|0:0|0:0,0:0:0:0:
497,382,49949,2,0,L|494:334,1,47.5
365,359,50092,5,14,0:0:0:0:
334,371,50163,1,0,0:0:0:0:
302,366,50234,1,0,0:0:0:0:
277,345,50306,1,0,0:0:0:0:
247,329,50377,1,10,0:0:0:0:
214,330,50448,1,0,0:0:0:0:
187,348,50520,6,0,P|209:302|183:233,1,118.75,6|8,0:0|0:0,0:0:0:0:
101,365,50806,2,0,L|105:236,1,118.75,0|8,0:0|0:0,0:0:0:0:
15,350,51092,2,0,P|-7:304|19:235,1,118.75,0|8,0:0|0:0,0:0:0:0:
58,121,51377,6,0,L|61:174,3,47.5,2|0|8|0,0:0|0:0|0:0|0:0,0:0:0:0:
4,47,51663,2,0,L|1:0,1,47.5
226,25,51806,5,12,0:0:0:0:
60,168,51949,1,6,0:0:0:0:
279,185,52092,1,14,0:0:0:0:
226,25,52235,6,0,B|257:39|257:39|356:31,1,118.75,6|8,0:0|0:0,0:0:0:0:
365,115,52520,2,0,L|493:104,1,118.75,0|8,0:0|0:0,0:0:0:0:
470,16,52806,1,2,0:0:0:0:
437,198,52949,1,8,0:0:0:0:
174,192,53092,6,0,B|189:239|189:239|189:314,1,118.75,6|8,0:0|0:0,0:0:0:0:
281,384,53377,2,0,L|281:257,1,118.75,0|8,0:0|0:0,0:0:0:0:
105,250,53663,1,2,0:0:0:0:
270,178,53806,1,8,0:0:0:0:
21,107,53949,6,0,B|45:117|45:117|139:107,1,118.75,6|8,0:0|0:0,0:0:0:0:
0,24,54235,2,0,L|125:11,1,118.75,0|8,0:0|0:0,0:0:0:0:
28,198,54520,1,2,0:0:0:0:
192,43,54663,1,8,0:0:0:0:
102,312,54806,5,6,0:0:0:0:
21,107,54949,1,8,0:0:0:0:
230,149,55092,5,6,0:0:0:0:
93,322,55235,1,8,0:0:0:0:
134,46,55377,5,6,0:0:0:0:
84,332,55520,1,14,0:0:0:0:
324,227,55663,6,0,B|338:253|338:253|333:348,1,118.75,6|8,0:0|0:0,0:0:0:0:
414,154,55949,2,0,L|414:281,1,118.75,0|8,0:0|0:0,0:0:0:0:
504,229,56235,2,0,B|490:255|490:255|495:350,1,118.75,0|8,0:0|0:0,0:0:0:0:
501,138,56520,6,0,L|496:78,3,47.5,2|0|8|0,0:0|0:0|0:0|0:0,0:0:0:0:
416,2,56806,2,0,L|412:49,1,47.5
335,127,56949,5,14,0:0:0:0:
301,128,57020,1,0,0:0:0:0:
268,129,57091,1,0,0:0:0:0:
235,131,57163,1,0,0:0:0:0:
202,132,57234,1,10,0:0:0:0:
168,134,57306,1,0,0:0:0:0:
134,135,57377,6,0,P|154:84|129:24,1,118.75,6|8,0:0|0:0,0:0:0:0:
78,296,57663,2,0,L|72:167,1,118.75,0|8,0:0|0:0,0:0:0:0:
0,43,57949,2,0,P|-20:98|2:152,1,118.75,0|8,0:0|0:0,0:0:0:0:
144,220,58235,6,0,L|202:219,3,47.5,2|0|8|0,0:0|0:0|0:0|0:0,0:0:0:0:
192,357,58520,2,0,L|144:357,1,47.5
292,285,58663,5,12,0:0:0:0:
504,230,58806,1,6,0:0:0:0:
293,173,58949,1,14,0:0:0:0:
461,359,59092,6,0,B|438:343|438:343|428:241,1,118.75,6|8,0:0|0:0,0:0:0:0:
481,152,59377,2,0,L|470:32,1,118.75,0|8,0:0|0:0,0:0:0:0:
299,51,59663,1,2,0:0:0:0:
475,25,59806,1,8,0:0:0:0:
240,101,59949,6,0,P|223:75|223:45,3,47.5,6|0|8|0,0:0|0:0|0:0|0:0,0:0:0:0:
315,129,60235,2,0,P|330:147|335:171,3,47.5,0|0|8|0,0:0|0:0|0:0|0:0,0:0:0:0:
186,174,60520,6,0,L|132:172,1,47.5,2|0,0:0|0:0,0:0:0:0:
299,51,60663,2,0,L|353:49,1,47.5,10|0,0:0|0:0,0:0:0:0:
265,215,60806,6,0,B|279:235|279:235|275:338,1,118.75,6|8,0:0|0:0,0:0:0:0:
375,384,61092,2,0,L|382:247,1,118.75,0|8,0:0|0:0,0:0:0:0:
428,172,61377,1,2,0:0:0:0:
284,325,61520,1,8,0:0:0:0:
454,272,61663,6,0,L|507:278,3,47.5,6|0|8|0,0:0|0:0|0:0|0:0,0:0:0:0:
375,384,61949,2,0,L|327:378,3,47.5,0|0|8|0,0:0|0:0|0:0|0:0,0:0:0:0:
190,358,62235,5,8,0:0:0:0:
158,323,62306,1,8,0:0:0:0:
113,312,62377,1,8,0:0:0:0:
69,329,62449,1,8,0:0:0:0:
43,367,62520,6,0,B|43:345|43:345|13:312,2,50.6666666666667,6|0|0,0:0|0:0|0:0,0:0:0:0:
65,251,62806,2,0,B|65:228|65:228|95:195,2,50.6666666666667
11,152,63092,5,2,0:0:0:0:
5,127,63187,1,0,0:0:0:0:
0,102,63282,1,0,0:0:0:0:
50,29,63377,6,0,B|83:32|83:32|119:21,2,50.6666666666667,10|0|0,0:0|0:0|0:0,0:0:0:0:
180,90,63663,2,0,B|147:87|147:87|111:98,2,50.6666666666667
318,32,63949,6,0,L|233:24,2,63.3333333333333,2|0|0,0:0|0:0|0:0,0:0:0:0:
445,37,64235,5,6,0:0:0:0:
406,68,64330,1,0,0:0:0:0:
395,117,64425,1,0,0:0:0:0:
415,162,64520,1,0,0:0:0:0:
458,186,64615,1,0,0:0:0:0:
495,218,64711,1,0,0:0:0:0:
505,266,64806,1,0,0:0:0:0:
483,312,64901,2,0,L|505:372,1,50.6666666666667
325,281,65092,5,14,0:0:0:0:
335,279,65187,1,0,0:0:0:0:
345,278,65282,1,0,0:0:0:0:
355,277,65377,6,0,L|337:229,1,50.6666666666667,4|0,0:0|0:0,0:0:0:0:
288,365,65568,1,4,0:0:0:0:
298,363,65663,1,0,0:0:0:0:
308,362,65758,1,0,0:0:0:0:
318,360,65854,1,0,0:0:0:0:
328,359,65949,6,0,B|348:366|348:366|388:362,2,50.6666666666667,6|0|0,0:0|0:0|0:0,0:0:0:0:
483,312,66235,2,0,B|463:305|463:305|423:309,2,50.6666666666667,2|0|0,0:0|0:0|0:0,0:0:0:0:
355,277,66520,5,2,0:0:0:0:
349,252,66615,1,0,0:0:0:0:
344,227,66710,1,0,0:0:0:0:
294,154,66805,6,0,B|266:141|266:141|225:146,2,50.6666666666667,10|0|0,0:0|0:0|0:0,0:0:0:0:
368,95,67092,2,0,B|396:82|396:82|437:87,2,50.6666666666667,2|0|0,0:0|0:0|0:0,0:0:0:0:
223,44,67377,6,0,L|293:37,2,63.3333333333333,2|0|0,0:0|0:0|0:0,0:0:0:0:
96,14,67663,5,6,0:0:0:0:
47,25,67758,1,0,0:0:0:0:
18,65,67853,1,0,0:0:0:0:
20,115,67948,1,0,0:0:0:0:
54,151,68043,1,0,0:0:0:0:
103,158,68139,1,0,0:0:0:0:
150,173,68235,1,0,0:0:0:0:
176,215,68330,1,0,0:0:0:0:
168,264,68425,1,0,0:0:0:0:
131,297,68520,5,6,0:0:0:0:
131,297,69377,6,0,B|170:318|170:318|252:314,1,118.75,6|8,0:0|0:0,0:0:0:0:
366,229,69663,2,0,L|247:234,1,118.75,0|8,0:0|0:0,0:0:0:0:
476,326,69949,2,0,B|437:305|437:305|355:309,1,118.75,0|8,0:0|0:0,0:0:0:0:
472,229,70235,6,0,L|477:177,3,47.5,2|0|8|0,0:0|0:0|0:0|0:0,0:0:0:0:
397,98,70520,2,0,L|401:145,1,47.5
460,28,70663,5,14,0:0:0:0:
432,10,70734,1,0,0:0:0:0:
399,3,70805,1,0,0:0:0:0:
367,8,70877,1,0,0:0:0:0:
338,24,70948,1,10,0:0:0:0:
317,49,71020,1,0,0:0:0:0:
306,81,71092,6,0,P|262:56|181:83,1,118.75,6|8,0:0|0:0,0:0:0:0:
103,145,71377,2,0,B|151:145|151:145|179:154|179:154|233:154,1,118.75,0|8,0:0|0:0,0:0:0:0:
125,230,71663,2,0,P|68:244|16:218,1,118.75,0|8,0:0|0:0,0:0:0:0:
203,232,71949,6,0,L|210:285,3,47.5,2|0|8|0,0:0|0:0|0:0|0:0,0:0:0:0:
121,366,72235,2,0,L|127:318,1,47.5
232,369,72377,5,12,0:0:0:0:
13,310,72520,1,6,0:0:0:0:
173,149,72663,1,14,0:0:0:0:
221,377,72806,6,0,B|246:362|246:362|346:369,1,118.75,6|8,0:0|0:0,0:0:0:0:
463,301,73092,2,0,L|340:291,1,118.75,0|8,0:0|0:0,0:0:0:0:
438,198,73377,1,2,0:0:0:0:
418,383,73520,1,8,0:0:0:0:
481,135,73663,6,0,P|499:150|512:182,3,47.5,6|0|8|0,0:0|0:0|0:0|0:0,0:0:0:0:
447,66,73949,2,0,P|468:57|503:62,3,47.5,0|0|8|0,0:0|0:0|0:0|0:0,0:0:0:0:
318,58,74235,6,0,L|255:64,1,59.375,2|0,0:0|0:0,0:0:0:0:
378,203,74377,2,0,L|437:197,1,59.375,10|0,0:0|0:0,0:0:0:0:
221,142,74520,6,0,B|203:123|203:123|103:133,1,118.75,6|8,0:0|0:0,0:0:0:0:
281,225,74806,2,0,L|150:237,1,118.75,0|8,0:0|0:0,0:0:0:0:
173,53,75092,1,2,0:0:0:0:
72,226,75235,1,8,0:0:0:0:
88,15,75377,6,0,L|95:71,3,47.5,6|0|8|0,0:0|0:0|0:0|0:0,0:0:0:0:
0,153,75663,2,0,L|5:105,3,47.5,0|0|8|0,0:0|0:0|0:0|0:0,0:0:0:0:
123,140,75949,5,2,0:0:0:0:
22,313,76092,1,8,0:0:0:0:
188,229,76235,6,0,B|249:243|249:243|311:228,1,118.75,6|8,0:0|0:0,0:0:0:0:
249,153,76520,2,0,L|384:154,1,118.75,0|8,0:0|0:0,0:0:0:0:
190,77,76806,2,0,B|244:63|244:63|305:77,1,118.75,0|8,0:0|0:0,0:0:0:0:
407,56,77092,6,0,L|394:8,3,47.5,2|0|8|0,0:0|0:0|0:0|0:0,0:0:0:0:
505,67,77377,2,0,L|492:112,1,47.5
398,175,77520,5,14,0:0:0:0:
386,205,77591,1,0,0:0:0:0:
388,238,77662,1,0,0:0:0:0:
404,266,77734,1,0,0:0:0:0:
414,297,77807,1,10,0:0:0:0:
409,330,77878,1,0,0:0:0:0:
391,357,77949,6,0,B|421:344|421:344|516:360,1,118.75,6|8,0:0|0:0,0:0:0:0:
396,257,78235,2,0,L|524:280,1,118.75,0|8,0:0|0:0,0:0:0:0:
512,176,78520,2,0,B|482:189|482:189|387:173,1,118.75,0|8,0:0|0:0,0:0:0:0:
380,81,78806,6,0,L|391:31,3,47.5,2|0|8|0,0:0|0:0|0:0|0:0,0:0:0:0:
298,170,79092,2,0,L|308:216,1,47.5
261,58,79235,5,10,0:0:0:0:
496,94,79377,1,6,0:0:0:0:
305,234,79520,1,14,0:0:0:0:
243,52,79663,6,0,B|223:77|223:77|217:166,1,118.75,6|8,0:0|0:0,0:0:0:0:
135,18,79949,2,0,L|126:148,1,118.75,0|8,0:0|0:0,0:0:0:0:
9,169,80235,1,2,0:0:0:0:
220,175,80377,1,8,0:0:0:0:
35,280,80520,6,0,B|50:268|50:268|152:274,1,118.75,6|8,0:0|0:0,0:0:0:0:
8,365,80806,2,0,L|142:373,1,118.75,0|8,0:0|0:0,0:0:0:0:
113,198,81092,1,2,0:0:0:0:
199,337,81235,1,8,0:0:0:0:
220,175,81377,6,0,B|244:162|244:162|352:170,1,118.75,6|8,0:0|0:0,0:0:0:0:
245,260,81663,2,0,L|369:269,1,118.75,0|8,0:0|0:0,0:0:0:0:
199,337,81949,1,2,0:0:0:0:
212,161,82092,1,8,0:0:0:0:
299,361,82235,6,0,L|428:367,1,118.75,14|8,0:0|0:0,0:0:0:0:
491,285,82520,2,0,L|372:279,1,118.75,0|8,0:0|0:0,0:0:0:0:
350,154,82806,5,10,0:0:0:0:
390,177,82877,1,8,0:0:0:0:
436,169,82948,1,8,0:0:0:0:
467,134,83020,1,8,0:0:0:0:
469,88,83092,6,0,B|483:74|483:74|493:20,2,50.6666666666667,6|0|0,0:0|0:0|0:0,0:0:0:0:
390,50,83377,2,0,B|384:31|384:31|342:-4,2,50.6666666666667
259,92,83663,1,2,0:0:0:0:
284,90,83758,1,0,0:0:0:0:
309,89,83853,1,0,0:0:0:0:
350,154,83949,6,0,B|327:144|327:144|288:147,2,50.6666666666667,10|0|0,0:0|0:0|0:0,0:0:0:0:
315,229,84235,2,0,B|294:243|294:243|277:279,2,50.6666666666667
359,356,84520,6,0,L|351:287,2,63.3333333333333,2|0|0,0:0|0:0|0:0,0:0:0:0:
247,347,84806,5,6,0:0:0:0:
264,300,84901,1,0,0:0:0:0:
254,251,84996,1,0,0:0:0:0:
219,215,85091,1,0,0:0:0:0:
171,204,85186,1,0,0:0:0:0:
124,221,85282,1,0,0:0:0:0:
94,261,85377,1,0,0:0:0:0:
90,311,85473,2,0,L|34:303,1,50.6666666666667
48,189,85663,5,14,0:0:0:0:
48,178,85758,1,0,0:0:0:0:
49,168,85853,1,0,0:0:0:0:
50,158,85949,6,0,L|-6:149,1,50.6666666666667,4|0,0:0|0:0,0:0:0:0:
123,97,86139,1,4,0:0:0:0:
123,86,86234,1,0,0:0:0:0:
124,76,86329,1,0,0:0:0:0:
125,66,86425,1,0,0:0:0:0:
126,56,86520,6,0,B|95:55|95:55|69:47,2,50.6666666666667,6|0|0,0:0|0:0|0:0,0:0:0:0:
216,21,86806,2,0,B|247:22|247:22|272:29,2,50.6666666666667
213,111,87092,5,2,0:0:0:0:
238,109,87187,1,0,0:0:0:0:
263,108,87282,1,0,0:0:0:0:
321,158,87377,6,0,B|352:157|352:157|377:149,2,50.6666666666667,10|0|0,0:0|0:0|0:0,0:0:0:0:
487,94,87663,2,0,B|456:93|456:93|430:85,2,50.6666666666667
452,244,87949,6,0,L|444:155,2,63.3333333333333,2|0|0,0:0|0:0|0:0,0:0:0:0:
430,379,88235,5,6,0:0:0:0:
421,329,88330,1,0,0:0:0:0:
387,293,88425,1,0,0:0:0:0:
338,282,88520,1,0,0:0:0:0:
292,301,88615,1,0,0:0:0:0:
263,342,88711,1,0,0:0:0:0:
226,376,88807,1,0,0:0:0:0:
177,384,88902,1,0,0:0:0:0:
132,363,88997,1,0,0:0:0:0:
106,321,89092,5,10,0:0:0:0:
151,301,89187,1,0,0:0:0:0:
175,257,89282,1,0,0:0:0:0:
166,209,89377,1,0,0:0:0:0:
129,176,89472,1,0,0:0:0:0:
79,174,89568,1,0,0:0:0:0:
30,162,89664,1,0,0:0:0:0:
1,122,89759,1,0,0:0:0:0:
2,72,89854,1,0,0:0:0:0:
34,34,89949,6,0,L|41:88,3,47.5,14|0|0|0,0:0|0:0|0:0|0:0,0:0:0:0:
124,9,90235,2,0,L|117:56,3,47.5
201,45,90520,5,2,0:0:0:0:
227,64,90591,1,0,0:0:0:0:
259,72,90662,1,0,0:0:0:0:
292,66,90734,1,0,0:0:0:0:
319,48,90806,6,0,L|380:52,3,47.5,10|0|0|0,0:0|0:0|0:0|0:0,0:0:0:0:
492,5,91092,2,0,L|431:8,3,47.5
451,142,91377,6,0,B|438:120|438:120|436:67,3,56.9999982604981,2|0|0|0,0:0|0:0|0:0|0:0,0:0:0:0:
483,232,91663,5,14,0:0:0:0:
494,277,91734,1,0,0:0:0:0:
474,319,91805,1,0,0:0:0:0:
432,340,91877,1,0,0:0:0:0:
387,329,91948,1,0,0:0:0:0:
358,293,92020,1,0,0:0:0:0:
358,246,92091,1,0,0:0:0:0:
348,200,92163,1,0,0:0:0:0:
312,170,92235,1,0,0:0:0:0:
266,170,92306,1,0,0:0:0:0:
229,199,92378,1,0,0:0:0:0:
219,244,92449,1,0,0:0:0:0:
239,286,92520,6,0,L|190:284,3,47.5,10|0|0|0,0:0|0:0|0:0|0:0,0:0:0:0:
90,384,92806,6,0,L|98:331,1,38,4|0,0:0|0:0,0:0:0:0:
8,229,92949,2,0,L|15:275,1,38,4|0,0:0|0:0,0:0:0:0:
139,223,93092,5,0,0:0:0:0:
140,214,93163,1,0,0:0:0:0:
141,204,93235,2,0,L|94:211,1,38,4|0,0:0|0:0,0:0:0:0:
24,33,93377,6,0,L|39:101,3,47.5,14|0|0|0,0:0|0:0|0:0|0:0,0:0:0:0:
150,14,93663,2,0,L|98:60,3,47.5
226,59,93949,5,0,0:0:0:0:
259,56,94020,1,0,0:0:0:0:
292,54,94091,1,0,0:0:0:0:
325,51,94163,1,0,0:0:0:0:
358,49,94235,6,0,L|316:19,3,47.5,10|0|0|0,0:0|0:0|0:0|0:0,0:0:0:0:
470,76,94520,2,0,L|431:103,3,47.5
366,203,94806,6,0,B|352:159|352:159|360:135,3,56.9999982604981
440,275,95092,5,14,0:0:0:0:
401,302,95163,1,0,0:0:0:0:
355,309,95234,1,0,0:0:0:0:
311,293,95306,1,0,0:0:0:0:
279,258,95377,1,0,0:0:0:0:
256,218,95448,1,0,0:0:0:0:
214,196,95519,1,0,0:0:0:0:
168,202,95591,1,0,0:0:0:0:
132,233,95662,1,0,0:0:0:0:
120,278,95734,1,0,0:0:0:0:
135,322,95805,1,0,0:0:0:0:
172,351,95876,1,0,0:0:0:0:
218,354,95949,6,0,L|211:278,1,66.4999979705811,8|8,0:0|0:0,0:0:0:0:
220,201,96092,5,4,0:0:0:0:
219,191,96163,1,0,0:0:0:0:
218,182,96234,1,0,0:0:0:0:
217,172,96306,1,0,0:0:0:0:
216,163,96377,5,8,0:0:0:0:
261,154,96448,1,8,0:0:0:0:
288,117,96519,1,8,0:0:0:0:
281,71,96591,1,8,0:0:0:0:
244,44,96662,1,8,0:0:0:0:
198,50,96734,1,8,0:0:0:0:
171,87,96806,5,6,0:0:0:0:
164,54,96877,1,0,0:0:0:0:
144,27,96948,1,0,0:0:0:0:
116,11,97020,1,0,0:0:0:0:
82,10,97091,1,2,0:0:0:0:
52,19,97163,1,0,0:0:0:0:
28,42,97234,1,0,0:0:0:0:
16,73,97305,1,0,0:0:0:0:
18,106,97377,1,2,0:0:0:0:
34,136,97448,1,0,0:0:0:0:
60,156,97520,1,0,0:0:0:0:
92,162,97591,1,0,0:0:0:0:
125,156,97663,5,8,0:0:0:0:
116,165,97949,1,2,0:0:0:0:
107,174,98235,1,4,0:0:0:0:
98,184,98521,5,6,0:0:0:0:
131,184,98592,1,0,0:0:0:0:
164,185,98663,1,0,0:0:0:0:
197,186,98735,1,0,0:0:0:0:
230,186,98806,1,2,0:0:0:0:
264,187,98878,1,0,0:0:0:0:
297,188,98949,1,0,0:0:0:0:
330,189,99020,1,0,0:0:0:0:
363,189,99092,1,2,0:0:0:0:
397,190,99163,1,0,0:0:0:0:
430,191,99235,1,0,0:0:0:0:
463,192,99306,1,0,0:0:0:0:
496,193,99377,5,8,0:0:0:0:
505,184,99663,2,0,L|500:130,1,47.5,2|2,0:0|0:0,0:0:0:0:
486,86,99949,2,0,L|497:208,1,106.875004076958,4|0,0:0|0:0,0:0:0:0:
462,288,100235,5,6,0:0:0:0:
456,320,100306,1,0,0:0:0:0:
435,346,100377,1,0,0:0:0:0:
406,360,100449,1,0,0:0:0:0:
373,358,100520,1,2,0:0:0:0:
344,342,100592,1,0,0:0:0:0:
326,314,100663,1,0,0:0:0:0:
303,290,100735,1,0,0:0:0:0:
271,280,100807,1,2,0:0:0:0:
238,286,100878,1,0,0:0:0:0:
213,305,100950,1,0,0:0:0:0:
198,334,101021,1,0,0:0:0:0:
199,368,101092,5,8,0:0:0:0:
186,369,101377,1,2,0:0:0:0:
173,370,101663,1,0,0:0:0:0:
160,371,101949,5,6,0:0:0:0:
127,369,102020,1,0,0:0:0:0:
99,350,102091,1,0,0:0:0:0:
85,320,102163,1,0,0:0:0:0:
88,288,102234,1,2,0:0:0:0:
108,261,102306,1,0,0:0:0:0:
138,248,102377,1,0,0:0:0:0:
170,241,102449,1,0,0:0:0:0:
194,219,102521,1,2,0:0:0:0:
204,188,102592,1,0,0:0:0:0:
196,156,102664,1,0,0:0:0:0:
173,132,102735,1,0,0:0:0:0:
142,123,102806,6,0,B|148:61|148:61|162:48,1,71.25,12|0,0:0|0:0,0:0:0:0:
149,34,103092,2,0,B|133:50|133:50|123:134,1,106.875004076958,2|0,0:0|0:0,0:0:0:0:
104,145,103377,2,0,B|116:45|116:45|160:7,1,142.5,4|0,0:0|0:0,0:0:0:0:
285,56,103663,5,14,0:0:0:0:
317,49,103734,1,0,0:0:0:0:
348,61,103805,1,0,0:0:0:0:
368,86,103877,1,0,0:0:0:0:
372,119,103948,1,2,0:0:0:0:
359,149,104020,1,0,0:0:0:0:
332,168,104091,1,0,0:0:0:0:
301,180,104163,1,0,0:0:0:0:
282,207,104235,1,2,0:0:0:0:
279,239,104306,1,0,0:0:0:0:
294,269,104378,1,0,0:0:0:0:
322,286,104449,1,0,0:0:0:0:
355,287,104520,5,4,0:0:0:0:
354,282,104591,1,0,0:0:0:0:
353,277,104662,1,0,0:0:0:0:
352,272,104734,1,0,0:0:0:0:
351,268,104805,1,0,0:0:0:0:
350,263,104877,1,0,0:0:0:0:
349,258,104948,1,0,0:0:0:0:
349,254,105019,1,0,0:0:0:0:
348,249,105092,5,8,0:0:0:0:
300,250,105163,1,8,0:0:0:0:
253,251,105234,1,8,0:0:0:0:
205,251,105306,1,8,0:0:0:0:
158,252,105377,5,6,0:0:0:0:
143,282,105448,1,0,0:0:0:0:
119,303,105519,1,0,0:0:0:0:
88,314,105591,1,0,0:0:0:0:
55,310,105662,1,2,0:0:0:0:
26,294,105734,1,0,0:0:0:0:
6,268,105805,1,0,0:0:0:0:
0,236,105876,1,0,0:0:0:0:
4,203,105948,1,2,0:0:0:0:
23,176,106019,1,0,0:0:0:0:
51,158,106091,1,0,0:0:0:0:
83,153,106162,1,0,0:0:0:0:
115,162,106234,5,8,0:0:0:0:
112,148,106520,1,2,0:0:0:0:
109,134,106806,1,4,0:0:0:0:
106,120,107092,5,6,0:0:0:0:
132,99,107163,1,0,0:0:0:0:
162,86,107234,1,0,0:0:0:0:
195,83,107306,1,0,0:0:0:0:
228,87,107377,1,2,0:0:0:0:
258,101,107449,1,0,0:0:0:0:
284,122,107520,1,0,0:0:0:0:
313,137,107592,1,0,0:0:0:0:
345,144,107664,1,2,0:0:0:0:
378,142,107735,1,0,0:0:0:0:
410,131,107807,1,0,0:0:0:0:
437,112,107878,1,0,0:0:0:0:
458,87,107949,6,0,B|457:131|457:131|473:161,1,71.25,8|0,0:0|0:0,0:0:0:0:
463,171,108235,2,0,B|446:133|446:133|448:67,1,106.875004076958,2|0,0:0|0:0,0:0:0:0:
440,49,108520,2,0,B|437:140|437:140|459:189,1,142.5,4|0,0:0|0:0,0:0:0:0:
448,363,108806,5,6,0:0:0:0:
419,379,108877,1,0,0:0:0:0:
385,379,108948,1,0,0:0:0:0:
358,363,109020,1,0,0:0:0:0:
341,334,109091,1,2,0:0:0:0:
342,301,109163,1,0,0:0:0:0:
359,273,109234,1,0,0:0:0:0:
369,240,109306,1,0,0:0:0:0:
363,208,109378,1,2,0:0:0:0:
340,184,109449,1,0,0:0:0:0:
310,173,109521,1,0,0:0:0:0:
278,181,109592,1,0,0:0:0:0:
253,203,109663,5,8,0:0:0:0:
253,155,109734,1,8,0:0:0:0:
253,108,109805,1,8,0:0:0:0:
253,60,109877,1,8,0:0:0:0:
253,13,109949,5,4,0:0:0:0:
243,15,110020,1,0,0:0:0:0:
234,17,110091,1,0,0:0:0:0:
225,19,110163,1,0,0:0:0:0:
208,36,110235,5,4,0:0:0:0:
203,34,110306,1,0,0:0:0:0:
198,33,110377,1,0,0:0:0:0:
194,32,110449,1,0,0:0:0:0:
176,15,110520,5,6,0:0:0:0:
197,40,110594,1,8,0:0:0:0:
207,71,110662,1,0,0:0:0:0:
204,104,110737,1,8,0:0:0:0:
190,134,110805,1,0,0:0:0:0:
165,156,110880,1,8,0:0:0:0:
134,168,110948,1,0,0:0:0:0:
101,167,111022,1,8,0:0:0:0:
71,154,111091,1,0,0:0:0:0:
48,130,111164,1,8,0:0:0:0:
35,100,111234,1,0,0:0:0:0:
34,67,111306,1,8,0:0:0:0:
46,36,111377,5,6,0:0:0:0:
79,52,111448,1,8,0:0:0:0:
105,80,111519,1,0,0:0:0:0:
118,116,111591,1,8,0:0:0:0:
118,153,111662,1,0,0:0:0:0:
104,188,111734,1,8,0:0:0:0:
78,216,111806,6,0,L|82:272,1,47.5,2|8,0:0|0:0,0:0:0:0:
3,364,111949,2,0,L|0:316,3,47.5,2|8|0|8,0:0|0:0|0:0|0:0,0:0:0:0:
95,362,112235,5,6,0:0:0:0:
129,338,112306,1,8,0:0:0:0:
172,335,112377,1,0,0:0:0:0:
209,355,112449,1,8,0:0:0:0:
249,365,112520,1,0,0:0:0:0:
290,354,112592,1,8,0:0:0:0:
319,323,112663,6,0,L|332:377,1,47.5,2|8,0:0|0:0,0:0:0:0:
444,384,112806,2,0,L|432:337,3,47.5,2|8|0|8,0:0|0:0|0:0|0:0,0:0:0:0:
383,241,113092,5,6,0:0:0:0:
429,235,113163,1,8,0:0:0:0:
467,207,113234,1,0,0:0:0:0:
483,163,113306,1,8,0:0:0:0:
473,117,113377,1,0,0:0:0:0:
440,84,113449,1,8,0:0:0:0:
395,73,113520,1,0,0:0:0:0:
350,88,113591,1,8,0:0:0:0:
321,124,113663,6,0,L|326:67,1,47.5,8|8,0:0|0:0,0:0:0:0:
251,2,113806,2,0,L|247:49,1,35.625001358986,0|0,0:0|0:0,0:0:0:0:
135,65,113949,6,0,L|189:146,1,95,6|0,0:0|0:0,0:0:0:0:
316,132,114163,1,0,0:0:0:0:
321,124,114235,2,0,L|223:130,1,95,8|0,0:0|0:0,0:0:0:0:
172,247,114449,1,0,0:0:0:0:
176,255,114520,2,0,L|219:167,1,95,8|0,0:0|0:0,0:0:0:0:
195,44,114735,1,0,0:0:0:0:
187,38,114806,6,0,L|193:135,1,95,6|0,0:0|0:0,0:0:0:0:
310,187,115020,1,0,0:0:0:0:
319,182,115092,2,0,L|231:138,1,95,8|0,0:0|0:0,0:0:0:0:
128,214,115306,1,0,0:0:0:0:
128,223,115377,2,0,L|209:168,1,95,8|0,0:0|0:0,0:0:0:0:
250,51,115592,1,0,0:0:0:0:
246,41,115663,6,0,L|202:128,1,95,6|0,0:0|0:0,0:0:0:0:
278,232,115877,1,0,0:0:0:0:
288,232,115949,2,0,L|233:150,1,95,8|0,0:0|0:0,0:0:0:0:
106,164,116163,1,0,0:0:0:0:
102,172,116234,2,0,L|199:165,1,95,8|0,0:0|0:0,0:0:0:0:
294,84,116449,1,0,0:0:0:0:
295,73,116520,6,0,L|213:127,1,95,6|0,0:0|0:0,0:0:0:0:
227,254,116734,1,0,0:0:0:0:
236,259,116806,2,0,L|230:161,1,95,8|0,0:0|0:0,0:0:0:0:
112,109,117020,1,0,0:0:0:0:
105,114,117091,1,8,0:0:0:0:
151,124,117162,1,8,0:0:0:0:
197,135,117233,1,8,0:0:0:0:
243,146,117305,1,8,0:0:0:0:
290,157,117377,6,0,L|344:238,1,95,6|0,0:0|0:0,0:0:0:0:
471,224,117591,1,0,0:0:0:0:
476,216,117663,2,0,L|378:222,1,95,8|0,0:0|0:0,0:0:0:0:
327,339,117877,1,0,0:0:0:0:
331,347,117948,2,0,L|374:259,1,95,8|0,0:0|0:0,0:0:0:0:
350,136,118163,1,0,0:0:0:0:
342,130,118234,6,0,L|348:227,1,95,6|0,0:0|0:0,0:0:0:0:
465,279,118448,1,0,0:0:0:0:
474,274,118520,2,0,L|386:230,1,95,8|0,0:0|0:0,0:0:0:0:
283,306,118734,1,0,0:0:0:0:
283,315,118805,2,0,L|364:260,1,95,8|0,0:0|0:0,0:0:0:0:
405,143,119020,1,0,0:0:0:0:
401,133,119091,6,0,L|357:220,1,95,6|0,0:0|0:0,0:0:0:0:
433,324,119305,1,0,0:0:0:0:
443,324,119377,2,0,L|388:242,1,95,8|0,0:0|0:0,0:0:0:0:
261,256,119591,1,0,0:0:0:0:
257,264,119662,2,0,L|354:257,1,95,8|0,0:0|0:0,0:0:0:0:
449,176,119877,1,0,0:0:0:0:
450,165,119948,6,0,L|368:219,1,95,6|0,0:0|0:0,0:0:0:0:
382,346,120162,1,0,0:0:0:0:
381,336,120234,1,0,0:0:0:0:
380,326,120305,1,0,0:0:0:0:
379,317,120376,1,0,0:0:0:0:
379,307,120448,1,0,0:0:0:0:
378,298,120521,5,8,0:0:0:0:
330,301,120592,1,8,0:0:0:0:
283,304,120663,1,8,0:0:0:0:
235,307,120735,1,8,0:0:0:0:
188,310,120806,6,0,B|180:283|180:283|153:260,2,63.3333333333333,6|0|0,0:0|0:0|0:0,0:0:0:0:
15,282,121092,2,0,B|42:288|42:288|75:276,2,63.3333333333333,8|0|0,0:0|0:0|0:0,0:0:0:0:
125,146,121377,2,0,B|105:166|105:166|99:201,2,63.3333333333333,8|0|0,0:0|0:0|0:0,0:0:0:0:
20,75,121663,5,6,0:0:0:0:
45,76,121758,1,0,0:0:0:0:
70,78,121853,1,0,0:0:0:0:
154,60,121949,1,8,0:0:0:0:
179,61,122044,1,0,0:0:0:0:
204,63,122139,1,0,0:0:0:0:
287,44,122235,1,8,0:0:0:0:
312,45,122330,1,0,0:0:0:0:
337,47,122425,1,0,0:0:0:0:
420,28,122520,6,0,L|408:95,2,63.3333333333333,6|0|0,0:0|0:0|0:0,0:0:0:0:
483,202,122806,2,0,L|430:158,2,63.3333333333333,8|0|0,0:0|0:0|0:0,0:0:0:0:
300,169,123092,2,0,L|364:145,2,63.3333333333333,8|0|0,0:0|0:0|0:0,0:0:0:0:
371,290,123377,5,6,0:0:0:0:
345,288,123472,1,0,0:0:0:0:
320,286,123567,1,0,0:0:0:0:
237,305,123663,1,8,0:0:0:0:
212,304,123758,1,0,0:0:0:0:
187,302,123853,1,0,0:0:0:0:
104,321,123949,6,8,L|110:371,3,47.5
25,268,124235,5,6,0:0:0:0:
49,246,124306,1,0,0:0:0:0:
62,216,124377,1,0,0:0:0:0:
61,183,124449,1,0,0:0:0:0:
45,154,124520,2,0,L|102:155,3,47.5,8|0|0|0,0:0|0:0|0:0|0:0,0:0:0:0:
47,53,124806,2,0,L|0:52,3,47.5,8|0|0|0,0:0|0:0|0:0|0:0,0:0:0:0:
157,51,125092,5,6,0:0:0:0:
190,51,125163,1,0,0:0:0:0:
223,51,125234,1,0,0:0:0:0:
256,52,125306,1,0,0:0:0:0:
289,52,125377,2,0,L|277:102,3,47.5,8|0|0|0,0:0|0:0|0:0|0:0,0:0:0:0:
420,24,125663,5,8,0:0:0:0:
408,70,125734,1,8,0:0:0:0:
397,116,125805,1,8,0:0:0:0:
386,162,125877,1,8,0:0:0:0:
375,208,125949,6,0,B|422:213|422:213|398:309,1,142.5
467,374,126235,1,8,0:0:0:0:
472,351,126306,1,0,0:0:0:0:
478,328,126377,1,0,0:0:0:0:
387,351,126520,1,8,0:0:0:0:
392,328,126591,1,0,0:0:0:0:
398,305,126662,1,0,0:0:0:0:
307,328,126806,6,0,L|336:216,1,95,14|0,0:0|0:0,0:0:0:0:
151,285,127092,2,0,L|262:254,1,95,14|0,0:0|0:0,0:0:0:0:
107,126,127377,1,8,0:0:0:0:
140,159,127448,1,8,0:0:0:0:
174,192,127519,1,8,0:0:0:0:
208,225,127592,1,8,0:0:0:0:
242,259,127663,5,0,0:0:0:0:
241,254,127734,1,0,0:0:0:0:
241,249,127805,1,0,0:0:0:0:
241,244,127877,1,0,0:0:0:0:
241,240,127948,1,0,0:0:0:0:
241,235,128020,1,0,0:0:0:0:
241,230,128091,1,0,0:0:0:0:
242,211,128377,1,0,0:0:0:0:
317,140,128520,6,0,B|325:308|325:308|339:335|339:335|321:328|321:328|273:372|211:348|211:342|211:334|138:300|76:347,1,470.249985649109,14|0,0:0|0:0,0:0:0:0:
10,374,129378,5,2,0:0:0:0:
10,369,129449,1,0,0:0:0:0:
10,364,129520,1,0,0:0:0:0:
10,360,129592,1,0,0:0:0:0:
10,355,129663,1,0,0:0:0:0:
10,350,129735,1,0,0:0:0:0:
10,345,129806,5,0,0:0:0:0:
71,158,129949,1,0,0:0:0:0:
112,351,130092,1,0,0:0:0:0:
26,67,130235,5,10,0:0:0:0:
67,260,130377,1,0,0:0:0:0:
122,95,130520,2,0,P|151:146|139:200,1,95
220,254,130806,2,0,P|246:215|246:168,1,95
236,73,131092,5,0,0:0:0:0:
235,68,131163,1,0,0:0:0:0:
235,63,131234,1,0,0:0:0:0:
235,58,131306,1,0,0:0:0:0:
235,54,131377,1,0,0:0:0:0:
235,49,131449,1,0,0:0:0:0:
235,44,131520,1,0,0:0:0:0:
236,25,131806,1,0,0:0:0:0:
376,63,131949,5,14,0:0:0:0:
249,154,132092,1,0,0:0:0:0:
236,44,132235,1,0,0:0:0:0:
327,171,132378,1,0,0:0:0:0:
379,45,132520,5,2,0:0:0:0:
271,242,132663,1,2,0:0:0:0:
272,289,132734,1,2,0:0:0:0:
274,336,132806,5,6,0:0:0:0:
270,339,132877,1,0,0:0:0:0:
266,342,132948,1,0,0:0:0:0:
263,345,133020,1,0,0:0:0:0:
259,348,133091,1,0,0:0:0:0:
256,351,133163,1,0,0:0:0:0:
252,354,133234,1,0,0:0:0:0:
238,367,133520,1,0,0:0:0:0:
465,362,133663,6,0,B|369:350|369:350|346:373,1,128.249996086121,14|0,0:0|0:0,0:0:0:0:
387,278,133949,1,8,0:0:0:0:
385,230,134020,1,8,0:0:0:0:
384,183,134091,1,8,0:0:0:0:
382,135,134163,1,8,0:0:0:0:
381,88,134235,6,0,L|335:65,3,47.5,4|0|0|0,0:0|0:0|0:0|0:0,0:0:0:0:
455,30,134520,5,2,0:0:0:0:
459,29,134591,1,0,0:0:0:0:
464,29,134662,1,0,0:0:0:0:
469,29,134734,1,0,0:0:0:0:
473,29,134805,1,0,0:0:0:0:
478,29,134877,1,0,0:0:0:0:
483,29,134948,1,0,0:0:0:0:
503,29,135235,1,0,0:0:0:0:
466,141,135377,6,0,B|460:165|460:165|471:208,2,63.3333333333333,8|0|0,0:0|0:0|0:0,0:0:0:0:
392,266,135663,2,0,B|401:228|401:228|395:204,2,63.3333333333333,2|0|0,0:0|0:0|0:0,0:0:0:0:
469,334,135949,2,0,B|459:296|459:296|465:272,2,63.3333333333333,2|0|0,0:0|0:0|0:0,0:0:0:0:
354,378,136235,5,2,0:0:0:0:
350,379,136306,1,0,0:0:0:0:
345,379,136377,1,0,0:0:0:0:
340,379,136449,1,0,0:0:0:0:
336,379,136520,1,0,0:0:0:0:
331,379,136592,1,0,0:0:0:0:
326,379,136663,1,0,0:0:0:0:
306,379,136950,1,0,0:0:0:0:
160,371,137092,6,0,B|171:336|171:336|158:242,1,128.249996086121,10|0,0:0|0:0,0:0:0:0:
52,190,137377,2,0,L|60:249,1,42.7499986953736,2|0,0:0|0:0,0:0:0:0:
250,204,137520,2,0,L|244:162,1,42.7499986953736,2|0,0:0|0:0,0:0:0:0:
158,245,137663,2,0,L|139:94,1,128.249996086121,2|0,0:0|0:0,0:0:0:0:
33,49,137949,5,0,0:0:0:0:
37,48,138020,1,0,0:0:0:0:
42,47,138091,1,0,0:0:0:0:
47,47,138163,1,0,0:0:0:0:
51,46,138234,1,0,0:0:0:0:
56,45,138306,1,0,0:0:0:0:
61,45,138377,1,0,0:0:0:0:
80,41,138663,1,0,0:0:0:0:
208,0,138806,6,0,B|217:23|221:65|205:92|205:92|282:59|282:59|344:118|344:118|269:162|269:162|314:167|314:167|350:194|354:239,1,470.249985649109,6|0,0:0|0:0,0:0:0:0:
306,302,139663,5,6,0:0:0:0:
307,306,139734,1,0,0:0:0:0:
309,310,139805,1,0,0:0:0:0:
311,315,139877,1,0,0:0:0:0:
312,319,139948,1,0,0:0:0:0:
314,324,140020,1,0,0:0:0:0:
316,328,140091,1,0,0:0:0:0:
324,347,140377,1,0,0:0:0:0:
422,364,140520,6,0,B|390:268|390:268|401:235,1,128.249996086121
501,280,140806,1,8,0:0:0:0:
486,234,140877,1,8,0:0:0:0:
471,189,140948,1,8,0:0:0:0:
456,144,141020,1,8,0:0:0:0:
441,99,141092,6,0,L|455:53,3,47.5,4|0|0|0,0:0|0:0|0:0|0:0,0:0:0:0:
313,85,141377,5,6,0:0:0:0:
321,99,141473,2,0,B|320:56|320:56|326:28,1,63.3333333333333
372,173,141663,5,2,0:0:0:0:
380,159,141759,2,0,B|379:201|379:201|385:230,1,63.3333333333333
258,182,141949,5,2,0:0:0:0:
225,163,142044,1,0,0:0:0:0:
187,161,142139,1,0,0:0:0:0:
210,213,142234,5,6,0:0:0:0:
203,228,142330,2,0,L|181:140,1,69.6666687927247
37,160,142520,5,6,0:0:0:0:
44,175,142616,2,0,L|66:87,1,69.6666687927247
59,349,142806,5,2,0:0:0:0:
98,318,142901,1,0,0:0:0:0:
148,312,142996,1,0,0:0:0:0:
208,363,143091,5,6,0:0:0:0:
224,366,143187,2,0,B|218:336|218:336|230:282,1,75.9999976806641
395,381,143377,5,2,0:0:0:0:
379,384,143473,2,0,B|385:354|385:354|373:300,1,75.9999976806641
300,193,143663,5,2,0:0:0:0:
331,139,143758,1,0,0:0:0:0:
327,76,143853,1,0,0:0:0:0:
271,20,143948,5,6,0:0:0:0:
261,32,144044,2,0,L|356:28,1,82.3333295644126
490,96,144235,5,2,0:0:0:0:
500,107,144331,2,0,L|405:103,1,82.3333295644126
248,117,144520,5,2,0:0:0:0:
172,113,144615,1,0,0:0:0:0:
96,110,144710,1,0,0:0:0:0:
20,107,144806,6,0,L|26:156,2,37.9999988403321,6|0|0,0:0|0:0|0:0,0:0:0:0:
139,243,145092,5,2,0:0:0:0:
125,250,145187,2,0,L|135:177,1,63.3333333333333
40,348,145377,5,2,0:0:0:0:
73,330,145472,1,0,0:0:0:0:
110,326,145567,1,0,0:0:0:0:
173,362,145662,5,6,0:0:0:0:
187,374,145758,2,0,B|179:332|179:332|181:282,1,69.6666687927247
291,347,145949,5,2,0:0:0:0:
365,384,146044,1,0,0:0:0:0:
444,357,146139,1,0,0:0:0:0:
478,280,146234,1,2,0:0:0:0:
448,203,146329,1,0,0:0:0:0:
370,171,146425,1,0,0:0:0:0:
289,194,146520,5,6,0:0:0:0:
294,138,146615,1,0,0:0:0:0:
299,82,146710,1,0,0:0:0:0:
304,26,146806,5,2,0:0:0:0:
279,60,146901,1,0,0:0:0:0:
255,94,146996,1,0,0:0:0:0:
231,128,147092,5,2,0:0:0:0:
233,100,147187,1,0,0:0:0:0:
236,72,147282,1,0,0:0:0:0:
238,44,147377,6,0,B|214:46|214:46|223:-3,2,69.6666687927247,6|0|0,0:0|0:0|0:0,0:0:0:0:
119,33,147663,2,0,B|143:31|143:31|134:80,2,69.6666687927247,6|0|0,0:0|0:0|0:0,0:0:0:0:
208,163,147949,2,0,B|184:165|184:165|193:116,2,69.6666687927247,6|0|0,0:0|0:0|0:0,0:0:0:0:
5,150,148235,5,6,0:0:0:0:
18,139,148330,2,0,L|10:213,1,69.6666687927247
111,303,148520,5,2,0:0:0:0:
124,292,148615,2,0,L|116:366,1,69.6666687927247
192,120,148806,5,2,0:0:0:0:
205,109,148901,2,0,L|197:183,1,69.6666687927247
224,366,149092,5,6,0:0:0:0:
237,352,149187,2,0,B|255:340|255:340|320:349,1,75.9999976806641
333,169,149377,5,2,0:0:0:0:
346,183,149472,2,0,B|364:195|364:195|429:186,1,75.9999976806641
428,381,149663,5,2,0:0:0:0:
441,367,149758,2,0,B|459:355|459:355|524:364,1,75.9999976806641
331,254,149949,5,6,0:0:0:0:
348,265,150044,2,0,L|345:167,1,82.3333295644126
168,145,150235,5,2,0:0:0:0:
149,154,150330,2,0,L|235:200,1,82.3333295644126
343,58,150520,5,2,0:0:0:0:
345,37,150615,2,0,L|262:88,1,82.3333295644126
157,248,150806,5,6,0:0:0:0:
147,268,150901,2,0,B|91:281|91:281|51:276,1,88.6666639607748
43,60,151092,5,6,0:0:0:0:
53,40,151187,2,0,B|109:27|109:27|149:32,1,88.6666639607748
115,355,151377,5,6,0:0:0:0:
105,375,151472,2,0,B|49:388|49:388|9:383,1,88.6666639607748
223,357,151663,6,0,L|228:300,3,47.5,4|0|10|0,0:0|0:0|0:0|0:0,0:0:0:0:
324,380,151949,5,4,0:0:0:0:
317,320,152020,1,0,0:0:0:0:
360,280,152091,1,10,0:0:0:0:
419,291,152163,1,0,0:0:0:0:
445,344,152235,6,0,L|491:315,3,47.5,4|0|10|0,0:0|0:0|0:0|0:0,0:0:0:0:
467,203,152520,5,4,0:0:0:0:
393,201,152591,1,0,0:0:0:0:
351,141,152662,1,10,0:0:0:0:
374,71,152734,1,0,0:0:0:0:
443,48,152806,5,4,0:0:0:0:
417,98,152877,1,0,0:0:0:0:
368,127,152948,1,10,0:0:0:0:
312,125,153020,1,0,0:0:0:0:
265,94,153092,5,4,0:0:0:0:
231,62,153163,1,0,0:0:0:0:
185,56,153234,1,10,0:0:0:0:
143,78,153306,1,0,0:0:0:0:
122,119,153377,6,0,L|113:42,3,59.375,6|0|0|0,0:0|0:0|0:0|0:0,0:0:0:0:
19,196,153663,1,4,3:0:0:0:
6,92,153806,1,4,3:0:0:0:
122,119,153949,1,4,3:0:0:0:
6,272,154092,2,0,L|-4:194,1,47.5
176,271,154235,6,0,L|168:329,3,59.375,6|0|0|0,0:0|0:0|0:0|0:0,0:0:0:0:
297,192,154520,1,4,3:0:0:0:
400,307,154663,1,0,3:0:0:0:
404,278,154734,1,0,0:0:0:0:
408,249,154805,1,4,0:0:0:0:
305,364,154949,1,4,3:0:0:0:
457,53,155092,6,0,B|437:79|441:107|441:107|416:90|383:87|383:87|344:132|260:132|225:92,1,292.124991085053,6|0,0:0|0:0,0:0:0:0:
197,3,158092,5,4,0:0:0:0:
153,157,158235,1,0,0:0:0:0:
41,41,158377,1,0,0:0:0:0:
228,95,158520,5,6,0:0:0:0:
228,95,159806,5,8,0:0:0:0:
184,249,159949,1,0,0:0:0:0:
72,133,160091,1,0,0:0:0:0:
259,187,160235,6,0,B|297:207|297:207|383:206,1,118.75,14|0,0:0|0:0,0:0:0:0:
512,133,160520,2,0,B|386:132,1,118.75,14|0,0:0|0:0,0:0:0:0:
228,95,160806,2,0,B|266:75|266:75|352:76,1,118.75,14|0,0:0|0:0,0:0:0:0:
483,28,161092,6,14,L|413:29,3,59.375,0|0|0|0,0:0|0:0|0:0|0:0,0:0:0:0:
344,49,161377,5,4,0:0:0:0:
320,49,161448,1,0,0:0:0:0:
296,49,161519,1,0,0:0:0:0:
272,49,161592,1,0,0:0:0:0:
231,66,161663,5,4,0:0:0:0:
219,66,161734,1,0,0:0:0:0:
207,66,161805,1,0,0:0:0:0:
195,66,161877,1,0,0:0:0:0:
154,83,161949,6,0,B|166:115|166:115|160:203,1,118.75,12|0,0:0|0:0,0:0:0:0:
239,283,162235,2,0,L|248:154,1,118.75,2|0,0:0|0:0,0:0:0:0:
74,173,162520,1,2,0:0:0:0:
248,151,162663,1,0,0:0:0:0:
46,272,162806,6,0,B|90:278|90:278|173:258,1,118.75,6|0,0:0|0:0,0:0:0:0:
39,373,163092,2,0,L|167:342,1,118.75,2|0,0:0|0:0,0:0:0:0:
80,190,163377,1,2,0:0:0:0:
239,283,163520,1,0,0:0:0:0:
245,311,163591,1,0,0:0:0:0:
252,340,163663,6,0,B|288:320|288:320|374:325,1,118.75,14|0,0:0|0:0,0:0:0:0:
322,220,163949,2,0,L|451:227,1,118.75,2|0,0:0|0:0,0:0:0:0:
476,342,164235,1,2,0:0:0:0:
407,149,164377,1,0,0:0:0:0:
260,293,164520,5,8,0:0:0:0:
228,258,164591,1,8,0:0:0:0:
218,212,164662,1,8,0:0:0:0:
234,168,164734,1,8,0:0:0:0:
270,139,164806,6,0,L|268:85,1,47.5,4|0,0:0|0:0,0:0:0:0:
192,12,164949,1,8,0:0:0:0:
138,166,165092,5,4,0:0:0:0:
138,154,165163,1,0,0:0:0:0:
137,142,165234,1,0,0:0:0:0:
137,130,165306,1,0,0:0:0:0:
137,119,165377,6,0,B|140:93|140:93|135:65,2,50.6666666666667,14|0|0,0:0|0:0|0:0,0:0:0:0:
60,121,165663,2,0,B|63:95|63:95|58:67,2,50.6666666666667
16,201,165949,5,2,0:0:0:0:
25,224,166044,1,0,0:0:0:0:
25,249,166139,1,0,0:0:0:0:
10,337,166235,6,0,L|70:326,2,50.6666666666667,6|0|0,0:0|0:0|0:0,0:0:0:0:
146,360,166520,5,0,0:0:0:0:
155,355,166615,1,0,0:0:0:0:
164,352,166710,1,0,0:0:0:0:
174,352,166805,1,0,0:0:0:0:
184,353,166900,1,0,0:0:0:0:
194,356,166996,1,0,0:0:0:0:
221,372,167092,6,0,L|216:314,3,38,4|0|0|0,0:0|0:0|0:0|0:0,0:0:0:0:
309,373,167377,2,0,L|304:315,3,38,4|0|0|0,0:0|0:0|0:0|0:0,0:0:0:0:
397,374,167664,5,12,0:0:0:0:
395,355,167735,1,0,0:0:0:0:
393,336,167806,1,0,0:0:0:0:
392,317,167878,1,0,0:0:0:0:
390,298,167949,6,0,B|424:319|424:319|403:252|419:167|419:167|397:178|397:178|459:151|473:56|395:15,1,391.875014948845,6|0,0:0|0:0,0:0:0:0:
351,96,168806,5,6,0:0:0:0:
330,122,168877,1,0,0:0:0:0:
302,138,168948,1,0,0:0:0:0:
269,142,169020,1,0,0:0:0:0:
237,134,169091,1,2,0:0:0:0:
211,113,169163,1,0,0:0:0:0:
195,85,169234,1,0,0:0:0:0:
173,60,169306,1,0,0:0:0:0:
143,45,169378,1,2,0:0:0:0:
110,43,169449,1,0,0:0:0:0:
79,54,169521,1,0,0:0:0:0:
54,77,169592,1,0,0:0:0:0:
40,106,169663,5,8,0:0:0:0:
35,88,169949,1,2,0:0:0:0:
30,70,170235,1,4,0:0:0:0:
25,52,170521,5,6,0:0:0:0:
57,48,170592,1,0,0:0:0:0:
90,55,170663,1,0,0:0:0:0:
119,71,170735,1,0,0:0:0:0:
142,95,170806,1,2,0:0:0:0:
157,124,170878,1,0,0:0:0:0:
162,157,170949,1,0,0:0:0:0:
158,190,171021,1,0,0:0:0:0:
144,220,171092,1,2,0:0:0:0:
122,244,171163,1,0,0:0:0:0:
93,261,171235,1,0,0:0:0:0:
61,269,171306,1,0,0:0:0:0:
28,267,171378,5,8,0:0:0:0:
19,279,171663,2,0,L|17:343,1,47.5,2|0,0:0|0:0,0:0:0:0:
25,374,171949,2,0,L|28:261,1,106.875004076958,6|0,0:0|0:0,0:0:0:0:
16,172,172235,5,6,0:0:0:0:
43,191,172306,1,0,0:0:0:0:
72,206,172377,1,0,0:0:0:0:
103,218,172449,1,0,0:0:0:0:
135,227,172520,1,2,0:0:0:0:
168,232,172592,1,0,0:0:0:0:
201,232,172663,1,0,0:0:0:0:
234,229,172735,1,0,0:0:0:0:
267,222,172806,1,2,0:0:0:0:
298,211,172877,1,0,0:0:0:0:
328,197,172949,1,0,0:0:0:0:
356,179,173020,1,0,0:0:0:0:
382,158,173092,5,8,0:0:0:0:
382,139,173377,1,2,0:0:0:0:
382,120,173663,1,0,0:0:0:0:
382,101,173949,5,6,0:0:0:0:
414,103,174020,1,0,0:0:0:0:
444,117,174091,1,0,0:0:0:0:
467,140,174163,1,0,0:0:0:0:
480,171,174234,1,2,0:0:0:0:
481,204,174306,1,0,0:0:0:0:
469,235,174377,1,0,0:0:0:0:
448,260,174449,1,0,0:0:0:0:
418,275,174520,1,2,0:0:0:0:
385,279,174591,1,0,0:0:0:0:
353,270,174663,1,0,0:0:0:0:
327,250,174734,1,0,0:0:0:0:
309,222,174806,6,0,L|222:222,1,71.25,12|0,0:0|0:0,0:0:0:0:
219,206,175092,2,0,L|348:206,1,106.875004076958,2|0,0:0|0:0,0:0:0:0:
342,185,175377,2,0,L|192:185,1,142.5,4|0,0:0|0:0,0:0:0:0:
99,196,175663,5,14,0:0:0:0:
130,186,175734,1,0,0:0:0:0:
155,166,175805,1,0,0:0:0:0:
171,137,175877,1,0,0:0:0:0:
173,104,175950,1,2,0:0:0:0:
162,73,176020,1,0,0:0:0:0:
139,49,176091,1,0,0:0:0:0:
109,37,176163,1,0,0:0:0:0:
76,37,176235,1,2,0:0:0:0:
46,51,176305,1,0,0:0:0:0:
25,75,176377,1,0,0:0:0:0:
14,107,176448,1,0,0:0:0:0:
18,139,176520,5,4,0:0:0:0:
22,137,176591,1,0,0:0:0:0:
27,136,176662,1,0,0:0:0:0:
31,134,176734,1,0,0:0:0:0:
36,133,176805,1,0,0:0:0:0:
40,131,176877,1,0,0:0:0:0:
45,130,176948,1,0,0:0:0:0:
49,129,177020,1,0,0:0:0:0:
54,127,177092,5,8,0:0:0:0:
50,174,177163,1,8,0:0:0:0:
46,221,177234,1,8,0:0:0:0:
42,269,177306,1,8,0:0:0:0:
38,316,177377,5,6,0:0:0:0:
61,292,177448,1,0,0:0:0:0:
91,277,177519,1,0,0:0:0:0:
123,274,177591,1,0,0:0:0:0:
156,282,177662,1,2,0:0:0:0:
183,301,177734,1,0,0:0:0:0:
202,328,177805,1,0,0:0:0:0:
226,350,177877,1,0,0:0:0:0:
256,363,177949,1,2,0:0:0:0:
289,364,178020,1,0,0:0:0:0:
321,354,178092,1,0,0:0:0:0:
347,333,178163,1,0,0:0:0:0:
364,305,178234,5,8,0:0:0:0:
383,303,178520,1,2,0:0:0:0:
402,301,178806,1,4,0:0:0:0:
421,299,179092,5,6,0:0:0:0:
410,331,179163,1,0,0:0:0:0:
387,354,179234,1,0,0:0:0:0:
357,367,179306,1,0,0:0:0:0:
324,366,179377,1,2,0:0:0:0:
293,352,179449,1,0,0:0:0:0:
272,327,179520,1,0,0:0:0:0:
263,295,179592,1,0,0:0:0:0:
268,263,179663,1,2,0:0:0:0:
286,235,179734,1,0,0:0:0:0:
314,217,179806,1,0,0:0:0:0:
346,212,179877,1,0,0:0:0:0:
378,220,179949,6,0,B|371:180|371:180|380:150,1,71.25,8|0,0:0|0:0,0:0:0:0:
397,130,180235,2,0,B|382:183|382:183|392:237,1,106.875004076958,2|0,0:0|0:0,0:0:0:0:
405,252,180520,2,0,B|391:182|391:182|421:96,1,142.5,4|0,0:0|0:0,0:0:0:0:
500,82,180806,5,6,0:0:0:0:
466,83,180877,1,0,0:0:0:0:
433,84,180948,1,0,0:0:0:0:
400,85,181020,1,0,0:0:0:0:
367,86,181091,1,2,0:0:0:0:
333,87,181163,1,0,0:0:0:0:
300,88,181234,1,0,0:0:0:0:
267,89,181306,1,0,0:0:0:0:
234,91,181377,1,2,0:0:0:0:
200,92,181448,1,0,0:0:0:0:
167,93,181520,1,0,0:0:0:0:
134,94,181591,1,0,0:0:0:0:
101,95,181663,6,0,L|113:35,1,47.5,8|8,0:0|0:0,0:0:0:0:
28,157,181806,1,4,0:0:0:0:
28,161,181877,1,0,0:0:0:0:
29,166,181948,1,0,0:0:0:0:
30,170,182020,1,0,0:0:0:0:
31,175,182092,6,0,L|19:235,1,47.5,8|0,0:0|0:0,0:0:0:0:
3,306,182235,1,8,0:0:0:0:
7,306,182306,1,0,0:0:0:0:
12,307,182377,1,0,0:0:0:0:
16,308,182449,1,0,0:0:0:0:
21,309,182521,5,6,0:0:0:0:
43,285,182592,1,0,0:0:0:0:
73,269,182663,1,0,0:0:0:0:
105,263,182735,1,0,0:0:0:0:
138,268,182806,1,2,0:0:0:0:
168,283,182878,1,0,0:0:0:0:
191,306,182949,1,0,0:0:0:0:
218,323,183020,1,0,0:0:0:0:
250,332,183092,1,2,0:0:0:0:
283,330,183163,1,0,0:0:0:0:
314,317,183235,1,0,0:0:0:0:
339,296,183306,1,0,0:0:0:0:
357,268,183377,5,8,0:0:0:0:
363,286,183663,1,2,0:0:0:0:
369,304,183949,1,4,0:0:0:0:
375,322,184235,5,6,0:0:0:0:
407,327,184306,1,0,0:0:0:0:
439,321,184377,1,0,0:0:0:0:
467,303,184449,1,0,0:0:0:0:
486,276,184520,1,2,0:0:0:0:
494,244,184592,1,0,0:0:0:0:
490,211,184663,1,0,0:0:0:0:
474,183,184735,1,0,0:0:0:0:
448,162,184806,1,2,0:0:0:0:
416,152,184877,1,0,0:0:0:0:
384,154,184949,1,0,0:0:0:0:
354,169,185020,1,0,0:0:0:0:
332,193,185092,5,8,0:0:0:0:
326,210,185377,2,0,L|320:146,1,47.5,2|0,0:0|0:0,0:0:0:0:
310,120,185663,2,0,L|321:240,1,106.875004076958,4|0,0:0|0:0,0:0:0:0:
261,333,185949,5,6,0:0:0:0:
265,300,186020,1,0,0:0:0:0:
257,268,186091,1,0,0:0:0:0:
238,240,186163,1,0,0:0:0:0:
211,221,186234,1,2,0:0:0:0:
179,213,186306,1,0,0:0:0:0:
146,217,186377,1,0,0:0:0:0:
117,233,186449,1,0,0:0:0:0:
95,257,186520,1,2,0:0:0:0:
84,288,186591,1,0,0:0:0:0:
84,321,186663,1,0,0:0:0:0:
96,352,186734,1,0,0:0:0:0:
118,377,186806,5,8,0:0:0:0:
135,368,187092,2,0,L|127:319,1,47.5,2|2,0:0|0:0,0:0:0:0:
152,359,187377,1,4,0:0:0:0:
169,350,187663,5,6,0:0:0:0:
198,363,187734,1,0,0:0:0:0:
230,357,187805,1,0,0:0:0:0:
253,333,187877,1,0,0:0:0:0:
257,300,187948,1,2,0:0:0:0:
241,271,188020,1,0,0:0:0:0:
212,257,188091,1,0,0:0:0:0:
186,236,188163,1,0,0:0:0:0:
176,205,188235,1,2,0:0:0:0:
187,174,188306,1,0,0:0:0:0:
214,155,188378,1,0,0:0:0:0:
247,156,188449,1,0,0:0:0:0:
273,175,188520,6,0,B|270:150|270:150|295:101,1,71.25,8|0,0:0|0:0,0:0:0:0:
309,94,188806,2,0,B|279:153|279:153|287:211,1,106.875004076958,2|0,0:0|0:0,0:0:0:0:
299,220,189092,2,0,B|288:156|288:156|328:72,1,142.5,4|0,0:0|0:0,0:0:0:0:
411,40,189377,5,6,0:0:0:0:
385,61,189448,1,0,0:0:0:0:
356,76,189519,1,0,0:0:0:0:
323,82,189591,1,0,0:0:0:0:
290,79,189662,1,2,0:0:0:0:
259,68,189734,1,0,0:0:0:0:
231,50,189805,1,0,0:0:0:0:
200,37,189877,1,0,0:0:0:0:
167,33,189949,1,2,0:0:0:0:
134,37,190020,1,0,0:0:0:0:
104,50,190092,1,0,0:0:0:0:
77,70,190163,1,0,0:0:0:0:
57,97,190235,5,4,0:0:0:0:
56,92,190306,1,0,0:0:0:0:
55,87,190377,1,0,0:0:0:0:
54,82,190449,1,0,0:0:0:0:
53,78,190520,1,0,0:0:0:0:
52,73,190592,1,0,0:0:0:0:
52,68,190663,1,0,0:0:0:0:
51,64,190735,1,0,0:0:0:0:
50,59,190806,5,8,0:0:0:0:
17,92,190877,1,8,0:0:0:0:
5,137,190948,1,8,0:0:0:0:
17,183,191020,1,8,0:0:0:0:
51,215,191092,5,6,0:0:0:0:
23,232,191163,1,0,0:0:0:0:
4,260,191234,1,0,0:0:0:0:
0,292,191306,1,0,0:0:0:0:
5,324,191377,1,2,0:0:0:0:
24,351,191449,1,0,0:0:0:0:
53,368,191520,1,0,0:0:0:0:
85,373,191592,1,0,0:0:0:0:
117,365,191663,1,2,0:0:0:0:
143,344,191734,1,0,0:0:0:0:
159,315,191806,1,0,0:0:0:0:
162,282,191877,1,0,0:0:0:0:
152,251,191949,5,8,0:0:0:0:
169,242,192235,2,0,L|161:193,1,47.5,2|2,0:0|0:0,0:0:0:0:
186,233,192520,1,4,0:0:0:0:
203,224,192806,5,6,0:0:0:0:
215,253,192877,1,0,0:0:0:0:
240,274,192948,1,0,0:0:0:0:
272,282,193020,1,0,0:0:0:0:
305,275,193091,1,2,0:0:0:0:
330,255,193163,1,0,0:0:0:0:
345,226,193234,1,0,0:0:0:0:
365,200,193306,1,0,0:0:0:0:
394,186,193378,1,2,0:0:0:0:
428,186,193449,1,0,0:0:0:0:
457,200,193521,1,0,0:0:0:0:
477,226,193592,1,0,0:0:0:0:
483,257,193663,6,0,L|480:340,1,71.25,8|0,0:0|0:0,0:0:0:0:
467,340,193949,2,0,L|471:227,1,106.875004076958,2|0,0:0|0:0,0:0:0:0:
457,214,194235,2,0,L|451:362,1,142.5,4|0,0:0|0:0,0:0:0:0:
307,369,194520,5,6,0:0:0:0:
335,352,194591,1,0,0:0:0:0:
357,327,194662,1,0,0:0:0:0:
369,296,194734,1,0,0:0:0:0:
370,263,194805,1,2,0:0:0:0:
360,232,194877,1,0,0:0:0:0:
340,205,194948,1,0,0:0:0:0:
312,187,195020,1,0,0:0:0:0:
280,179,195091,1,2,0:0:0:0:
247,183,195162,1,0,0:0:0:0:
217,197,195234,1,0,0:0:0:0:
194,220,195305,1,0,0:0:0:0:
180,250,195377,6,0,L|143:208,1,47.5,8|8,0:0|0:0,0:0:0:0:
117,303,195520,1,0,0:0:0:0:
113,306,195591,1,0,0:0:0:0:
109,309,195663,6,0,L|72:267,1,47.5,8|8,0:0|0:0,0:0:0:0:
46,362,195806,1,0,0:0:0:0:
42,365,195877,1,0,0:0:0:0:
38,368,195949,6,0,L|1:326,1,47.5,8|8,0:0|0:0,0:0:0:0:
77,273,196092,1,0,0:0:0:0:
73,276,196163,1,0,0:0:0:0:
69,279,196235,6,0,L|8:210,1,90.25,6|8,0:0|0:0,0:0:0:0:
37,126,197663,5,0,0:0:0:0:
52,143,197734,1,0,0:0:0:0:
67,161,197805,1,0,0:0:0:0:
69,279,197949,5,6,0:0:0:0:
65,43,198235,1,4,0:0:0:0:
67,161,198520,5,8,0:0:0:0:
88,185,198591,1,0,0:0:0:0:
110,210,198662,1,0,0:0:0:0:
132,235,198734,1,0,0:0:0:0:
154,260,198806,6,0,L|165:360,1,95,14|0,0:0|0:0,0:0:0:0:
246,172,199092,2,0,L|257:272,1,95,6|0,0:0|0:0,0:0:0:0:
338,84,199377,5,0,0:0:0:0:
340,107,199448,1,0,0:0:0:0:
343,131,199519,1,0,0:0:0:0:
345,154,199591,1,0,0:0:0:0:
348,178,199663,6,0,B|413:161|434:249|374:272|374:272|386:308|386:308|359:344|389:390,1,266,6|0,0:0|0:0,0:0:0:0:
