osu file format v14

[General]
AudioFilename: The Black Dahlia Murder - What a Horrible Night to Have a Curse [HD] (720p).mp3
AudioLeadIn: 0
PreviewTime: -1
Countdown: 1
SampleSet: None
StackLeniency: 0.7
Mode: 0
LetterboxInBreaks: 0
WidescreenStoryboard: 0

[Editor]
DistanceSpacing: 1.5
BeatDivisor: 4
GridSize: 4
TimelineZoom: 1.8

[Metadata]
Title:What a Horrible Night to Have a Curse
TitleUnicode:What a Horrible Night to Have a Curse
Artist:The Black Dahlia Murder
ArtistUnicode:The Black Dahlia Murder
Creator:Shiny Gliscor
Version:Horror
Source:
Tags:
BeatmapID:841703
BeatmapSetID:385327

[Difficulty]
HPDrainRate:6
CircleSize:5
OverallDifficulty:8
ApproachRate:10
SliderMultiplier:1.7
SliderTickRate:1

[Events]
//Background and Video events
0,0,"183965.jpg",0,0
//Break Periods
//Storyboard Layer 0 (Background)
//Storyboard Layer 1 (Fail)
//Storyboard Layer 2 (Pass)
//Storyboard Layer 3 (Foreground)
//Storyboard Sound Samples

[TimingPoints]
6821,277.777777777778,3,1,0,100,1,0

[HitObjects]
172,120,6821,5,0,0:0:0:0:
172,120,6890,1,0,0:0:0:0:
172,120,6959,1,0,0:0:0:0:
368,208,7098,5,0,0:0:0:0:
368,208,7168,1,0,0:0:0:0:
368,208,7237,1,0,0:0:0:0:
68,184,7654,5,0,0:0:0:0:
68,184,7723,1,0,0:0:0:0:
68,184,7792,1,0,0:0:0:0:
188,300,7932,5,0,0:0:0:0:
188,300,8001,1,0,0:0:0:0:
188,300,8070,1,0,0:0:0:0:
300,208,8209,2,0,P|280:152|280:120,1,85
420,128,8487,5,0,0:0:0:0:
420,128,8556,1,0,0:0:0:0:
420,128,8625,1,0,0:0:0:0:
300,208,8765,5,0,0:0:0:0:
300,208,8834,1,0,0:0:0:0:
300,208,8903,1,0,0:0:0:0:
164,172,9042,2,0,P|184:116|184:84,1,85
68,96,9321,5,0,0:0:0:0:
68,96,9390,1,0,0:0:0:0:
68,96,9459,1,0,0:0:0:0:
184,208,9599,5,0,0:0:0:0:
184,208,9668,1,0,0:0:0:0:
184,208,9737,1,0,0:0:0:0:
304,120,9876,2,0,P|284:64|284:32,1,85
428,52,10154,5,0,0:0:0:0:
428,52,10223,1,0,0:0:0:0:
428,52,10293,1,0,0:0:0:0:
336,140,10432,1,0,0:0:0:0:
336,140,10501,1,0,0:0:0:0:
336,140,10571,1,0,0:0:0:0:
424,260,10709,5,0,0:0:0:0:
312,332,10848,1,0,0:0:0:0:
376,204,10987,1,0,0:0:0:0:
216,220,11126,1,0,0:0:0:0:
352,128,11265,1,0,0:0:0:0:
184,88,11404,1,0,0:0:0:0:
100,192,11543,2,0,P|68:236|60:272,1,85
176,284,11821,5,0,0:0:0:0:
176,284,11890,1,0,0:0:0:0:
176,284,11959,1,0,0:0:0:0:
304,352,12099,5,0,0:0:0:0:
304,352,12168,1,0,0:0:0:0:
304,352,12237,1,0,0:0:0:0:
420,288,12376,2,0,P|400:232|400:200,1,85
268,180,12654,5,0,0:0:0:0:
268,180,12723,1,0,0:0:0:0:
268,180,12792,1,0,0:0:0:0:
364,104,12932,5,0,0:0:0:0:
364,104,13001,1,0,0:0:0:0:
364,104,13070,1,0,0:0:0:0:
484,148,13209,2,0,P|464:204|464:236,1,85
384,312,13487,5,0,0:0:0:0:
384,312,13556,1,0,0:0:0:0:
384,312,13625,1,0,0:0:0:0:
248,232,13765,5,0,0:0:0:0:
248,232,13834,1,0,0:0:0:0:
248,232,13903,1,0,0:0:0:0:
172,136,14043,6,0,L|124:92,2,42.5
296,104,14321,2,0,L|308:60,2,42.5
384,184,14598,2,0,L|432:164,2,42.5
268,232,14876,2,0,B|212:276|212:276|208:300,1,85
332,336,15154,5,0,0:0:0:0:
332,336,15223,1,0,0:0:0:0:
332,336,15293,1,0,0:0:0:0:
456,268,15432,1,0,0:0:0:0:
456,268,15501,1,0,0:0:0:0:
456,268,15571,1,0,0:0:0:0:
408,136,15709,6,0,P|384:88|380:52,1,85
260,64,15987,1,0,0:0:0:0:
260,64,16057,1,0,0:0:0:0:
260,64,16126,1,0,0:0:0:0:
136,140,16265,1,0,0:0:0:0:
136,140,16334,1,0,0:0:0:0:
136,140,16404,1,0,0:0:0:0:
256,248,16543,6,0,P|280:200|284:164,1,85
412,160,16821,1,0,0:0:0:0:
412,160,16891,1,0,0:0:0:0:
412,160,16960,1,0,0:0:0:0:
480,272,17099,1,0,0:0:0:0:
480,272,17168,1,0,0:0:0:0:
480,272,17238,1,0,0:0:0:0:
368,264,17376,5,0,0:0:0:0:
220,332,17515,1,0,0:0:0:0:
316,148,17654,1,0,0:0:0:0:
304,336,17793,1,0,0:0:0:0:
216,216,17932,2,0,P|200:176|160:136,1,85
92,120,18209,6,0,P|124:80|164:60,1,85
264,128,18487,1,0,0:0:0:0:
264,128,18557,1,0,0:0:0:0:
264,128,18626,1,0,0:0:0:0:
388,48,18765,1,0,0:0:0:0:
388,48,18834,1,0,0:0:0:0:
388,48,18904,1,0,0:0:0:0:
400,172,19043,6,0,P|368:212|328:232,1,85
212,160,19321,1,0,0:0:0:0:
212,160,19391,1,0,0:0:0:0:
212,160,19460,1,0,0:0:0:0:
132,244,19599,1,0,0:0:0:0:
132,244,19668,1,0,0:0:0:0:
132,244,19738,1,0,0:0:0:0:
248,272,19876,6,0,P|280:312|320:332,1,85
396,256,20154,1,0,0:0:0:0:
396,256,20224,1,0,0:0:0:0:
396,256,20293,1,0,0:0:0:0:
508,296,20432,1,0,0:0:0:0:
508,296,20501,1,0,0:0:0:0:
508,296,20571,1,0,0:0:0:0:
492,188,20709,6,0,L|504:144,2,42.5
336,80,20987,2,0,L|348:36,2,42.5
160,216,21265,2,0,L|172:172,2,42.5
308,204,21543,5,0,0:0:0:0:
308,204,21612,1,0,0:0:0:0:
308,204,21682,1,0,0:0:0:0:
428,160,21821,1,0,0:0:0:0:
428,160,21890,1,0,0:0:0:0:
428,160,21959,1,0,0:0:0:0:
404,264,22098,2,0,P|400:312|376:344,1,85
280,256,22376,5,0,0:0:0:0:
280,256,22445,1,0,0:0:0:0:
280,256,22515,1,0,0:0:0:0:
160,300,22654,1,0,0:0:0:0:
160,300,22723,1,0,0:0:0:0:
160,300,22792,1,0,0:0:0:0:
184,196,22931,2,0,P|188:148|212:116,1,85
304,184,23209,5,0,0:0:0:0:
304,184,23278,1,0,0:0:0:0:
304,184,23348,1,0,0:0:0:0:
424,228,23487,1,0,0:0:0:0:
424,228,23556,1,0,0:0:0:0:
424,228,23625,1,0,0:0:0:0:
400,124,23764,6,0,P|396:76|372:44,1,85
260,48,24043,5,0,0:0:0:0:
160,156,24182,1,0,0:0:0:0:
344,120,24321,1,0,0:0:0:0:
184,52,24459,1,0,0:0:0:0:
288,192,24598,2,0,P|332:236|368:244,1,85
372,144,24876,5,0,0:0:0:0:
372,144,24945,1,0,0:0:0:0:
372,144,25015,1,0,0:0:0:0:
252,100,25154,1,0,0:0:0:0:
252,100,25223,1,0,0:0:0:0:
252,100,25292,1,0,0:0:0:0:
276,204,25431,2,0,P|280:252|304:284,1,85
408,224,25709,5,0,0:0:0:0:
408,224,25778,1,0,0:0:0:0:
408,224,25848,1,0,0:0:0:0:
288,180,25987,1,0,0:0:0:0:
288,180,26056,1,0,0:0:0:0:
288,180,26125,1,0,0:0:0:0:
272,280,26264,2,0,P|276:328|300:360,1,85
392,288,26543,5,0,0:0:0:0:
392,288,26612,1,0,0:0:0:0:
392,288,26682,1,0,0:0:0:0:
472,220,26821,1,0,0:0:0:0:
472,220,26890,1,0,0:0:0:0:
472,220,26959,1,0,0:0:0:0:
440,120,27098,2,0,P|412:80|408:40,1,85
324,96,27376,5,0,0:0:0:0:
281,91,27445,1,0,0:0:0:0:
239,83,27514,1,0,0:0:0:0:
199,71,27584,1,0,0:0:0:0:
167,91,27653,1,0,0:0:0:0:
142,126,27723,1,0,0:0:0:0:
127,165,27792,1,0,0:0:0:0:
126,208,27862,1,0,0:0:0:0:
151,240,27931,1,0,0:0:0:0:
181,271,28001,1,0,0:0:0:0:
210,302,28070,1,0,0:0:0:0:
203,343,28139,1,0,0:0:0:0:
168,360,28209,6,0,P|116:360|88:328,1,85
36,240,28487,2,0,L|36:196,2,42.5
136,196,28765,2,0,L|172:164,2,42.5
304,44,29043,6,0,P|340:80|380:84,1,85
336,168,29321,2,0,L|320:208,2,42.5
432,232,29598,2,0,L|444:276,2,42.5
252,312,29876,6,0,P|224:272|224:216,1,85
316,144,30154,1,0,0:0:0:0:
316,144,30223,1,0,0:0:0:0:
316,144,30293,1,0,0:0:0:0:
180,92,30432,1,0,0:0:0:0:
180,92,30501,1,0,0:0:0:0:
180,92,30571,1,0,0:0:0:0:
316,144,30987,5,0,0:0:0:0:
316,144,31056,1,0,0:0:0:0:
316,144,31126,1,0,0:0:0:0:
180,92,31265,1,0,0:0:0:0:
180,92,31334,1,0,0:0:0:0:
180,92,31404,1,0,0:0:0:0:
216,200,31543,6,0,P|184:240|144:252,1,85
116,144,31821,1,0,0:0:0:0:
116,144,31890,1,0,0:0:0:0:
116,144,31960,1,0,0:0:0:0:
20,253,32099,1,0,0:0:0:0:
20,253,32168,1,0,0:0:0:0:
20,253,32238,1,0,0:0:0:0:
156,260,32376,6,0,P|188:300|228:312,1,85
256,204,32654,1,0,0:0:0:0:
256,204,32723,1,0,0:0:0:0:
256,204,32793,1,0,0:0:0:0:
352,313,32932,1,0,0:0:0:0:
352,313,33001,1,0,0:0:0:0:
352,313,33071,1,0,0:0:0:0:
452,248,33209,6,0,P|464:198|450:159,1,85
347,201,33487,1,0,0:0:0:0:
347,201,33556,1,0,0:0:0:0:
347,201,33626,1,0,0:0:0:0:
376,59,33765,1,0,0:0:0:0:
376,59,33834,1,0,0:0:0:0:
376,59,33904,1,0,0:0:0:0:
204,44,34043,6,0,B|172:96|172:100|124:88,1,85
64,52,34321,1,0,0:0:0:0:
120,144,34459,2,0,B|128:192|128:192|160:224,1,85
240,152,34737,1,0,0:0:0:0:
248,52,34876,6,0,P|288:20|330:18,1,85
332,130,35154,1,0,0:0:0:0:
332,130,35223,1,0,0:0:0:0:
332,130,35293,1,0,0:0:0:0:
451,48,35432,1,0,0:0:0:0:
451,48,35501,1,0,0:0:0:0:
451,48,35571,1,0,0:0:0:0:
464,160,35709,6,0,P|476:209|462:248,1,85
359,207,35987,1,0,0:0:0:0:
359,207,36056,1,0,0:0:0:0:
359,207,36126,1,0,0:0:0:0:
388,349,36265,1,0,0:0:0:0:
388,349,36334,1,0,0:0:0:0:
388,349,36404,1,0,0:0:0:0:
280,288,36543,2,0,P|216:268|168:280,1,85
192,120,36821,6,0,P|240:88|256:52,1,85
372,140,37098,2,0,P|376:192|396:224,1,85
232,200,37376,2,0,L|228:248,3,42.5
320,240,37654,2,0,L|316:300,3,42.5
408,200,37932,2,0,P|404:148|376:112,1,85
140,48,38209,6,0,L|120:92,2,42.5
276,112,38487,2,0,L|284:156,2,42.5
176,196,38765,2,0,P|164:248|144:292,1,85
312,48,39043,6,0,L|332:92,2,42.5
176,112,39321,2,0,L|168:156,2,42.5
276,196,39599,2,0,P|288:248|308:292,1,85
400,216,39876,5,0,0:0:0:0:
464,48,40015,1,0,0:0:0:0:
328,136,40154,1,0,0:0:0:0:
504,224,40293,1,0,0:0:0:0:
360,312,40432,1,0,0:0:0:0:
252,188,40571,1,0,0:0:0:0:
240,68,40709,1,0,0:0:0:0:
180,192,40848,1,0,0:0:0:0:
168,44,40987,1,0,0:0:0:0:
252,252,41126,1,0,0:0:0:0:
276,132,41265,1,0,0:0:0:0:
340,312,41404,1,0,0:0:0:0:
392,208,41543,5,0,0:0:0:0:
368,80,41682,1,0,0:0:0:0:
484,180,41821,1,0,0:0:0:0:
312,156,41959,1,0,0:0:0:0:
256,48,42098,1,0,0:0:0:0:
132,96,42237,1,0,0:0:0:0:
280,120,42376,1,0,0:0:0:0:
160,24,42515,1,0,0:0:0:0:
64,108,42654,5,0,0:0:0:0:
208,140,42793,1,0,0:0:0:0:
228,28,42932,1,0,0:0:0:0:
152,200,43071,1,0,0:0:0:0:
60,156,43209,1,0,0:0:0:0:
132,296,43348,1,0,0:0:0:0:
24,240,43487,1,0,0:0:0:0:
236,252,43626,1,0,0:0:0:0:
208,352,43765,5,0,0:0:0:0:
320,224,43904,1,0,0:0:0:0:
400,312,44043,1,0,0:0:0:0:
224,196,44182,1,0,0:0:0:0:
336,308,44321,1,0,0:0:0:0:
408,160,44459,1,0,0:0:0:0:
272,256,44598,1,0,0:0:0:0:
304,88,44737,1,0,0:0:0:0:
148,120,44876,5,0,0:0:0:0:
32,200,45015,1,0,0:0:0:0:
88,68,45154,1,0,0:0:0:0:
112,244,45293,1,0,0:0:0:0:
208,180,45432,1,0,0:0:0:0:
208,64,45571,1,0,0:0:0:0:
128,184,45709,1,0,0:0:0:0:
296,92,45848,1,0,0:0:0:0:
432,32,45987,5,0,0:0:0:0:
435,74,46056,1,0,0:0:0:0:
435,116,46125,1,0,0:0:0:0:
432,159,46195,1,0,0:0:0:0:
424,200,46264,1,0,0:0:0:0:
412,241,46334,1,0,0:0:0:0:
396,281,46403,1,0,0:0:0:0:
372,316,46473,1,0,0:0:0:0:
340,344,46543,1,0,0:0:0:0:
300,356,46612,1,0,0:0:0:0:
200,88,46821,6,0,L|120:40,1,85
320,152,47098,2,0,L|416:108,1,85
128,224,47376,2,0,L|104:320,1,85
368,244,47654,2,0,L|448:288,1,85
200,164,47932,1,0,0:0:0:0:
396,140,48209,5,0,0:0:0:0:
288,40,48348,1,0,0:0:0:0:
468,104,48487,1,0,0:0:0:0:
312,200,48626,1,0,0:0:0:0:
452,236,48765,1,0,0:0:0:0:
304,272,48904,1,0,0:0:0:0:
412,160,49043,1,0,0:0:0:0:
324,340,49182,1,0,0:0:0:0:
248,196,49321,1,0,0:0:0:0:
428,296,49459,1,0,0:0:0:0:
280,132,49598,1,0,0:0:0:0:
236,328,49737,1,0,0:0:0:0:
116,140,49876,5,0,0:0:0:0:
224,40,50015,1,0,0:0:0:0:
44,104,50154,1,0,0:0:0:0:
200,200,50293,1,0,0:0:0:0:
60,236,50432,1,0,0:0:0:0:
208,272,50571,1,0,0:0:0:0:
100,160,50710,1,0,0:0:0:0:
188,340,50849,1,0,0:0:0:0:
264,196,50988,1,0,0:0:0:0:
84,296,51126,1,0,0:0:0:0:
232,132,51265,1,0,0:0:0:0:
276,328,51404,1,0,0:0:0:0:
384,204,51543,5,0,0:0:0:0:
352,48,51682,1,0,0:0:0:0:
440,144,51821,1,0,0:0:0:0:
260,84,51959,1,0,0:0:0:0:
192,244,52098,1,0,0:0:0:0:
144,92,52237,1,0,0:0:0:0:
288,212,52376,1,0,0:0:0:0:
56,184,52515,1,0,0:0:0:0:
280,148,52654,1,0,0:0:0:0:
164,320,52793,1,0,0:0:0:0:
204,168,52932,1,0,0:0:0:0:
360,272,53071,1,0,0:0:0:0:
256,80,53209,5,0,0:0:0:0:
104,248,53487,5,0,0:0:0:0:
88,208,53556,1,0,0:0:0:0:
82,166,53625,1,0,0:0:0:0:
88,124,53695,1,0,0:0:0:0:
104,88,53765,1,0,0:0:0:0:
126,123,53834,1,0,0:0:0:0:
163,142,53903,1,0,0:0:0:0:
205,140,53973,1,0,0:0:0:0:
224,100,54043,5,0,0:0:0:0:
228,58,54112,1,0,0:0:0:0:
260,31,54181,1,0,0:0:0:0:
301,31,54251,1,0,0:0:0:0:
340,56,54321,1,0,0:0:0:0:
366,87,54390,1,0,0:0:0:0:
408,90,54459,1,0,0:0:0:0:
439,64,54529,1,0,0:0:0:0:
484,56,54598,1,0,0:0:0:0:
