osu file format v14

[General]
AudioFilename: audio.mp3
AudioLeadIn: 0
PreviewTime: 107896
Countdown: 0
SampleSet: Normal
StackLeniency: 0.7
Mode: 1
LetterboxInBreaks: 0
WidescreenStoryboard: 0

[Editor]
DistanceSpacing: 2.5
BeatDivisor: 12
GridSize: 32
TimelineZoom: 2.5

[Metadata]
Title:What a Horrible Night to Have a Curse
TitleUnicode:What a Horrible Night to Have a Curse
Artist:The Black Dahlia Murder
ArtistUnicode:The Black Dahlia Murder
Creator:Mew104
Version:Blood Moon
Source:
Tags:melodic death metal metalcore castlevania 2 simon's quest
BeatmapID:1765704
BeatmapSetID:844020

[Difficulty]
HPDrainRate:4.5
CircleSize:6.6
OverallDifficulty:7.5
ApproachRate:6.6
SliderMultiplier:1.6
SliderTickRate:1

[Events]
//Background and Video events
0,0,"castlevsotnWlpr5-2560x1600.jpg",0,0
//Break Periods
//Storyboard Layer 0 (Background)
//Storyboard Layer 1 (Fail)
//Storyboard Layer 2 (Pass)
//Storyboard Layer 3 (Foreground)
//Storyboard Sound Samples

[TimingPoints]
703,277.797069240919,3,1,0,100,1,0
41539,-100,3,1,0,100,0,1
46539,-100,3,1,0,100,0,0
48206,-100,3,1,0,100,0,1
54873,-100,3,1,0,100,0,0
81541,-100,3,1,0,100,0,1
108210,-90.9090909090909,3,1,0,100,0,1
109877,-93.7500585937866,3,1,0,100,0,0
109946,-96.774224765879,3,1,0,100,0,0
110016,-100,3,1,0,100,0,0
111544,-90.9090909090909,3,1,0,100,0,1
113210,-93.7500585937866,3,1,0,100,0,0
113280,-96.774224765879,3,1,0,100,0,0
113349,-100,3,1,0,100,0,0
114877,-90.9090909090909,3,1,0,100,0,1
116544,-93.7500585937866,3,1,0,100,0,0
116613,-96.774224765879,3,1,0,100,0,0
116683,-100,3,1,0,100,0,0
168214,-100,3,1,0,100,0,1
173770,-100,3,1,0,100,0,0
174881,-100,3,1,0,100,0,1
201550,-90.9090909090909,3,1,0,100,0,1
203217,-93.7500585937866,3,1,0,100,0,0
203286,-96.774224765879,3,1,0,100,0,0
203355,-100,3,1,0,100,0,0
204883,-90.9090909090909,3,1,0,100,0,1
206550,-93.7500585937866,3,1,0,100,0,0
206620,-96.774224765879,3,1,0,100,0,0
206689,-100,3,1,0,100,0,0
208217,-90.9090909090909,3,1,0,100,0,1
209884,-93.7500585937866,3,1,0,100,0,0
209953,-96.774224765879,3,1,0,100,0,0
210023,-100,3,1,0,100,0,0

[HitObjects]
256,192,6814,5,0,0:0:0:0:
256,192,6883,1,0,0:0:0:0:
256,192,6953,1,0,0:0:0:0:
256,192,7092,1,0,0:0:0:0:
256,192,7161,1,0,0:0:0:0:
256,192,7231,1,0,0:0:0:0:
256,192,7647,1,0,0:0:0:0:
256,192,7717,1,0,0:0:0:0:
256,192,7786,1,0,0:0:0:0:
256,192,7925,1,0,0:0:0:0:
256,192,7995,1,0,0:0:0:0:
256,192,8064,1,0,0:0:0:0:
256,192,8203,1,12,0:0:0:0:
256,192,8342,1,0,0:0:0:0:
256,192,8481,1,0,0:0:0:0:
256,192,8550,1,0,0:0:0:0:
256,192,8620,1,0,0:0:0:0:
256,192,8759,1,0,0:0:0:0:
256,192,8828,1,0,0:0:0:0:
256,192,8898,1,0,0:0:0:0:
256,192,9036,1,12,0:0:0:0:
256,192,9175,1,8,0:0:0:0:
256,192,9314,1,0,0:0:0:0:
256,192,9384,1,0,0:0:0:0:
256,192,9453,1,0,0:0:0:0:
256,192,9592,1,0,0:0:0:0:
256,192,9661,1,0,0:0:0:0:
256,192,9731,1,0,0:0:0:0:
256,192,9870,1,12,0:0:0:0:
256,192,10009,1,0,0:0:0:0:
256,192,10148,1,0,0:0:0:0:
256,192,10217,1,0,0:0:0:0:
256,192,10286,1,0,0:0:0:0:
256,192,10425,1,0,0:0:0:0:
256,192,10495,1,0,0:0:0:0:
256,192,10564,1,0,0:0:0:0:
256,192,10703,1,8,0:0:0:0:
256,192,10773,1,0,0:0:0:0:
256,192,10842,1,0,0:0:0:0:
256,192,10981,1,8,0:0:0:0:
256,192,11050,1,8,0:0:0:0:
256,192,11120,1,0,0:0:0:0:
256,192,11189,1,0,0:0:0:0:
256,192,11259,1,8,0:0:0:0:
256,192,11328,1,8,0:0:0:0:
256,192,11398,1,8,0:0:0:0:
256,192,11537,1,12,0:0:0:0:
256,192,11675,1,0,0:0:0:0:
256,192,11814,1,0,0:0:0:0:
256,192,11884,1,0,0:0:0:0:
256,192,11953,1,0,0:0:0:0:
256,192,12092,1,0,0:0:0:0:
256,192,12162,1,0,0:0:0:0:
256,192,12231,1,0,0:0:0:0:
256,192,12370,1,12,0:0:0:0:
256,192,12509,1,8,0:0:0:0:
256,192,12648,1,0,0:0:0:0:
256,192,12717,1,0,0:0:0:0:
256,192,12787,1,0,0:0:0:0:
256,192,12926,1,0,0:0:0:0:
256,192,12995,1,0,0:0:0:0:
256,192,13064,1,0,0:0:0:0:
256,192,13203,1,12,0:0:0:0:
256,192,13342,1,0,0:0:0:0:
256,192,13481,1,0,0:0:0:0:
256,192,13551,1,0,0:0:0:0:
256,192,13620,1,0,0:0:0:0:
256,192,13759,1,0,0:0:0:0:
256,192,13828,1,0,0:0:0:0:
256,192,13898,1,0,0:0:0:0:
256,192,14037,1,0,0:0:0:0:
256,192,14106,1,8,0:0:0:0:
256,192,14176,1,0,0:0:0:0:
256,192,14315,1,8,0:0:0:0:
256,192,14384,1,0,0:0:0:0:
256,192,14453,1,0,0:0:0:0:
256,192,14592,1,8,0:0:0:0:
256,192,14662,1,8,0:0:0:0:
256,192,14731,1,0,0:0:0:0:
256,192,14870,1,12,0:0:0:0:
256,192,15009,1,0,0:0:0:0:
256,192,15148,1,0,0:0:0:0:
256,192,15217,1,0,0:0:0:0:
256,192,15287,1,0,0:0:0:0:
256,192,15426,1,0,0:0:0:0:
256,192,15495,1,0,0:0:0:0:
256,192,15565,1,0,0:0:0:0:
256,192,15704,1,12,0:0:0:0:
256,192,15842,1,8,0:0:0:0:
256,192,15981,1,0,0:0:0:0:
256,192,16051,1,0,0:0:0:0:
256,192,16120,1,0,0:0:0:0:
256,192,16259,1,0,0:0:0:0:
256,192,16329,1,0,0:0:0:0:
256,192,16398,1,0,0:0:0:0:
256,192,16537,1,12,0:0:0:0:
256,192,16676,1,0,0:0:0:0:
256,192,16815,1,0,0:0:0:0:
256,192,16884,1,0,0:0:0:0:
256,192,16954,1,0,0:0:0:0:
256,192,17093,1,0,0:0:0:0:
256,192,17162,1,0,0:0:0:0:
256,192,17231,1,0,0:0:0:0:
256,192,17370,1,8,0:0:0:0:
256,192,17440,1,8,0:0:0:0:
256,192,17509,1,0,0:0:0:0:
256,192,17648,1,8,0:0:0:0:
256,192,17718,1,0,0:0:0:0:
256,192,17787,1,0,0:0:0:0:
256,192,17856,1,0,0:0:0:0:
256,192,17926,1,8,0:0:0:0:
256,192,17995,1,8,0:0:0:0:
256,192,18065,1,8,0:0:0:0:
256,192,18204,1,12,0:0:0:0:
256,192,18343,1,0,0:0:0:0:
256,192,18482,1,0,0:0:0:0:
256,192,18551,1,0,0:0:0:0:
256,192,18620,1,0,0:0:0:0:
256,192,18759,1,0,0:0:0:0:
256,192,18829,1,0,0:0:0:0:
256,192,18898,1,0,0:0:0:0:
256,192,19037,1,12,0:0:0:0:
256,192,19176,1,8,0:0:0:0:
256,192,19315,1,0,0:0:0:0:
256,192,19384,1,0,0:0:0:0:
256,192,19454,1,0,0:0:0:0:
256,192,19593,1,0,0:0:0:0:
256,192,19662,1,0,0:0:0:0:
256,192,19732,1,0,0:0:0:0:
256,192,19870,1,12,0:0:0:0:
256,192,20009,1,0,0:0:0:0:
256,192,20148,1,0,0:0:0:0:
256,192,20218,1,0,0:0:0:0:
256,192,20287,1,0,0:0:0:0:
256,192,20426,1,0,0:0:0:0:
256,192,20496,1,0,0:0:0:0:
256,192,20565,1,0,0:0:0:0:
256,192,20704,1,8,0:0:0:0:
256,192,20773,1,8,0:0:0:0:
256,192,20843,1,8,0:0:0:0:
256,192,20982,1,0,0:0:0:0:
256,192,21051,1,0,0:0:0:0:
256,192,21121,1,0,0:0:0:0:
256,192,21259,1,8,0:0:0:0:
256,192,21329,1,8,0:0:0:0:
256,192,21398,1,8,0:0:0:0:
256,192,21537,1,0,0:0:0:0:
256,192,21607,1,0,0:0:0:0:
256,192,21676,1,0,0:0:0:0:
256,192,21815,1,0,0:0:0:0:
256,192,21885,1,0,0:0:0:0:
256,192,21954,1,0,0:0:0:0:
256,192,22093,1,12,0:0:0:0:
256,192,22232,1,0,0:0:0:0:
256,192,22371,1,8,0:0:0:0:
256,192,22440,1,0,0:0:0:0:
256,192,22510,1,0,0:0:0:0:
256,192,22648,1,8,0:0:0:0:
256,192,22718,1,0,0:0:0:0:
256,192,22787,1,0,0:0:0:0:
256,192,22926,1,12,0:0:0:0:
256,192,23065,1,0,0:0:0:0:
256,192,23204,1,8,0:0:0:0:
256,192,23274,1,8,0:0:0:0:
256,192,23343,1,0,0:0:0:0:
256,192,23482,1,8,0:0:0:0:
256,192,23551,1,8,0:0:0:0:
256,192,23621,1,0,0:0:0:0:
256,192,23760,1,12,0:0:0:0:
256,192,23899,1,0,0:0:0:0:
256,192,24037,1,8,0:0:0:0:
256,192,24176,1,8,0:0:0:0:
256,192,24315,1,8,0:0:0:0:
256,192,24454,1,0,0:0:0:0:
256,192,24593,1,8,0:0:0:0:
256,192,24732,1,0,0:0:0:0:
256,192,24871,1,0,0:0:0:0:
256,192,24940,1,0,0:0:0:0:
256,192,25010,1,0,0:0:0:0:
256,192,25149,1,0,0:0:0:0:
256,192,25218,1,0,0:0:0:0:
256,192,25288,1,0,0:0:0:0:
256,192,25426,1,12,0:0:0:0:
256,192,25565,1,0,0:0:0:0:
256,192,25704,1,8,0:0:0:0:
256,192,25774,1,0,0:0:0:0:
256,192,25843,1,0,0:0:0:0:
256,192,25982,1,8,0:0:0:0:
256,192,26051,1,0,0:0:0:0:
256,192,26121,1,0,0:0:0:0:
256,192,26260,1,12,0:0:0:0:
256,192,26399,1,0,0:0:0:0:
256,192,26538,1,8,0:0:0:0:
256,192,26607,1,8,0:0:0:0:
256,192,26677,1,0,0:0:0:0:
256,192,26815,1,8,0:0:0:0:
256,192,26885,1,8,0:0:0:0:
256,192,26954,1,0,0:0:0:0:
256,192,27093,1,12,0:0:0:0:
256,192,27371,1,0,0:0:0:0:
256,192,27440,1,0,0:0:0:0:
256,192,27510,1,0,0:0:0:0:
256,192,27579,1,0,0:0:0:0:
256,192,27649,1,8,0:0:0:0:
256,192,27718,1,8,0:0:0:0:
256,192,27788,1,8,0:0:0:0:
256,192,27857,1,8,0:0:0:0:
256,192,27927,1,0,0:0:0:0:
256,192,27996,1,0,0:0:0:0:
256,192,28066,1,0,0:0:0:0:
256,192,28135,1,0,0:0:0:0:
256,192,28204,1,12,0:0:0:0:
256,192,28343,1,8,0:0:0:0:
256,192,28482,1,0,0:0:0:0:
256,192,28552,1,0,0:0:0:0:
256,192,28621,1,8,0:0:0:0:
256,192,28760,1,0,0:0:0:0:
256,192,28899,1,8,0:0:0:0:
256,192,29038,1,8,0:0:0:0:
256,192,29107,1,8,0:0:0:0:
256,192,29177,1,0,0:0:0:0:
256,192,29246,1,0,0:0:0:0:
256,192,29316,1,8,0:0:0:0:
256,192,29454,1,8,0:0:0:0:
256,192,29593,1,0,0:0:0:0:
256,192,29732,1,8,0:0:0:0:
256,192,29802,1,8,0:0:0:0:
256,192,29871,1,0,0:0:0:0:
256,192,30010,1,8,0:0:0:0:
256,192,30149,1,0,0:0:0:0:
256,192,30218,1,0,0:0:0:0:
256,192,30288,1,8,0:0:0:0:
256,192,30427,1,0,0:0:0:0:
256,192,30496,1,0,0:0:0:0:
256,192,30566,1,8,0:0:0:0:
256,192,30843,1,8,0:0:0:0:
256,192,30982,1,8,0:0:0:0:
256,192,31052,1,8,0:0:0:0:
256,192,31121,1,0,0:0:0:0:
256,192,31191,1,0,0:0:0:0:
256,192,31260,1,8,0:0:0:0:
256,192,31330,1,8,0:0:0:0:
256,192,31399,1,0,0:0:0:0:
256,192,31538,1,12,0:0:0:0:
256,192,31677,1,8,0:0:0:0:
256,192,31816,1,0,0:0:0:0:
256,192,31885,1,0,0:0:0:0:
256,192,31955,1,8,0:0:0:0:
256,192,32094,1,0,0:0:0:0:
256,192,32232,1,8,0:0:0:0:
256,192,32302,1,0,0:0:0:0:
256,192,32371,1,8,0:0:0:0:
256,192,32441,1,8,0:0:0:0:
256,192,32510,1,0,0:0:0:0:
256,192,32649,1,0,0:0:0:0:
256,192,32788,1,8,0:0:0:0:
256,192,32858,1,8,0:0:0:0:
256,192,32927,1,0,0:0:0:0:
256,192,33066,1,8,0:0:0:0:
256,192,33205,1,12,0:0:0:0:
256,192,33344,1,8,0:0:0:0:
256,192,33483,1,0,0:0:0:0:
256,192,33552,1,0,0:0:0:0:
256,192,33621,1,8,0:0:0:0:
256,192,33760,1,0,0:0:0:0:
256,192,33830,1,0,0:0:0:0:
256,192,33899,1,0,0:0:0:0:
256,192,34038,1,12,0:0:0:0:
256,192,34177,1,0,0:0:0:0:
256,192,34316,1,12,0:0:0:0:
256,192,34455,1,12,0:0:0:0:
256,192,34594,1,4,0:0:0:0:
256,192,34872,1,12,0:0:0:0:
256,192,35010,1,8,0:0:0:0:
256,192,35149,1,0,0:0:0:0:
256,192,35288,1,8,0:0:0:0:
256,192,35358,1,8,0:0:0:0:
256,192,35427,1,0,0:0:0:0:
256,192,35566,1,8,0:0:0:0:
256,192,35705,1,8,0:0:0:0:
256,192,35774,1,8,0:0:0:0:
256,192,35844,1,0,0:0:0:0:
256,192,35913,1,0,0:0:0:0:
256,192,35983,1,8,0:0:0:0:
256,192,36122,1,0,0:0:0:0:
256,192,36261,1,8,0:0:0:0:
256,192,36330,1,8,0:0:0:0:
256,192,36399,1,8,0:0:0:0:
256,192,36469,1,8,0:0:0:0:
256,192,36538,1,0,0:0:0:0:
256,192,36677,1,8,0:0:0:0:
256,192,36816,1,0,0:0:0:0:
256,192,36886,1,0,0:0:0:0:
256,192,36955,1,8,0:0:0:0:
256,192,37094,1,0,0:0:0:0:
256,192,37233,1,8,0:0:0:0:
256,192,37372,1,8,0:0:0:0:
256,192,37441,1,8,0:0:0:0:
256,192,37511,1,8,0:0:0:0:
256,192,37650,1,0,0:0:0:0:
256,192,37719,1,0,0:0:0:0:
256,192,37788,1,0,0:0:0:0:
256,192,37927,1,8,0:0:0:0:
256,192,37997,1,8,0:0:0:0:
256,192,38066,1,8,0:0:0:0:
256,192,38205,1,4,0:0:0:0:
256,192,38344,1,8,0:0:0:0:
256,192,38483,1,0,0:0:0:0:
256,192,38552,1,0,0:0:0:0:
256,192,38622,1,0,0:0:0:0:
256,192,38761,1,8,0:0:0:0:
256,192,38900,1,0,0:0:0:0:
256,192,39038,1,8,0:0:0:0:
256,192,39108,1,8,0:0:0:0:
256,192,39177,1,0,0:0:0:0:
256,192,39316,1,8,0:0:0:0:
256,192,39386,1,0,0:0:0:0:
256,192,39455,1,0,0:0:0:0:
256,192,39525,1,0,0:0:0:0:
256,192,39594,1,8,0:0:0:0:
256,192,39733,1,0,0:0:0:0:
256,192,39872,1,12,0:0:0:0:
256,192,40011,1,8,0:0:0:0:
256,192,40150,1,8,0:0:0:0:
256,192,40219,1,0,0:0:0:0:
256,192,40289,1,8,0:0:0:0:
256,192,40427,1,8,0:0:0:0:
256,192,40497,1,8,0:0:0:0:
256,192,40566,1,0,0:0:0:0:
256,192,40705,1,8,0:0:0:0:
256,192,40775,1,8,0:0:0:0:
256,192,40844,1,8,0:0:0:0:
256,192,40914,1,8,0:0:0:0:
256,192,40983,1,0,0:0:0:0:
256,192,41053,1,8,0:0:0:0:
256,192,41122,1,8,0:0:0:0:
256,192,41191,1,8,0:0:0:0:
256,192,41261,1,0,0:0:0:0:
256,192,41330,1,0,0:0:0:0:
256,192,41400,1,0,0:0:0:0:
256,192,41469,1,0,0:0:0:0:
256,192,41539,1,12,0:0:0:0:
256,192,41816,1,8,0:0:0:0:
256,192,41886,1,0,0:0:0:0:
256,192,41955,1,8,0:0:0:0:
256,192,42025,1,0,0:0:0:0:
256,192,42094,1,8,0:0:0:0:
256,192,42164,1,0,0:0:0:0:
256,192,42233,1,8,0:0:0:0:
256,192,42303,1,0,0:0:0:0:
256,192,42372,1,8,0:0:0:0:
256,192,42442,1,8,0:0:0:0:
256,192,42511,1,8,0:0:0:0:
256,192,42580,1,0,0:0:0:0:
256,192,42650,1,8,0:0:0:0:
256,192,42719,1,8,0:0:0:0:
256,192,42789,1,0,0:0:0:0:
256,192,42858,1,8,0:0:0:0:
256,192,42928,1,8,0:0:0:0:
256,192,42997,1,0,0:0:0:0:
256,192,43067,1,8,0:0:0:0:
256,192,43136,1,0,0:0:0:0:
256,192,43205,1,8,0:0:0:0:
256,192,43275,1,8,0:0:0:0:
256,192,43344,1,0,0:0:0:0:
256,192,43414,1,0,0:0:0:0:
256,192,43483,1,8,0:0:0:0:
256,192,43553,1,0,0:0:0:0:
256,192,43622,1,8,0:0:0:0:
256,192,43692,1,0,0:0:0:0:
256,192,43761,1,8,0:0:0:0:
256,192,43830,1,0,0:0:0:0:
256,192,43900,1,8,0:0:0:0:
256,192,43969,1,0,0:0:0:0:
256,192,44039,1,8,0:0:0:0:
256,192,44108,1,8,0:0:0:0:
256,192,44178,1,8,0:0:0:0:
256,192,44247,1,0,0:0:0:0:
256,192,44317,1,8,0:0:0:0:
256,192,44386,1,8,0:0:0:0:
256,192,44456,1,0,0:0:0:0:
256,192,44525,1,0,0:0:0:0:
256,192,44594,1,8,0:0:0:0:
256,192,44664,1,8,0:0:0:0:
256,192,44733,1,8,0:0:0:0:
256,192,44803,1,8,0:0:0:0:
256,192,44872,1,8,0:0:0:0:
256,192,44942,1,0,0:0:0:0:
256,192,45011,1,0,0:0:0:0:
256,192,45081,1,0,0:0:0:0:
256,192,45150,1,8,0:0:0:0:
256,192,45219,1,0,0:0:0:0:
256,192,45289,1,8,0:0:0:0:
256,192,45358,1,0,0:0:0:0:
256,192,45428,1,8,0:0:0:0:
256,192,45497,1,0,0:0:0:0:
256,192,45567,1,8,0:0:0:0:
256,192,45636,1,0,0:0:0:0:
256,192,45706,1,8,0:0:0:0:
256,192,45775,1,8,0:0:0:0:
256,192,45845,1,8,0:0:0:0:
256,192,45914,1,0,0:0:0:0:
256,192,45983,1,0,0:0:0:0:
256,192,46053,1,0,0:0:0:0:
256,192,46122,1,8,0:0:0:0:
256,192,46192,1,0,0:0:0:0:
256,192,46261,1,8,0:0:0:0:
256,192,46331,1,8,0:0:0:0:
256,192,46400,1,0,0:0:0:0:
256,192,46470,1,0,0:0:0:0:
256,192,46539,1,12,0:0:0:0:
256,192,46817,1,8,0:0:0:0:
256,192,46886,1,8,0:0:0:0:
256,192,46956,1,0,0:0:0:0:
256,192,47025,1,0,0:0:0:0:
256,192,47095,1,8,0:0:0:0:
256,192,47164,1,0,0:0:0:0:
256,192,47234,1,0,0:0:0:0:
256,192,47303,1,0,0:0:0:0:
256,192,47372,1,8,0:0:0:0:
256,192,47442,1,0,0:0:0:0:
256,192,47511,1,8,0:0:0:0:
256,192,47581,1,0,0:0:0:0:
256,192,47650,1,8,0:0:0:0:
256,192,47720,1,0,0:0:0:0:
256,192,47789,1,0,0:0:0:0:
256,192,47859,1,0,0:0:0:0:
256,192,47928,1,8,0:0:0:0:
256,192,47997,1,8,0:0:0:0:
256,192,48067,1,8,0:0:0:0:
256,192,48136,1,8,0:0:0:0:
256,192,48206,1,4,0:0:0:0:
256,192,48484,1,8,0:0:0:0:
256,192,48553,1,0,0:0:0:0:
256,192,48622,1,8,0:0:0:0:
256,192,48692,1,0,0:0:0:0:
256,192,48761,1,8,0:0:0:0:
256,192,48831,1,0,0:0:0:0:
256,192,48900,1,8,0:0:0:0:
256,192,48970,1,0,0:0:0:0:
256,192,49039,1,8,0:0:0:0:
256,192,49109,1,8,0:0:0:0:
256,192,49178,1,0,0:0:0:0:
256,192,49248,1,8,0:0:0:0:
256,192,49317,1,8,0:0:0:0:
256,192,49386,1,0,0:0:0:0:
256,192,49456,1,8,0:0:0:0:
256,192,49525,1,8,0:0:0:0:
256,192,49595,1,8,0:0:0:0:
256,192,49664,1,0,0:0:0:0:
256,192,49734,1,8,0:0:0:0:
256,192,49803,1,0,0:0:0:0:
256,192,49873,1,8,0:0:0:0:
256,192,49942,1,8,0:0:0:0:
256,192,50011,1,0,0:0:0:0:
256,192,50081,1,0,0:0:0:0:
256,192,50150,1,8,0:0:0:0:
256,192,50220,1,0,0:0:0:0:
256,192,50289,1,8,0:0:0:0:
256,192,50359,1,0,0:0:0:0:
256,192,50428,1,8,0:0:0:0:
256,192,50498,1,0,0:0:0:0:
256,192,50567,1,8,0:0:0:0:
256,192,50637,1,0,0:0:0:0:
256,192,50706,1,8,0:0:0:0:
256,192,50775,1,8,0:0:0:0:
256,192,50845,1,0,0:0:0:0:
256,192,50914,1,8,0:0:0:0:
256,192,50984,1,8,0:0:0:0:
256,192,51053,1,0,0:0:0:0:
256,192,51123,1,0,0:0:0:0:
256,192,51192,1,8,0:0:0:0:
256,192,51262,1,8,0:0:0:0:
256,192,51331,1,0,0:0:0:0:
256,192,51400,1,8,0:0:0:0:
256,192,51470,1,8,0:0:0:0:
256,192,51539,1,8,0:0:0:0:
256,192,51609,1,0,0:0:0:0:
256,192,51678,1,0,0:0:0:0:
256,192,51748,1,0,0:0:0:0:
256,192,51817,1,8,0:0:0:0:
256,192,51887,1,0,0:0:0:0:
256,192,51956,1,8,0:0:0:0:
256,192,52026,1,0,0:0:0:0:
256,192,52095,1,8,0:0:0:0:
256,192,52164,1,0,0:0:0:0:
256,192,52234,1,8,0:0:0:0:
256,192,52303,1,0,0:0:0:0:
256,192,52373,1,8,0:0:0:0:
256,192,52442,1,8,0:0:0:0:
256,192,52512,1,0,0:0:0:0:
256,192,52581,1,0,0:0:0:0:
256,192,52651,1,8,0:0:0:0:
256,192,52720,1,8,0:0:0:0:
256,192,52789,1,8,0:0:0:0:
256,192,52859,1,0,0:0:0:0:
256,192,52928,1,8,0:0:0:0:
256,192,52998,1,0,0:0:0:0:
256,192,53067,1,0,0:0:0:0:
256,192,53137,1,0,0:0:0:0:
256,192,53206,1,12,0:0:0:0:
256,192,53484,1,8,0:0:0:0:
256,192,53553,1,8,0:0:0:0:
256,192,53623,1,0,0:0:0:0:
256,192,53692,1,0,0:0:0:0:
256,192,53762,1,8,0:0:0:0:
256,192,53831,1,0,0:0:0:0:
256,192,53901,1,0,0:0:0:0:
256,192,53970,1,0,0:0:0:0:
256,192,54040,1,8,0:0:0:0:
256,192,54109,1,8,0:0:0:0:
256,192,54178,1,0,0:0:0:0:
256,192,54248,1,0,0:0:0:0:
256,192,54317,1,8,0:0:0:0:
256,192,54387,1,8,0:0:0:0:
256,192,54456,1,0,0:0:0:0:
256,192,54526,1,0,0:0:0:0:
256,192,54595,1,8,0:0:0:0:
256,192,54665,1,8,0:0:0:0:
256,192,54734,1,8,0:0:0:0:
256,192,54803,1,8,0:0:0:0:
256,192,54873,1,4,0:0:0:0:
256,192,55012,1,8,0:0:0:0:
256,192,55151,1,0,0:0:0:0:
256,192,55220,1,0,0:0:0:0:
256,192,55290,1,8,0:0:0:0:
256,192,55429,1,0,0:0:0:0:
256,192,55567,1,8,0:0:0:0:
256,192,55637,1,0,0:0:0:0:
256,192,55706,1,8,0:0:0:0:
256,192,55776,1,8,0:0:0:0:
256,192,55845,1,8,0:0:0:0:
256,192,55984,1,0,0:0:0:0:
256,192,56123,1,8,0:0:0:0:
256,192,56192,1,8,0:0:0:0:
256,192,56262,1,0,0:0:0:0:
256,192,56401,1,8,0:0:0:0:
256,192,56540,1,8,0:0:0:0:
256,192,56609,1,0,0:0:0:0:
256,192,56679,1,0,0:0:0:0:
256,192,56748,1,0,0:0:0:0:
256,192,56818,1,8,0:0:0:0:
256,192,56956,1,0,0:0:0:0:
256,192,57095,1,8,0:0:0:0:
256,192,57165,1,0,0:0:0:0:
256,192,57234,1,0,0:0:0:0:
256,192,57373,1,8,0:0:0:0:
256,192,57443,1,8,0:0:0:0:
256,192,57512,1,8,0:0:0:0:
256,192,57651,1,8,0:0:0:0:
256,192,57720,1,8,0:0:0:0:
256,192,57790,1,0,0:0:0:0:
256,192,57929,1,8,0:0:0:0:
256,192,57998,1,8,0:0:0:0:
256,192,58068,1,0,0:0:0:0:
256,192,58206,1,12,0:0:0:0:
256,192,58345,1,8,0:0:0:0:
256,192,58484,1,0,0:0:0:0:
256,192,58554,1,0,0:0:0:0:
256,192,58623,1,8,0:0:0:0:
256,192,58762,1,0,0:0:0:0:
256,192,58901,1,8,0:0:0:0:
256,192,59040,1,8,0:0:0:0:
256,192,59109,1,8,0:0:0:0:
256,192,59179,1,0,0:0:0:0:
256,192,59248,1,8,0:0:0:0:
256,192,59318,1,0,0:0:0:0:
256,192,59457,1,8,0:0:0:0:
256,192,59526,1,8,0:0:0:0:
256,192,59595,1,0,0:0:0:0:
256,192,59734,1,8,0:0:0:0:
256,192,59873,1,12,0:0:0:0:
256,192,60012,1,8,0:0:0:0:
256,192,60151,1,0,0:0:0:0:
256,192,60221,1,0,0:0:0:0:
256,192,60290,1,8,0:0:0:0:
256,192,60429,1,0,0:0:0:0:
256,192,60498,1,0,0:0:0:0:
256,192,60568,1,8,0:0:0:0:
256,192,60846,1,8,0:0:0:0:
256,192,60984,1,8,0:0:0:0:
256,192,61054,1,8,0:0:0:0:
256,192,61123,1,8,0:0:0:0:
256,192,61193,1,0,0:0:0:0:
256,192,61262,1,8,0:0:0:0:
256,192,61332,1,8,0:0:0:0:
256,192,61401,1,0,0:0:0:0:
256,192,61540,1,12,0:0:0:0:
256,192,61679,1,8,0:0:0:0:
256,192,61818,1,0,0:0:0:0:
256,192,61887,1,0,0:0:0:0:
256,192,61957,1,8,0:0:0:0:
256,192,62096,1,0,0:0:0:0:
256,192,62165,1,0,0:0:0:0:
256,192,62235,1,0,0:0:0:0:
256,192,62304,1,0,0:0:0:0:
256,192,62373,1,8,0:0:0:0:
256,192,62512,1,8,0:0:0:0:
256,192,62651,1,0,0:0:0:0:
256,192,62721,1,0,0:0:0:0:
256,192,62790,1,0,0:0:0:0:
256,192,62929,1,8,0:0:0:0:
256,192,62998,1,8,0:0:0:0:
256,192,63068,1,0,0:0:0:0:
256,192,63137,1,0,0:0:0:0:
256,192,63207,1,8,0:0:0:0:
256,192,63346,1,0,0:0:0:0:
256,192,63485,1,8,0:0:0:0:
256,192,63554,1,0,0:0:0:0:
256,192,63624,1,0,0:0:0:0:
256,192,63762,1,8,0:0:0:0:
256,192,63901,1,0,0:0:0:0:
256,192,64040,1,8,0:0:0:0:
256,192,64110,1,8,0:0:0:0:
256,192,64179,1,8,0:0:0:0:
256,192,64318,1,8,0:0:0:0:
256,192,64457,1,8,0:0:0:0:
256,192,64526,1,8,0:0:0:0:
256,192,64596,1,0,0:0:0:0:
256,192,64735,1,8,0:0:0:0:
256,192,64874,1,12,0:0:0:0:
256,192,65013,1,0,0:0:0:0:
256,192,65082,1,0,0:0:0:0:
256,192,65151,1,8,0:0:0:0:
256,192,65221,1,0,0:0:0:0:
256,192,65290,1,8,0:0:0:0:
256,192,65360,1,8,0:0:0:0:
256,192,65429,1,0,0:0:0:0:
256,192,65568,1,8,0:0:0:0:
256,192,65707,1,12,0:0:0:0:
256,192,65846,1,0,0:0:0:0:
256,192,65915,1,0,0:0:0:0:
256,192,65985,1,8,0:0:0:0:
256,192,66054,1,8,0:0:0:0:
256,192,66124,1,0,0:0:0:0:
256,192,66193,1,0,0:0:0:0:
256,192,66263,1,8,0:0:0:0:
256,192,66402,1,0,0:0:0:0:
256,192,66540,1,12,0:0:0:0:
256,192,66679,1,0,0:0:0:0:
256,192,66818,1,8,0:0:0:0:
256,192,66888,1,8,0:0:0:0:
256,192,66957,1,0,0:0:0:0:
256,192,67096,1,8,0:0:0:0:
256,192,67165,1,8,0:0:0:0:
256,192,67235,1,0,0:0:0:0:
256,192,67513,1,0,0:0:0:0:
256,192,67652,1,8,0:0:0:0:
256,192,67721,1,8,0:0:0:0:
256,192,67790,1,8,0:0:0:0:
256,192,67929,1,8,0:0:0:0:
256,192,67999,1,8,0:0:0:0:
256,192,68068,1,8,0:0:0:0:
256,192,68207,1,0,0:0:0:0:
256,192,68277,1,0,0:0:0:0:
256,192,68346,1,0,0:0:0:0:
256,192,68485,1,0,0:0:0:0:
256,192,68554,1,0,0:0:0:0:
256,192,68624,1,0,0:0:0:0:
256,192,68763,1,12,0:0:0:0:
256,192,68902,1,0,0:0:0:0:
256,192,69041,1,8,0:0:0:0:
256,192,69110,1,0,0:0:0:0:
256,192,69179,1,0,0:0:0:0:
256,192,69318,1,8,0:0:0:0:
256,192,69388,1,0,0:0:0:0:
256,192,69457,1,0,0:0:0:0:
256,192,69596,1,12,0:0:0:0:
256,192,69735,1,0,0:0:0:0:
256,192,69874,1,8,0:0:0:0:
256,192,69943,1,8,0:0:0:0:
256,192,70013,1,0,0:0:0:0:
256,192,70152,1,8,0:0:0:0:
256,192,70221,1,8,0:0:0:0:
256,192,70291,1,0,0:0:0:0:
256,192,70430,1,12,0:0:0:0:
256,192,70568,1,0,0:0:0:0:
256,192,70707,1,8,0:0:0:0:
256,192,70846,1,8,0:0:0:0:
256,192,70985,1,8,0:0:0:0:
256,192,71124,1,0,0:0:0:0:
256,192,71263,1,8,0:0:0:0:
256,192,71402,1,8,0:0:0:0:
256,192,71541,1,0,0:0:0:0:
256,192,71610,1,0,0:0:0:0:
256,192,71680,1,0,0:0:0:0:
256,192,71819,1,0,0:0:0:0:
256,192,71888,1,0,0:0:0:0:
256,192,71957,1,0,0:0:0:0:
256,192,72096,1,12,0:0:0:0:
256,192,72235,1,0,0:0:0:0:
256,192,72374,1,8,0:0:0:0:
256,192,72444,1,0,0:0:0:0:
256,192,72513,1,0,0:0:0:0:
256,192,72652,1,8,0:0:0:0:
256,192,72721,1,0,0:0:0:0:
256,192,72791,1,0,0:0:0:0:
256,192,72930,1,12,0:0:0:0:
256,192,73069,1,0,0:0:0:0:
256,192,73208,1,8,0:0:0:0:
256,192,73277,1,8,0:0:0:0:
256,192,73346,1,0,0:0:0:0:
256,192,73485,1,8,0:0:0:0:
256,192,73555,1,8,0:0:0:0:
256,192,73624,1,0,0:0:0:0:
256,192,73763,1,12,0:0:0:0:
256,192,74041,1,0,0:0:0:0:
256,192,74110,1,0,0:0:0:0:
256,192,74180,1,0,0:0:0:0:
256,192,74249,1,0,0:0:0:0:
256,192,74319,1,8,0:0:0:0:
256,192,74388,1,8,0:0:0:0:
256,192,74458,1,8,0:0:0:0:
256,192,74527,1,8,0:0:0:0:
256,192,74597,1,0,0:0:0:0:
256,192,74666,1,0,0:0:0:0:
256,192,74735,1,0,0:0:0:0:
256,192,74805,1,0,0:0:0:0:
256,192,74874,1,8,0:0:0:0:
256,192,74944,1,0,0:0:0:0:
256,192,75013,1,0,0:0:0:0:
256,192,75152,1,8,0:0:0:0:
256,192,75222,1,0,0:0:0:0:
256,192,75291,1,0,0:0:0:0:
256,192,75430,1,12,0:0:0:0:
256,192,75569,1,8,0:0:0:0:
256,192,75708,1,8,0:0:0:0:
256,192,75777,1,8,0:0:0:0:
256,192,75847,1,0,0:0:0:0:
256,192,75986,1,8,0:0:0:0:
256,192,76055,1,8,0:0:0:0:
256,192,76124,1,0,0:0:0:0:
256,192,76263,1,12,0:0:0:0:
256,192,76402,1,0,0:0:0:0:
256,192,76472,1,0,0:0:0:0:
256,192,76541,1,8,0:0:0:0:
256,192,76611,1,8,0:0:0:0:
256,192,76680,1,0,0:0:0:0:
256,192,76819,1,8,0:0:0:0:
256,192,76888,1,8,0:0:0:0:
256,192,76958,1,0,0:0:0:0:
256,192,77097,1,12,0:0:0:0:
256,192,77236,1,0,0:0:0:0:
256,192,77374,1,8,0:0:0:0:
256,192,77513,1,8,0:0:0:0:
256,192,77652,1,8,0:0:0:0:
256,192,77791,1,0,0:0:0:0:
256,192,77930,1,8,0:0:0:0:
256,192,78069,1,0,0:0:0:0:
256,192,78208,1,8,0:0:0:0:
256,192,78277,1,0,0:0:0:0:
256,192,78347,1,0,0:0:0:0:
256,192,78486,1,8,0:0:0:0:
256,192,78555,1,0,0:0:0:0:
256,192,78625,1,0,0:0:0:0:
256,192,78763,1,12,0:0:0:0:
256,192,78902,1,8,0:0:0:0:
256,192,79041,1,8,0:0:0:0:
256,192,79111,1,8,0:0:0:0:
256,192,79180,1,0,0:0:0:0:
256,192,79319,1,8,0:0:0:0:
256,192,79389,1,8,0:0:0:0:
256,192,79458,1,0,0:0:0:0:
256,192,79597,1,12,0:0:0:0:
256,192,79736,1,0,0:0:0:0:
256,192,79805,1,0,0:0:0:0:
256,192,79875,1,8,0:0:0:0:
256,192,79944,1,8,0:0:0:0:
256,192,80014,1,0,0:0:0:0:
256,192,80152,1,8,0:0:0:0:
256,192,80222,1,8,0:0:0:0:
256,192,80291,1,0,0:0:0:0:
256,192,80430,1,12,0:0:0:0:
256,192,80569,1,0,0:0:0:0:
256,192,80708,1,8,0:0:0:0:
256,192,80778,1,8,0:0:0:0:
256,192,80847,1,0,0:0:0:0:
256,192,80916,1,0,0:0:0:0:
256,192,80986,1,8,0:0:0:0:
256,192,81055,1,8,0:0:0:0:
256,192,81125,1,8,0:0:0:0:
256,192,81194,1,8,0:0:0:0:
256,192,81264,1,0,0:0:0:0:
256,192,81333,1,0,0:0:0:0:
256,192,81403,1,0,0:0:0:0:
256,192,81472,1,0,0:0:0:0:
256,192,81541,1,12,0:0:0:0:
256,192,81680,1,8,0:0:0:0:
256,192,81819,1,0,0:0:0:0:
256,192,81889,1,0,0:0:0:0:
256,192,81958,1,0,0:0:0:0:
256,192,82097,1,8,0:0:0:0:
256,192,82236,1,0,0:0:0:0:
256,192,82375,1,8,0:0:0:0:
256,192,82514,1,8,0:0:0:0:
256,192,82653,1,0,0:0:0:0:
256,192,82792,1,8,0:0:0:0:
256,192,82930,1,8,0:0:0:0:
256,192,83000,1,8,0:0:0:0:
256,192,83069,1,0,0:0:0:0:
256,192,83139,1,0,0:0:0:0:
256,192,83208,1,8,0:0:0:0:
256,192,83347,1,0,0:0:0:0:
256,192,83486,1,8,0:0:0:0:
256,192,83625,1,8,0:0:0:0:
256,192,83764,1,8,0:0:0:0:
256,192,83903,1,0,0:0:0:0:
256,192,84042,1,8,0:0:0:0:
256,192,84319,1,8,0:0:0:0:
256,192,84389,1,0,0:0:0:0:
256,192,84458,1,0,0:0:0:0:
256,192,84597,1,8,0:0:0:0:
256,192,84736,1,0,0:0:0:0:
256,192,84875,1,12,0:0:0:0:
256,192,85014,1,0,0:0:0:0:
256,192,85153,1,8,0:0:0:0:
256,192,85222,1,0,0:0:0:0:
256,192,85292,1,0,0:0:0:0:
256,192,85431,1,8,0:0:0:0:
256,192,85500,1,0,0:0:0:0:
256,192,85570,1,0,0:0:0:0:
256,192,85708,1,12,0:0:0:0:
256,192,85847,1,8,0:0:0:0:
256,192,85986,1,0,0:0:0:0:
256,192,86056,1,0,0:0:0:0:
256,192,86125,1,0,0:0:0:0:
256,192,86195,1,0,0:0:0:0:
256,192,86264,1,8,0:0:0:0:
256,192,86403,1,0,0:0:0:0:
256,192,86542,1,12,0:0:0:0:
256,192,86681,1,0,0:0:0:0:
256,192,86820,1,8,0:0:0:0:
256,192,86889,1,0,0:0:0:0:
256,192,86958,1,8,0:0:0:0:
256,192,87097,1,8,0:0:0:0:
256,192,87236,1,0,0:0:0:0:
256,192,87375,1,8,0:0:0:0:
256,192,87653,1,8,0:0:0:0:
256,192,87722,1,8,0:0:0:0:
256,192,87792,1,0,0:0:0:0:
256,192,87861,1,0,0:0:0:0:
256,192,87931,1,8,0:0:0:0:
256,192,88000,1,0,0:0:0:0:
256,192,88070,1,0,0:0:0:0:
256,192,88209,1,12,0:0:0:0:
256,192,88347,1,0,0:0:0:0:
256,192,88417,1,0,0:0:0:0:
256,192,88486,1,8,0:0:0:0:
256,192,88625,1,8,0:0:0:0:
256,192,88764,1,0,0:0:0:0:
256,192,88903,1,8,0:0:0:0:
256,192,89042,1,8,0:0:0:0:
256,192,89111,1,8,0:0:0:0:
256,192,89181,1,0,0:0:0:0:
256,192,89320,1,8,0:0:0:0:
256,192,89389,1,0,0:0:0:0:
256,192,89459,1,0,0:0:0:0:
256,192,89528,1,0,0:0:0:0:
256,192,89598,1,8,0:0:0:0:
256,192,89736,1,0,0:0:0:0:
256,192,89875,1,8,0:0:0:0:
256,192,89945,1,8,0:0:0:0:
256,192,90014,1,0,0:0:0:0:
256,192,90153,1,8,0:0:0:0:
256,192,90292,1,8,0:0:0:0:
256,192,90431,1,0,0:0:0:0:
256,192,90570,1,8,0:0:0:0:
256,192,90709,1,8,0:0:0:0:
256,192,90987,1,8,0:0:0:0:
256,192,91056,1,8,0:0:0:0:
256,192,91125,1,8,0:0:0:0:
256,192,91264,1,8,0:0:0:0:
256,192,91403,1,0,0:0:0:0:
256,192,91542,1,12,0:0:0:0:
256,192,91681,1,0,0:0:0:0:
256,192,91750,1,0,0:0:0:0:
256,192,91820,1,8,0:0:0:0:
256,192,91889,1,8,0:0:0:0:
256,192,91959,1,0,0:0:0:0:
256,192,92098,1,8,0:0:0:0:
256,192,92167,1,8,0:0:0:0:
256,192,92237,1,0,0:0:0:0:
256,192,92376,1,12,0:0:0:0:
256,192,92514,1,8,0:0:0:0:
256,192,92653,1,0,0:0:0:0:
256,192,92723,1,0,0:0:0:0:
256,192,92792,1,8,0:0:0:0:
256,192,92862,1,0,0:0:0:0:
256,192,92931,1,8,0:0:0:0:
256,192,93070,1,0,0:0:0:0:
256,192,93209,1,12,0:0:0:0:
256,192,93348,1,0,0:0:0:0:
256,192,93487,1,8,0:0:0:0:
256,192,93626,1,8,0:0:0:0:
256,192,93765,1,8,0:0:0:0:
256,192,93903,1,0,0:0:0:0:
256,192,94042,1,8,0:0:0:0:
256,192,94112,1,8,0:0:0:0:
256,192,94181,1,8,0:0:0:0:
256,192,94320,1,0,0:0:0:0:
256,192,94390,1,0,0:0:0:0:
256,192,94459,1,0,0:0:0:0:
256,192,94528,1,0,0:0:0:0:
256,192,94598,1,8,0:0:0:0:
256,192,94667,1,8,0:0:0:0:
256,192,94737,1,0,0:0:0:0:
256,192,94876,1,12,0:0:0:0:
256,192,95015,1,8,0:0:0:0:
256,192,95154,1,0,0:0:0:0:
256,192,95223,1,0,0:0:0:0:
256,192,95292,1,0,0:0:0:0:
256,192,95431,1,8,0:0:0:0:
256,192,95501,1,0,0:0:0:0:
256,192,95570,1,0,0:0:0:0:
256,192,95709,1,8,0:0:0:0:
256,192,95848,1,8,0:0:0:0:
256,192,95987,1,0,0:0:0:0:
256,192,96126,1,8,0:0:0:0:
256,192,96195,1,0,0:0:0:0:
256,192,96265,1,8,0:0:0:0:
256,192,96334,1,8,0:0:0:0:
256,192,96404,1,0,0:0:0:0:
256,192,96542,1,8,0:0:0:0:
256,192,96681,1,0,0:0:0:0:
256,192,96820,1,8,0:0:0:0:
256,192,96959,1,8,0:0:0:0:
256,192,97098,1,8,0:0:0:0:
256,192,97237,1,0,0:0:0:0:
256,192,97376,1,8,0:0:0:0:
256,192,97654,1,8,0:0:0:0:
256,192,97723,1,0,0:0:0:0:
256,192,97793,1,0,0:0:0:0:
256,192,97931,1,8,0:0:0:0:
256,192,98070,1,0,0:0:0:0:
256,192,98209,1,12,0:0:0:0:
256,192,98348,1,0,0:0:0:0:
256,192,98487,1,8,0:0:0:0:
256,192,98557,1,8,0:0:0:0:
256,192,98626,1,0,0:0:0:0:
256,192,98765,1,8,0:0:0:0:
256,192,98834,1,8,0:0:0:0:
256,192,98904,1,0,0:0:0:0:
256,192,99043,1,12,0:0:0:0:
256,192,99182,1,8,0:0:0:0:
256,192,99320,1,8,0:0:0:0:
256,192,99390,1,0,0:0:0:0:
256,192,99459,1,0,0:0:0:0:
256,192,99529,1,0,0:0:0:0:
256,192,99598,1,8,0:0:0:0:
256,192,99737,1,0,0:0:0:0:
256,192,99876,1,12,0:0:0:0:
256,192,100015,1,0,0:0:0:0:
256,192,100154,1,8,0:0:0:0:
256,192,100223,1,0,0:0:0:0:
256,192,100293,1,8,0:0:0:0:
256,192,100432,1,8,0:0:0:0:
256,192,100571,1,0,0:0:0:0:
256,192,100709,1,8,0:0:0:0:
256,192,100987,1,8,0:0:0:0:
256,192,101057,1,8,0:0:0:0:
256,192,101126,1,0,0:0:0:0:
256,192,101196,1,0,0:0:0:0:
256,192,101265,1,8,0:0:0:0:
256,192,101334,1,0,0:0:0:0:
256,192,101404,1,0,0:0:0:0:
256,192,101543,1,12,0:0:0:0:
256,192,101682,1,8,0:0:0:0:
256,192,101821,1,0,0:0:0:0:
256,192,101890,1,0,0:0:0:0:
256,192,101960,1,8,0:0:0:0:
256,192,102098,1,0,0:0:0:0:
256,192,102237,1,8,0:0:0:0:
256,192,102376,1,8,0:0:0:0:
256,192,102446,1,8,0:0:0:0:
256,192,102515,1,8,0:0:0:0:
256,192,102654,1,0,0:0:0:0:
256,192,102793,1,8,0:0:0:0:
256,192,102862,1,8,0:0:0:0:
256,192,102932,1,8,0:0:0:0:
256,192,103071,1,0,0:0:0:0:
256,192,103210,1,8,0:0:0:0:
256,192,103279,1,8,0:0:0:0:
256,192,103349,1,0,0:0:0:0:
256,192,103487,1,8,0:0:0:0:
256,192,103626,1,8,0:0:0:0:
256,192,103765,1,0,0:0:0:0:
256,192,103904,1,0,0:0:0:0:
256,192,104043,1,8,0:0:0:0:
256,192,104321,1,8,0:0:0:0:
256,192,104390,1,8,0:0:0:0:
256,192,104460,1,8,0:0:0:0:
256,192,104599,1,8,0:0:0:0:
256,192,104738,1,0,0:0:0:0:
256,192,104876,1,12,0:0:0:0:
256,192,105015,1,0,0:0:0:0:
256,192,105154,1,8,0:0:0:0:
256,192,105224,1,8,0:0:0:0:
256,192,105293,1,0,0:0:0:0:
256,192,105363,1,0,0:0:0:0:
256,192,105432,1,8,0:0:0:0:
256,192,105571,1,0,0:0:0:0:
256,192,105710,1,12,0:0:0:0:
256,192,105849,1,8,0:0:0:0:
256,192,105988,1,0,0:0:0:0:
256,192,106126,1,8,0:0:0:0:
256,192,106196,1,0,0:0:0:0:
256,192,106265,1,8,0:0:0:0:
256,192,106335,1,8,0:0:0:0:
256,192,106404,1,0,0:0:0:0:
256,192,106543,1,12,0:0:0:0:
256,192,106682,1,0,0:0:0:0:
256,192,106821,1,8,0:0:0:0:
256,192,106960,1,8,0:0:0:0:
256,192,107099,1,8,0:0:0:0:
256,192,107238,1,0,0:0:0:0:
256,192,107377,1,8,0:0:0:0:
256,192,107446,1,8,0:0:0:0:
256,192,107515,1,8,0:0:0:0:
256,192,107585,1,8,0:0:0:0:
256,192,107654,1,0,0:0:0:0:
256,192,107724,1,0,0:0:0:0:
256,192,107793,1,0,0:0:0:0:
256,192,107863,1,0,0:0:0:0:
256,192,107932,1,8,0:0:0:0:
256,192,108002,1,8,0:0:0:0:
256,192,108071,1,0,0:0:0:0:
256,192,108210,1,12,0:0:0:0:
256,192,108488,1,8,0:0:0:0:
256,192,108557,1,0,0:0:0:0:
256,192,108627,1,0,0:0:0:0:
256,192,108696,1,0,0:0:0:0:
256,192,108766,1,8,0:0:0:0:
256,192,108835,1,0,0:0:0:0:
256,192,108904,1,0,0:0:0:0:
256,192,108974,1,0,0:0:0:0:
256,192,109043,1,8,0:0:0:0:
256,192,109113,1,8,0:0:0:0:
256,192,109182,1,0,0:0:0:0:
256,192,109252,1,0,0:0:0:0:
256,192,109321,1,8,0:0:0:0:
256,192,109391,1,0,0:0:0:0:
256,192,109460,1,0,0:0:0:0:
256,192,109530,1,0,0:0:0:0:
256,192,109599,1,8,0:0:0:0:
256,192,109668,1,0,0:0:0:0:
256,192,109738,1,0,0:0:0:0:
256,192,109807,1,0,0:0:0:0:
256,192,109877,1,8,0:0:0:0:
256,192,109946,1,8,0:0:0:0:
256,192,110016,1,0,0:0:0:0:
256,192,110155,1,0,0:0:0:0:
256,192,110224,1,0,0:0:0:0:
256,192,110293,1,0,0:0:0:0:
256,192,110432,1,0,0:0:0:0:
256,192,110502,1,0,0:0:0:0:
256,192,110571,1,0,0:0:0:0:
256,192,110710,1,8,0:0:0:0:
256,192,110780,1,0,0:0:0:0:
256,192,110849,1,0,0:0:0:0:
256,192,110988,1,0,0:0:0:0:
256,192,111057,1,0,0:0:0:0:
256,192,111127,1,0,0:0:0:0:
256,192,111266,1,8,0:0:0:0:
256,192,111335,1,8,0:0:0:0:
256,192,111405,1,8,0:0:0:0:
256,192,111474,1,8,0:0:0:0:
256,192,111544,1,0,0:0:0:0:
256,192,111613,1,0,0:0:0:0:
256,192,111682,1,0,0:0:0:0:
256,192,111752,1,0,0:0:0:0:
256,192,111821,1,8,0:0:0:0:
256,192,111891,1,8,0:0:0:0:
256,192,111960,1,0,0:0:0:0:
256,192,112030,1,0,0:0:0:0:
256,192,112099,1,8,0:0:0:0:
256,192,112169,1,0,0:0:0:0:
256,192,112238,1,0,0:0:0:0:
256,192,112307,1,0,0:0:0:0:
256,192,112377,1,8,0:0:0:0:
256,192,112446,1,8,0:0:0:0:
256,192,112516,1,0,0:0:0:0:
256,192,112585,1,0,0:0:0:0:
256,192,112655,1,8,0:0:0:0:
256,192,112724,1,0,0:0:0:0:
256,192,112794,1,0,0:0:0:0:
256,192,112863,1,0,0:0:0:0:
256,192,112933,1,8,0:0:0:0:
256,192,113002,1,8,0:0:0:0:
256,192,113071,1,8,0:0:0:0:
256,192,113141,1,0,0:0:0:0:
256,192,113210,1,8,0:0:0:0:
256,192,113280,1,8,0:0:0:0:
256,192,113349,1,0,0:0:0:0:
256,192,113488,1,0,0:0:0:0:
256,192,113558,1,0,0:0:0:0:
256,192,113627,1,0,0:0:0:0:
256,192,113766,1,0,0:0:0:0:
256,192,113835,1,0,0:0:0:0:
256,192,113905,1,0,0:0:0:0:
256,192,114044,1,8,0:0:0:0:
256,192,114113,1,0,0:0:0:0:
256,192,114183,1,0,0:0:0:0:
256,192,114322,1,0,0:0:0:0:
256,192,114391,1,0,0:0:0:0:
256,192,114460,1,0,0:0:0:0:
256,192,114599,1,8,0:0:0:0:
256,192,114669,1,8,0:0:0:0:
256,192,114738,1,8,0:0:0:0:
256,192,114877,1,8,0:0:0:0:
256,192,114947,1,8,0:0:0:0:
256,192,115016,1,8,0:0:0:0:
256,192,115085,1,0,0:0:0:0:
256,192,115155,1,8,0:0:0:0:
256,192,115224,1,8,0:0:0:0:
256,192,115294,1,8,0:0:0:0:
256,192,115363,1,0,0:0:0:0:
256,192,115433,1,8,0:0:0:0:
256,192,115502,1,8,0:0:0:0:
256,192,115572,1,8,0:0:0:0:
256,192,115641,1,0,0:0:0:0:
256,192,115710,1,8,0:0:0:0:
256,192,115780,1,8,0:0:0:0:
256,192,115849,1,8,0:0:0:0:
256,192,115919,1,0,0:0:0:0:
256,192,115988,1,8,0:0:0:0:
256,192,116058,1,8,0:0:0:0:
256,192,116127,1,0,0:0:0:0:
256,192,116197,1,0,0:0:0:0:
256,192,116266,1,8,0:0:0:0:
256,192,116336,1,8,0:0:0:0:
256,192,116405,1,0,0:0:0:0:
256,192,116474,1,0,0:0:0:0:
256,192,116544,1,8,0:0:0:0:
256,192,116613,1,8,0:0:0:0:
256,192,116683,1,0,0:0:0:0:
256,192,116822,1,0,0:0:0:0:
256,192,116891,1,0,0:0:0:0:
256,192,116961,1,0,0:0:0:0:
256,192,117099,1,8,0:0:0:0:
256,192,117169,1,0,0:0:0:0:
256,192,117238,1,0,0:0:0:0:
256,192,117377,1,8,0:0:0:0:
256,192,117447,1,8,0:0:0:0:
256,192,117516,1,0,0:0:0:0:
256,192,117655,1,0,0:0:0:0:
256,192,117725,1,0,0:0:0:0:
256,192,117794,1,0,0:0:0:0:
256,192,117933,1,8,0:0:0:0:
256,192,118002,1,8,0:0:0:0:
256,192,118072,1,8,0:0:0:0:
256,192,118141,1,8,0:0:0:0:
256,192,118211,1,0,0:0:0:0:
256,192,118280,1,0,0:0:0:0:
256,192,118350,1,0,0:0:0:0:
256,192,118419,1,0,0:0:0:0:
256,192,118488,1,8,0:0:0:0:
256,192,118558,1,0,0:0:0:0:
256,192,118627,1,0,0:0:0:0:
256,192,118697,1,0,0:0:0:0:
256,192,118766,1,8,0:0:0:0:
256,192,118836,1,0,0:0:0:0:
256,192,118905,1,0,0:0:0:0:
256,192,118975,1,0,0:0:0:0:
256,192,119044,1,8,0:0:0:0:
256,192,119114,1,8,0:0:0:0:
256,192,119183,1,0,0:0:0:0:
256,192,119252,1,0,0:0:0:0:
256,192,119322,1,8,0:0:0:0:
256,192,119391,1,0,0:0:0:0:
256,192,119461,1,0,0:0:0:0:
256,192,119530,1,0,0:0:0:0:
256,192,119600,1,8,0:0:0:0:
256,192,119669,1,8,0:0:0:0:
256,192,119739,1,0,0:0:0:0:
256,192,119808,1,0,0:0:0:0:
256,192,119877,1,8,0:0:0:0:
256,192,119947,1,8,0:0:0:0:
256,192,120016,1,0,0:0:0:0:
256,192,120086,1,0,0:0:0:0:
256,192,120155,1,8,0:0:0:0:
256,192,120225,1,0,0:0:0:0:
256,192,120294,1,0,0:0:0:0:
256,192,120364,1,0,0:0:0:0:
256,192,120433,1,8,0:0:0:0:
256,192,120502,1,0,0:0:0:0:
256,192,120572,1,0,0:0:0:0:
256,192,120641,1,0,0:0:0:0:
256,192,120711,1,8,0:0:0:0:
256,192,120780,1,8,0:0:0:0:
256,192,120850,1,8,0:0:0:0:
256,192,120919,1,8,0:0:0:0:
256,192,120989,1,8,0:0:0:0:
256,192,121058,1,8,0:0:0:0:
256,192,121128,1,8,0:0:0:0:
256,192,121197,1,8,0:0:0:0:
256,192,121266,1,8,0:0:0:0:
256,192,121336,1,8,0:0:0:0:
256,192,121405,1,8,0:0:0:0:
256,192,121475,1,8,0:0:0:0:
256,192,121544,1,4,0:0:0:0:
256,192,121822,1,8,0:0:0:0:
256,192,121891,1,0,0:0:0:0:
256,192,121961,1,8,0:0:0:0:
256,192,122030,1,0,0:0:0:0:
256,192,122100,1,8,0:0:0:0:
256,192,122169,1,8,0:0:0:0:
256,192,122239,1,8,0:0:0:0:
256,192,122308,1,0,0:0:0:0:
256,192,122378,1,8,0:0:0:0:
256,192,122447,1,8,0:0:0:0:
256,192,122517,1,0,0:0:0:0:
256,192,122586,1,0,0:0:0:0:
256,192,122655,1,8,0:0:0:0:
256,192,122725,1,0,0:0:0:0:
256,192,122794,1,0,0:0:0:0:
256,192,122864,1,0,0:0:0:0:
256,192,122933,1,8,0:0:0:0:
256,192,123003,1,8,0:0:0:0:
256,192,123072,1,8,0:0:0:0:
256,192,123211,1,0,0:0:0:0:
256,192,123280,1,0,0:0:0:0:
256,192,123350,1,8,0:0:0:0:
256,192,123419,1,0,0:0:0:0:
256,192,123489,1,8,0:0:0:0:
256,192,123558,1,8,0:0:0:0:
256,192,123628,1,8,0:0:0:0:
256,192,123697,1,0,0:0:0:0:
256,192,123767,1,8,0:0:0:0:
256,192,123836,1,0,0:0:0:0:
256,192,123906,1,8,0:0:0:0:
256,192,123975,1,0,0:0:0:0:
256,192,124044,1,8,0:0:0:0:
256,192,124114,1,8,0:0:0:0:
256,192,124183,1,0,0:0:0:0:
256,192,124253,1,0,0:0:0:0:
256,192,124322,1,8,0:0:0:0:
256,192,124392,1,0,0:0:0:0:
256,192,124461,1,0,0:0:0:0:
256,192,124531,1,0,0:0:0:0:
256,192,124600,1,8,0:0:0:0:
256,192,124669,1,8,0:0:0:0:
256,192,124739,1,8,0:0:0:0:
256,192,124878,1,8,0:0:0:0:
256,192,124947,1,8,0:0:0:0:
256,192,125017,1,0,0:0:0:0:
256,192,125086,1,0,0:0:0:0:
256,192,125156,1,8,0:0:0:0:
256,192,125225,1,8,0:0:0:0:
256,192,125294,1,8,0:0:0:0:
256,192,125364,1,8,0:0:0:0:
256,192,125433,1,0,0:0:0:0:
256,192,125503,1,0,0:0:0:0:
256,192,125572,1,8,0:0:0:0:
256,192,125642,1,0,0:0:0:0:
256,192,125711,1,8,0:0:0:0:
256,192,125781,1,8,0:0:0:0:
256,192,125850,1,8,0:0:0:0:
256,192,125920,1,0,0:0:0:0:
256,192,125989,1,8,0:0:0:0:
256,192,126058,1,8,0:0:0:0:
256,192,126128,1,8,0:0:0:0:
256,192,126197,1,8,0:0:0:0:
256,192,126267,1,0,0:0:0:0:
256,192,126336,1,0,0:0:0:0:
256,192,126406,1,8,0:0:0:0:
256,192,126475,1,0,0:0:0:0:
256,192,126545,1,8,0:0:0:0:
256,192,126614,1,8,0:0:0:0:
256,192,126683,1,0,0:0:0:0:
256,192,126753,1,0,0:0:0:0:
256,192,126822,1,8,0:0:0:0:
256,192,126892,1,0,0:0:0:0:
256,192,126961,1,8,0:0:0:0:
256,192,127031,1,0,0:0:0:0:
256,192,127100,1,8,0:0:0:0:
256,192,127170,1,8,0:0:0:0:
256,192,127239,1,0,0:0:0:0:
256,192,127309,1,0,0:0:0:0:
256,192,127378,1,8,0:0:0:0:
256,192,127447,1,8,0:0:0:0:
256,192,127517,1,8,0:0:0:0:
256,192,127586,1,8,0:0:0:0:
256,192,127656,1,0,0:0:0:0:
256,192,127725,1,8,0:0:0:0:
256,192,127795,1,0,0:0:0:0:
256,192,127864,1,0,0:0:0:0:
256,192,127934,1,8,0:0:0:0:
256,192,128003,1,8,0:0:0:0:
256,192,128072,1,8,0:0:0:0:
256,192,128142,1,8,0:0:0:0:
256,192,128211,1,4,0:0:0:0:
256,192,128489,1,8,0:0:0:0:
256,192,128559,1,0,0:0:0:0:
256,192,128628,1,8,0:0:0:0:
256,192,128697,1,0,0:0:0:0:
256,192,128767,1,8,0:0:0:0:
256,192,128836,1,8,0:0:0:0:
256,192,128906,1,8,0:0:0:0:
256,192,128975,1,0,0:0:0:0:
256,192,129045,1,8,0:0:0:0:
256,192,129114,1,8,0:0:0:0:
256,192,129184,1,0,0:0:0:0:
256,192,129253,1,0,0:0:0:0:
256,192,129323,1,8,0:0:0:0:
256,192,129392,1,0,0:0:0:0:
256,192,129461,1,0,0:0:0:0:
256,192,129531,1,0,0:0:0:0:
256,192,129600,1,8,0:0:0:0:
256,192,129670,1,8,0:0:0:0:
256,192,129739,1,8,0:0:0:0:
256,192,129878,1,0,0:0:0:0:
256,192,129948,1,0,0:0:0:0:
256,192,130017,1,8,0:0:0:0:
256,192,130086,1,0,0:0:0:0:
256,192,130156,1,8,0:0:0:0:
256,192,130225,1,8,0:0:0:0:
256,192,130295,1,0,0:0:0:0:
256,192,130364,1,8,0:0:0:0:
256,192,130434,1,8,0:0:0:0:
256,192,130503,1,0,0:0:0:0:
256,192,130573,1,8,0:0:0:0:
256,192,130642,1,0,0:0:0:0:
256,192,130712,1,8,0:0:0:0:
256,192,130781,1,0,0:0:0:0:
256,192,130850,1,8,0:0:0:0:
256,192,130920,1,0,0:0:0:0:
256,192,130989,1,8,0:0:0:0:
256,192,131059,1,8,0:0:0:0:
256,192,131128,1,0,0:0:0:0:
256,192,131198,1,0,0:0:0:0:
256,192,131267,1,8,0:0:0:0:
256,192,131337,1,8,0:0:0:0:
256,192,131406,1,8,0:0:0:0:
256,192,131545,1,0,0:0:0:0:
256,192,131638,1,8,0:0:0:0:
256,192,131730,1,0,0:0:0:0:
256,192,131823,1,8,0:0:0:0:
256,192,131915,1,8,0:0:0:0:
256,192,132008,1,8,0:0:0:0:
256,192,132101,1,8,0:0:0:0:
256,192,132193,1,0,0:0:0:0:
256,192,132286,1,0,0:0:0:0:
256,192,132378,1,8,0:0:0:0:
256,192,132471,1,8,0:0:0:0:
256,192,132564,1,0,0:0:0:0:
256,192,132656,1,8,0:0:0:0:
256,192,132749,1,0,0:0:0:0:
256,192,132841,1,0,0:0:0:0:
256,192,132934,1,8,0:0:0:0:
256,192,133027,1,8,0:0:0:0:
256,192,133119,1,8,0:0:0:0:
256,192,133212,1,0,0:0:0:0:
256,192,133304,1,0,0:0:0:0:
256,192,133397,1,0,0:0:0:0:
256,192,133489,1,8,0:0:0:0:
256,192,133582,1,0,0:0:0:0:
256,192,133675,1,8,0:0:0:0:
256,192,133767,1,8,0:0:0:0:
256,192,133860,1,8,0:0:0:0:
256,192,133952,1,0,0:0:0:0:
256,192,134045,1,8,0:0:0:0:
256,192,134115,1,8,0:0:0:0:
256,192,134184,1,8,0:0:0:0:
256,192,134253,1,8,0:0:0:0:
256,192,134323,1,0,0:0:0:0:
256,192,134392,1,0,0:0:0:0:
256,192,134462,1,0,0:0:0:0:
256,192,134531,1,0,0:0:0:0:
256,192,134601,1,8,0:0:0:0:
256,192,134670,1,8,0:0:0:0:
256,192,134740,1,0,0:0:0:0:
256,192,134809,1,0,0:0:0:0:
256,192,134878,1,12,0:0:0:0:
256,192,135156,1,8,0:0:0:0:
256,192,135226,1,8,0:0:0:0:
256,192,135295,1,8,0:0:0:0:
256,192,135365,1,0,0:0:0:0:
256,192,135434,1,8,0:0:0:0:
256,192,135504,1,0,0:0:0:0:
256,192,135573,1,8,0:0:0:0:
256,192,135642,1,0,0:0:0:0:
256,192,135712,1,8,0:0:0:0:
256,192,135781,1,8,0:0:0:0:
256,192,135851,1,0,0:0:0:0:
256,192,135920,1,8,0:0:0:0:
256,192,135990,1,8,0:0:0:0:
256,192,136059,1,0,0:0:0:0:
256,192,136129,1,8,0:0:0:0:
256,192,136198,1,0,0:0:0:0:
256,192,136267,1,8,0:0:0:0:
256,192,136337,1,8,0:0:0:0:
256,192,136406,1,0,0:0:0:0:
256,192,136476,1,0,0:0:0:0:
256,192,136545,1,8,0:0:0:0:
256,192,136615,1,0,0:0:0:0:
256,192,136684,1,8,0:0:0:0:
256,192,136754,1,8,0:0:0:0:
256,192,136823,1,8,0:0:0:0:
256,192,136893,1,0,0:0:0:0:
256,192,136962,1,8,0:0:0:0:
256,192,137031,1,0,0:0:0:0:
256,192,137101,1,8,0:0:0:0:
256,192,137170,1,8,0:0:0:0:
256,192,137240,1,0,0:0:0:0:
256,192,137309,1,8,0:0:0:0:
256,192,137379,1,8,0:0:0:0:
256,192,137448,1,8,0:0:0:0:
256,192,137518,1,8,0:0:0:0:
256,192,137587,1,0,0:0:0:0:
256,192,137656,1,8,0:0:0:0:
256,192,137726,1,0,0:0:0:0:
256,192,137795,1,8,0:0:0:0:
256,192,137865,1,8,0:0:0:0:
256,192,137934,1,8,0:0:0:0:
256,192,138004,1,0,0:0:0:0:
256,192,138073,1,8,0:0:0:0:
256,192,138143,1,8,0:0:0:0:
256,192,138212,1,0,0:0:0:0:
256,192,138281,1,0,0:0:0:0:
256,192,138351,1,8,0:0:0:0:
256,192,138420,1,0,0:0:0:0:
256,192,138490,1,8,0:0:0:0:
256,192,138559,1,8,0:0:0:0:
256,192,138629,1,0,0:0:0:0:
256,192,138698,1,0,0:0:0:0:
256,192,138768,1,8,0:0:0:0:
256,192,138837,1,8,0:0:0:0:
256,192,138907,1,0,0:0:0:0:
256,192,138976,1,0,0:0:0:0:
256,192,139045,1,8,0:0:0:0:
256,192,139115,1,0,0:0:0:0:
256,192,139184,1,0,0:0:0:0:
256,192,139254,1,8,0:0:0:0:
256,192,139323,1,8,0:0:0:0:
256,192,139393,1,0,0:0:0:0:
256,192,139462,1,8,0:0:0:0:
256,192,139532,1,0,0:0:0:0:
256,192,139601,1,8,0:0:0:0:
256,192,139670,1,8,0:0:0:0:
256,192,139740,1,0,0:0:0:0:
256,192,139809,1,0,0:0:0:0:
256,192,139879,1,8,0:0:0:0:
256,192,139948,1,0,0:0:0:0:
256,192,140018,1,8,0:0:0:0:
256,192,140087,1,8,0:0:0:0:
256,192,140157,1,8,0:0:0:0:
256,192,140226,1,0,0:0:0:0:
256,192,140296,1,8,0:0:0:0:
256,192,140365,1,0,0:0:0:0:
256,192,140434,1,8,0:0:0:0:
256,192,140504,1,8,0:0:0:0:
256,192,140573,1,0,0:0:0:0:
256,192,140643,1,8,0:0:0:0:
256,192,140712,1,8,0:0:0:0:
256,192,140782,1,0,0:0:0:0:
256,192,140851,1,8,0:0:0:0:
256,192,140921,1,0,0:0:0:0:
256,192,140990,1,8,0:0:0:0:
256,192,141059,1,8,0:0:0:0:
256,192,141129,1,0,0:0:0:0:
256,192,141198,1,8,0:0:0:0:
256,192,141268,1,0,0:0:0:0:
256,192,141407,1,8,0:0:0:0:
256,192,141546,1,0,0:0:0:0:
256,192,141615,1,0,0:0:0:0:
256,192,141685,1,8,0:0:0:0:
256,192,141754,1,0,0:0:0:0:
256,192,141823,1,8,0:0:0:0:
256,192,141893,1,8,0:0:0:0:
256,192,141962,1,0,0:0:0:0:
256,192,142032,1,0,0:0:0:0:
256,192,142101,1,8,0:0:0:0:
256,192,142171,1,8,0:0:0:0:
256,192,142240,1,8,0:0:0:0:
256,192,142310,1,0,0:0:0:0:
256,192,142379,1,8,0:0:0:0:
256,192,142448,1,8,0:0:0:0:
256,192,142518,1,0,0:0:0:0:
256,192,142587,1,8,0:0:0:0:
256,192,142657,1,8,0:0:0:0:
256,192,142726,1,0,0:0:0:0:
256,192,142796,1,8,0:0:0:0:
256,192,142865,1,0,0:0:0:0:
256,192,142935,1,8,0:0:0:0:
256,192,143004,1,8,0:0:0:0:
256,192,143073,1,0,0:0:0:0:
256,192,143143,1,0,0:0:0:0:
256,192,143212,1,8,0:0:0:0:
256,192,143282,1,0,0:0:0:0:
256,192,143351,1,8,0:0:0:0:
256,192,143421,1,8,0:0:0:0:
256,192,143490,1,8,0:0:0:0:
256,192,143560,1,0,0:0:0:0:
256,192,143629,1,8,0:0:0:0:
256,192,143699,1,0,0:0:0:0:
256,192,143768,1,8,0:0:0:0:
256,192,143837,1,8,0:0:0:0:
256,192,143907,1,0,0:0:0:0:
256,192,143976,1,8,0:0:0:0:
256,192,144046,1,8,0:0:0:0:
256,192,144115,1,8,0:0:0:0:
256,192,144185,1,0,0:0:0:0:
256,192,144254,1,0,0:0:0:0:
256,192,144324,1,8,0:0:0:0:
256,192,144393,1,8,0:0:0:0:
256,192,144462,1,0,0:0:0:0:
256,192,144532,1,0,0:0:0:0:
256,192,144601,1,8,0:0:0:0:
256,192,144694,1,8,0:0:0:0:
256,192,144787,1,0,0:0:0:0:
256,192,144879,1,8,0:0:0:0:
256,192,144972,1,0,0:0:0:0:
256,192,145064,1,0,0:0:0:0:
256,192,145157,1,8,0:0:0:0:
256,192,145250,1,8,0:0:0:0:
256,192,145342,1,0,0:0:0:0:
256,192,145435,1,8,0:0:0:0:
256,192,145527,1,8,0:0:0:0:
256,192,145620,1,0,0:0:0:0:
256,192,145713,1,8,0:0:0:0:
256,192,145805,1,0,0:0:0:0:
256,192,145898,1,0,0:0:0:0:
256,192,145990,1,8,0:0:0:0:
256,192,146083,1,8,0:0:0:0:
256,192,146176,1,0,0:0:0:0:
256,192,146268,1,8,0:0:0:0:
256,192,146361,1,8,0:0:0:0:
256,192,146453,1,8,0:0:0:0:
256,192,146546,1,8,0:0:0:0:
256,192,146639,1,0,0:0:0:0:
256,192,146731,1,0,0:0:0:0:
256,192,146824,1,8,0:0:0:0:
256,192,146916,1,0,0:0:0:0:
256,192,147009,1,0,0:0:0:0:
256,192,147102,1,8,0:0:0:0:
256,192,147194,1,0,0:0:0:0:
256,192,147287,1,0,0:0:0:0:
256,192,147379,1,8,0:0:0:0:
256,192,147449,1,8,0:0:0:0:
256,192,147518,1,0,0:0:0:0:
256,192,147588,1,0,0:0:0:0:
256,192,147657,1,8,0:0:0:0:
256,192,147727,1,0,0:0:0:0:
256,192,147796,1,0,0:0:0:0:
256,192,147865,1,0,0:0:0:0:
256,192,147935,1,8,0:0:0:0:
256,192,148004,1,0,0:0:0:0:
256,192,148074,1,0,0:0:0:0:
256,192,148143,1,0,0:0:0:0:
256,192,148213,1,12,0:0:0:0:
256,192,148352,1,8,0:0:0:0:
256,192,148491,1,0,0:0:0:0:
256,192,148629,1,8,0:0:0:0:
256,192,148768,1,0,0:0:0:0:
256,192,148838,1,0,0:0:0:0:
256,192,148907,1,0,0:0:0:0:
256,192,148977,1,0,0:0:0:0:
256,192,149046,1,12,0:0:0:0:
256,192,149185,1,0,0:0:0:0:
256,192,149324,1,8,0:0:0:0:
256,192,149463,1,8,0:0:0:0:
256,192,149532,1,8,0:0:0:0:
256,192,149602,1,0,0:0:0:0:
256,192,149741,1,8,0:0:0:0:
256,192,149880,1,8,0:0:0:0:
256,192,149949,1,8,0:0:0:0:
256,192,150018,1,8,0:0:0:0:
256,192,150157,1,0,0:0:0:0:
256,192,150296,1,8,0:0:0:0:
256,192,150435,1,0,0:0:0:0:
256,192,150505,1,0,0:0:0:0:
256,192,150574,1,0,0:0:0:0:
256,192,150643,1,0,0:0:0:0:
256,192,150713,1,12,0:0:0:0:
256,192,150852,1,0,0:0:0:0:
256,192,150991,1,0,0:0:0:0:
256,192,151060,1,0,0:0:0:0:
256,192,151130,1,0,0:0:0:0:
256,192,151269,1,0,0:0:0:0:
256,192,151338,1,0,0:0:0:0:
256,192,151407,1,0,0:0:0:0:
256,192,151546,1,8,0:0:0:0:
256,192,151616,1,8,0:0:0:0:
256,192,151685,1,0,0:0:0:0:
256,192,151824,1,8,0:0:0:0:
256,192,151963,1,8,0:0:0:0:
256,192,152102,1,0,0:0:0:0:
256,192,152171,1,0,0:0:0:0:
256,192,152241,1,0,0:0:0:0:
256,192,152310,1,0,0:0:0:0:
256,192,152380,1,12,0:0:0:0:
256,192,152519,1,0,0:0:0:0:
256,192,152657,1,8,0:0:0:0:
256,192,152796,1,8,0:0:0:0:
256,192,152866,1,8,0:0:0:0:
256,192,152935,1,0,0:0:0:0:
256,192,153074,1,8,0:0:0:0:
256,192,153213,1,8,0:0:0:0:
256,192,153283,1,8,0:0:0:0:
256,192,153352,1,0,0:0:0:0:
256,192,153421,1,0,0:0:0:0:
256,192,153491,1,8,0:0:0:0:
256,192,153630,1,8,0:0:0:0:
256,192,153769,1,0,0:0:0:0:
256,192,153838,1,0,0:0:0:0:
256,192,153908,1,0,0:0:0:0:
256,192,153977,1,0,0:0:0:0:
256,192,154046,1,12,0:0:0:0:
256,192,154185,1,0,0:0:0:0:
256,192,154324,1,8,0:0:0:0:
256,192,154463,1,8,0:0:0:0:
256,192,154602,1,8,0:0:0:0:
256,192,154672,1,8,0:0:0:0:
256,192,154741,1,8,0:0:0:0:
256,192,154810,1,8,0:0:0:0:
256,192,154880,1,0,0:0:0:0:
256,192,154949,1,0,0:0:0:0:
256,192,155019,1,0,0:0:0:0:
256,192,155088,1,0,0:0:0:0:
256,192,155158,1,8,0:0:0:0:
256,192,155227,1,0,0:0:0:0:
256,192,155297,1,0,0:0:0:0:
256,192,155366,1,0,0:0:0:0:
256,192,155435,1,8,0:0:0:0:
256,192,155505,1,0,0:0:0:0:
256,192,155574,1,0,0:0:0:0:
256,192,155644,1,0,0:0:0:0:
256,192,155713,1,8,0:0:0:0:
256,192,155783,1,8,0:0:0:0:
256,192,155852,1,0,0:0:0:0:
256,192,155922,1,0,0:0:0:0:
256,192,155991,1,8,0:0:0:0:
256,192,156061,1,0,0:0:0:0:
256,192,156130,1,0,0:0:0:0:
256,192,156199,1,0,0:0:0:0:
256,192,156269,1,8,0:0:0:0:
256,192,156338,1,8,0:0:0:0:
256,192,156408,1,0,0:0:0:0:
256,192,156477,1,0,0:0:0:0:
256,192,156547,1,8,0:0:0:0:
256,192,156616,1,8,0:0:0:0:
256,192,156686,1,8,0:0:0:0:
256,192,156755,1,0,0:0:0:0:
256,192,156824,1,8,0:0:0:0:
256,192,156894,1,8,0:0:0:0:
256,192,156963,1,8,0:0:0:0:
256,192,157033,1,0,0:0:0:0:
256,192,157102,1,8,0:0:0:0:
256,192,157172,1,8,0:0:0:0:
256,192,157241,1,8,0:0:0:0:
256,192,157311,1,8,0:0:0:0:
256,192,157380,1,0,0:0:0:0:
256,192,157449,1,0,0:0:0:0:
256,192,157519,1,0,0:0:0:0:
256,192,157588,1,0,0:0:0:0:
256,192,157658,1,8,0:0:0:0:
256,192,157727,1,0,0:0:0:0:
256,192,157797,1,0,0:0:0:0:
256,192,157866,1,0,0:0:0:0:
256,192,157936,1,8,0:0:0:0:
256,192,158005,1,0,0:0:0:0:
256,192,158075,1,0,0:0:0:0:
256,192,158144,1,0,0:0:0:0:
256,192,158213,1,8,0:0:0:0:
256,192,158283,1,8,0:0:0:0:
256,192,158352,1,0,0:0:0:0:
256,192,158422,1,0,0:0:0:0:
256,192,158491,1,8,0:0:0:0:
256,192,158561,1,0,0:0:0:0:
256,192,158630,1,8,0:0:0:0:
256,192,158700,1,8,0:0:0:0:
256,192,158769,1,0,0:0:0:0:
256,192,158838,1,0,0:0:0:0:
256,192,158908,1,8,0:0:0:0:
256,192,158977,1,0,0:0:0:0:
256,192,159047,1,8,0:0:0:0:
256,192,159116,1,8,0:0:0:0:
256,192,159186,1,8,0:0:0:0:
256,192,159255,1,0,0:0:0:0:
256,192,159325,1,0,0:0:0:0:
256,192,159394,1,0,0:0:0:0:
256,192,159464,1,8,0:0:0:0:
256,192,159533,1,8,0:0:0:0:
256,192,159602,1,8,0:0:0:0:
256,192,159672,1,0,0:0:0:0:
256,192,159741,1,0,0:0:0:0:
256,192,159811,1,0,0:0:0:0:
256,192,159880,1,8,0:0:0:0:
256,192,159950,1,8,0:0:0:0:
256,192,160019,1,0,0:0:0:0:
256,192,160089,1,0,0:0:0:0:
256,192,160158,1,8,0:0:0:0:
256,192,160227,1,0,0:0:0:0:
256,192,160297,1,0,0:0:0:0:
256,192,160366,1,0,0:0:0:0:
256,192,160436,1,8,0:0:0:0:
256,192,160505,1,0,0:0:0:0:
256,192,160575,1,0,0:0:0:0:
256,192,160644,1,0,0:0:0:0:
256,192,160714,1,8,0:0:0:0:
256,192,160783,1,8,0:0:0:0:
256,192,160853,1,8,0:0:0:0:
256,192,160922,1,8,0:0:0:0:
256,192,160991,1,8,0:0:0:0:
256,192,161061,1,8,0:0:0:0:
256,192,161130,1,8,0:0:0:0:
256,192,161200,1,8,0:0:0:0:
256,192,161269,1,8,0:0:0:0:
256,192,161339,1,8,0:0:0:0:
256,192,161547,1,0,0:0:0:0:
256,192,161616,1,0,0:0:0:0:
256,192,161686,1,0,0:0:0:0:
256,192,161825,1,0,0:0:0:0:
256,192,161894,1,0,0:0:0:0:
256,192,161964,1,0,0:0:0:0:
256,192,162103,1,12,0:0:0:0:
256,192,162241,1,0,0:0:0:0:
256,192,162380,1,8,0:0:0:0:
256,192,162450,1,0,0:0:0:0:
256,192,162519,1,0,0:0:0:0:
256,192,162658,1,8,0:0:0:0:
256,192,162728,1,0,0:0:0:0:
256,192,162797,1,0,0:0:0:0:
256,192,162936,1,12,0:0:0:0:
256,192,163075,1,0,0:0:0:0:
256,192,163214,1,8,0:0:0:0:
256,192,163283,1,8,0:0:0:0:
256,192,163353,1,0,0:0:0:0:
256,192,163492,1,8,0:0:0:0:
256,192,163561,1,8,0:0:0:0:
256,192,163630,1,0,0:0:0:0:
256,192,163769,1,12,0:0:0:0:
256,192,163908,1,0,0:0:0:0:
256,192,164047,1,8,0:0:0:0:
256,192,164186,1,8,0:0:0:0:
256,192,164325,1,8,0:0:0:0:
256,192,164464,1,0,0:0:0:0:
256,192,164603,1,8,0:0:0:0:
256,192,164742,1,8,0:0:0:0:
256,192,164881,1,0,0:0:0:0:
256,192,164950,1,0,0:0:0:0:
256,192,165019,1,0,0:0:0:0:
256,192,165158,1,0,0:0:0:0:
256,192,165228,1,0,0:0:0:0:
256,192,165297,1,0,0:0:0:0:
256,192,165436,1,12,0:0:0:0:
256,192,165575,1,0,0:0:0:0:
256,192,165714,1,8,0:0:0:0:
256,192,165783,1,0,0:0:0:0:
256,192,165853,1,0,0:0:0:0:
256,192,165992,1,8,0:0:0:0:
256,192,166061,1,0,0:0:0:0:
256,192,166131,1,0,0:0:0:0:
256,192,166270,1,12,0:0:0:0:
256,192,166408,1,0,0:0:0:0:
256,192,166547,1,8,0:0:0:0:
256,192,166617,1,8,0:0:0:0:
256,192,166686,1,0,0:0:0:0:
256,192,166825,1,8,0:0:0:0:
256,192,166895,1,8,0:0:0:0:
256,192,166964,1,0,0:0:0:0:
256,192,167103,1,12,0:0:0:0:
256,192,167242,1,8,0:0:0:0:
256,192,167381,1,0,0:0:0:0:
256,192,167450,1,0,0:0:0:0:
256,192,167520,1,0,0:0:0:0:
256,192,167589,1,0,0:0:0:0:
256,192,167659,1,8,0:0:0:0:
256,192,167728,1,8,0:0:0:0:
256,192,167797,1,8,0:0:0:0:
256,192,167867,1,8,0:0:0:0:
256,192,167936,1,0,0:0:0:0:
256,192,168214,1,8,0:0:0:0:
256,192,168284,1,8,0:0:0:0:
256,192,168353,1,8,0:0:0:0:
256,192,168422,1,0,0:0:0:0:
256,192,168492,1,8,0:0:0:0:
256,192,168561,1,0,0:0:0:0:
256,192,168631,1,0,0:0:0:0:
256,192,168700,1,0,0:0:0:0:
256,192,168770,1,8,0:0:0:0:
256,192,168839,1,8,0:0:0:0:
256,192,168909,1,0,0:0:0:0:
256,192,168978,1,0,0:0:0:0:
256,192,169048,1,8,0:0:0:0:
256,192,169117,1,8,0:0:0:0:
256,192,169186,1,8,0:0:0:0:
256,192,169256,1,0,0:0:0:0:
256,192,169325,1,8,0:0:0:0:
256,192,169395,1,8,0:0:0:0:
256,192,169464,1,0,0:0:0:0:
256,192,169534,1,0,0:0:0:0:
256,192,169603,1,8,0:0:0:0:
256,192,169673,1,8,0:0:0:0:
256,192,169742,1,0,0:0:0:0:
256,192,169811,1,0,0:0:0:0:
256,192,169881,1,8,0:0:0:0:
256,192,169950,1,8,0:0:0:0:
256,192,170020,1,8,0:0:0:0:
256,192,170089,1,0,0:0:0:0:
256,192,170159,1,8,0:0:0:0:
256,192,170228,1,8,0:0:0:0:
256,192,170298,1,8,0:0:0:0:
256,192,170367,1,0,0:0:0:0:
256,192,170437,1,8,0:0:0:0:
256,192,170506,1,0,0:0:0:0:
256,192,170575,1,0,0:0:0:0:
256,192,170645,1,0,0:0:0:0:
256,192,170714,1,8,0:0:0:0:
256,192,170784,1,0,0:0:0:0:
256,192,170853,1,8,0:0:0:0:
256,192,170923,1,0,0:0:0:0:
256,192,170992,1,8,0:0:0:0:
256,192,171062,1,0,0:0:0:0:
256,192,171131,1,8,0:0:0:0:
256,192,171200,1,0,0:0:0:0:
256,192,171270,1,8,0:0:0:0:
256,192,171339,1,0,0:0:0:0:
256,192,171409,1,8,0:0:0:0:
256,192,171478,1,0,0:0:0:0:
256,192,171548,1,8,0:0:0:0:
256,192,171617,1,8,0:0:0:0:
256,192,171687,1,8,0:0:0:0:
256,192,171756,1,0,0:0:0:0:
256,192,171825,1,8,0:0:0:0:
256,192,171895,1,0,0:0:0:0:
256,192,171964,1,0,0:0:0:0:
256,192,172034,1,0,0:0:0:0:
256,192,172103,1,8,0:0:0:0:
256,192,172173,1,8,0:0:0:0:
256,192,172242,1,0,0:0:0:0:
256,192,172312,1,0,0:0:0:0:
256,192,172381,1,8,0:0:0:0:
256,192,172451,1,8,0:0:0:0:
256,192,172520,1,8,0:0:0:0:
256,192,172589,1,0,0:0:0:0:
256,192,172659,1,8,0:0:0:0:
256,192,172728,1,8,0:0:0:0:
256,192,172798,1,0,0:0:0:0:
256,192,172867,1,0,0:0:0:0:
256,192,172937,1,8,0:0:0:0:
256,192,173006,1,8,0:0:0:0:
256,192,173076,1,0,0:0:0:0:
256,192,173145,1,0,0:0:0:0:
256,192,173214,1,8,0:0:0:0:
256,192,173284,1,8,0:0:0:0:
256,192,173353,1,8,0:0:0:0:
256,192,173423,1,0,0:0:0:0:
256,192,173492,1,8,0:0:0:0:
256,192,173562,1,8,0:0:0:0:
256,192,173631,1,8,0:0:0:0:
256,192,173701,1,0,0:0:0:0:
256,192,173770,1,8,0:0:0:0:
256,192,174048,1,0,0:0:0:0:
256,192,174117,1,0,0:0:0:0:
256,192,174187,1,0,0:0:0:0:
256,192,174256,1,0,0:0:0:0:
256,192,174326,1,8,0:0:0:0:
256,192,174395,1,8,0:0:0:0:
256,192,174465,1,8,0:0:0:0:
256,192,174534,1,8,0:0:0:0:
256,192,174603,1,0,0:0:0:0:
256,192,174673,1,0,0:0:0:0:
256,192,174742,1,0,0:0:0:0:
256,192,174812,1,0,0:0:0:0:
256,192,174881,1,12,0:0:0:0:
256,192,175020,1,8,0:0:0:0:
256,192,175159,1,0,0:0:0:0:
256,192,175229,1,0,0:0:0:0:
256,192,175298,1,0,0:0:0:0:
256,192,175437,1,8,0:0:0:0:
256,192,175576,1,0,0:0:0:0:
256,192,175715,1,8,0:0:0:0:
256,192,175854,1,8,0:0:0:0:
256,192,175992,1,0,0:0:0:0:
256,192,176131,1,8,0:0:0:0:
256,192,176201,1,0,0:0:0:0:
256,192,176270,1,8,0:0:0:0:
256,192,176340,1,8,0:0:0:0:
256,192,176409,1,0,0:0:0:0:
256,192,176479,1,0,0:0:0:0:
256,192,176548,1,8,0:0:0:0:
256,192,176687,1,0,0:0:0:0:
256,192,176826,1,8,0:0:0:0:
256,192,176965,1,8,0:0:0:0:
256,192,177104,1,8,0:0:0:0:
256,192,177243,1,0,0:0:0:0:
256,192,177381,1,8,0:0:0:0:
256,192,177659,1,8,0:0:0:0:
256,192,177729,1,0,0:0:0:0:
256,192,177798,1,0,0:0:0:0:
256,192,177937,1,8,0:0:0:0:
256,192,178076,1,0,0:0:0:0:
256,192,178215,1,12,0:0:0:0:
256,192,178354,1,0,0:0:0:0:
256,192,178493,1,8,0:0:0:0:
256,192,178562,1,8,0:0:0:0:
256,192,178632,1,0,0:0:0:0:
256,192,178770,1,8,0:0:0:0:
256,192,178840,1,0,0:0:0:0:
256,192,178909,1,0,0:0:0:0:
256,192,179048,1,12,0:0:0:0:
256,192,179187,1,8,0:0:0:0:
256,192,179326,1,0,0:0:0:0:
256,192,179395,1,0,0:0:0:0:
256,192,179465,1,0,0:0:0:0:
256,192,179534,1,0,0:0:0:0:
256,192,179604,1,8,0:0:0:0:
256,192,179743,1,0,0:0:0:0:
256,192,179882,1,12,0:0:0:0:
256,192,180021,1,0,0:0:0:0:
256,192,180159,1,8,0:0:0:0:
256,192,180229,1,0,0:0:0:0:
256,192,180298,1,8,0:0:0:0:
256,192,180437,1,8,0:0:0:0:
256,192,180576,1,0,0:0:0:0:
256,192,180715,1,8,0:0:0:0:
256,192,180993,1,8,0:0:0:0:
256,192,181062,1,8,0:0:0:0:
256,192,181132,1,0,0:0:0:0:
256,192,181201,1,0,0:0:0:0:
256,192,181271,1,8,0:0:0:0:
256,192,181340,1,0,0:0:0:0:
256,192,181409,1,0,0:0:0:0:
256,192,181548,1,12,0:0:0:0:
256,192,181687,1,0,0:0:0:0:
256,192,181757,1,0,0:0:0:0:
256,192,181826,1,8,0:0:0:0:
256,192,181965,1,8,0:0:0:0:
256,192,182104,1,0,0:0:0:0:
256,192,182243,1,8,0:0:0:0:
256,192,182312,1,0,0:0:0:0:
256,192,182382,1,8,0:0:0:0:
256,192,182451,1,8,0:0:0:0:
256,192,182521,1,0,0:0:0:0:
256,192,182660,1,8,0:0:0:0:
256,192,182729,1,0,0:0:0:0:
256,192,182798,1,0,0:0:0:0:
256,192,182868,1,0,0:0:0:0:
256,192,182937,1,8,0:0:0:0:
256,192,183007,1,8,0:0:0:0:
256,192,183076,1,0,0:0:0:0:
256,192,183215,1,8,0:0:0:0:
256,192,183285,1,8,0:0:0:0:
256,192,183354,1,0,0:0:0:0:
256,192,183493,1,8,0:0:0:0:
256,192,183632,1,8,0:0:0:0:
256,192,183771,1,0,0:0:0:0:
256,192,183910,1,8,0:0:0:0:
256,192,184049,1,8,0:0:0:0:
256,192,184326,1,8,0:0:0:0:
256,192,184396,1,8,0:0:0:0:
256,192,184465,1,8,0:0:0:0:
256,192,184604,1,8,0:0:0:0:
256,192,184743,1,0,0:0:0:0:
256,192,184882,1,12,0:0:0:0:
256,192,185021,1,0,0:0:0:0:
256,192,185090,1,0,0:0:0:0:
256,192,185160,1,8,0:0:0:0:
256,192,185229,1,8,0:0:0:0:
256,192,185299,1,0,0:0:0:0:
256,192,185438,1,8,0:0:0:0:
256,192,185507,1,8,0:0:0:0:
256,192,185576,1,0,0:0:0:0:
256,192,185715,1,12,0:0:0:0:
256,192,185854,1,8,0:0:0:0:
256,192,185993,1,0,0:0:0:0:
256,192,186063,1,0,0:0:0:0:
256,192,186132,1,8,0:0:0:0:
256,192,186201,1,0,0:0:0:0:
256,192,186271,1,8,0:0:0:0:
256,192,186340,1,8,0:0:0:0:
256,192,186410,1,0,0:0:0:0:
256,192,186549,1,12,0:0:0:0:
256,192,186688,1,0,0:0:0:0:
256,192,186757,1,0,0:0:0:0:
256,192,186827,1,8,0:0:0:0:
256,192,186965,1,8,0:0:0:0:
256,192,187104,1,8,0:0:0:0:
256,192,187243,1,0,0:0:0:0:
256,192,187382,1,8,0:0:0:0:
256,192,187452,1,8,0:0:0:0:
256,192,187521,1,8,0:0:0:0:
256,192,187660,1,0,0:0:0:0:
256,192,187729,1,0,0:0:0:0:
256,192,187799,1,0,0:0:0:0:
256,192,187868,1,0,0:0:0:0:
256,192,187938,1,8,0:0:0:0:
256,192,188007,1,8,0:0:0:0:
256,192,188077,1,0,0:0:0:0:
256,192,188216,1,12,0:0:0:0:
256,192,188354,1,8,0:0:0:0:
256,192,188493,1,0,0:0:0:0:
256,192,188563,1,0,0:0:0:0:
256,192,188632,1,0,0:0:0:0:
256,192,188771,1,8,0:0:0:0:
256,192,188841,1,0,0:0:0:0:
256,192,188910,1,0,0:0:0:0:
256,192,188979,1,0,0:0:0:0:
256,192,189049,1,8,0:0:0:0:
256,192,189188,1,8,0:0:0:0:
256,192,189327,1,0,0:0:0:0:
256,192,189466,1,8,0:0:0:0:
256,192,189605,1,8,0:0:0:0:
256,192,189674,1,8,0:0:0:0:
256,192,189743,1,0,0:0:0:0:
256,192,189813,1,0,0:0:0:0:
256,192,189882,1,8,0:0:0:0:
256,192,190021,1,0,0:0:0:0:
256,192,190160,1,8,0:0:0:0:
256,192,190299,1,8,0:0:0:0:
256,192,190438,1,8,0:0:0:0:
256,192,190577,1,0,0:0:0:0:
256,192,190716,1,8,0:0:0:0:
256,192,190993,1,8,0:0:0:0:
256,192,191063,1,0,0:0:0:0:
256,192,191132,1,0,0:0:0:0:
256,192,191271,1,8,0:0:0:0:
256,192,191410,1,0,0:0:0:0:
256,192,191549,1,12,0:0:0:0:
256,192,191688,1,0,0:0:0:0:
256,192,191827,1,8,0:0:0:0:
256,192,191896,1,8,0:0:0:0:
256,192,191966,1,8,0:0:0:0:
256,192,192105,1,8,0:0:0:0:
256,192,192174,1,8,0:0:0:0:
256,192,192244,1,0,0:0:0:0:
256,192,192382,1,12,0:0:0:0:
256,192,192521,1,8,0:0:0:0:
256,192,192660,1,8,0:0:0:0:
256,192,192730,1,0,0:0:0:0:
256,192,192799,1,0,0:0:0:0:
256,192,192869,1,0,0:0:0:0:
256,192,192938,1,8,0:0:0:0:
256,192,193008,1,8,0:0:0:0:
256,192,193077,1,0,0:0:0:0:
256,192,193216,1,12,0:0:0:0:
256,192,193355,1,0,0:0:0:0:
256,192,193494,1,8,0:0:0:0:
256,192,193563,1,0,0:0:0:0:
256,192,193633,1,8,0:0:0:0:
256,192,193771,1,8,0:0:0:0:
256,192,193910,1,0,0:0:0:0:
256,192,194049,1,8,0:0:0:0:
256,192,194327,1,8,0:0:0:0:
256,192,194397,1,8,0:0:0:0:
256,192,194466,1,0,0:0:0:0:
256,192,194535,1,0,0:0:0:0:
256,192,194605,1,8,0:0:0:0:
256,192,194674,1,0,0:0:0:0:
256,192,194744,1,0,0:0:0:0:
256,192,194883,1,12,0:0:0:0:
256,192,195022,1,8,0:0:0:0:
256,192,195160,1,0,0:0:0:0:
256,192,195230,1,0,0:0:0:0:
256,192,195299,1,8,0:0:0:0:
256,192,195369,1,8,0:0:0:0:
256,192,195438,1,0,0:0:0:0:
256,192,195577,1,8,0:0:0:0:
256,192,195716,1,8,0:0:0:0:
256,192,195785,1,8,0:0:0:0:
256,192,195855,1,8,0:0:0:0:
256,192,195924,1,8,0:0:0:0:
256,192,195994,1,0,0:0:0:0:
256,192,196133,1,8,0:0:0:0:
256,192,196202,1,8,0:0:0:0:
256,192,196272,1,8,0:0:0:0:
256,192,196411,1,0,0:0:0:0:
256,192,196549,1,8,0:0:0:0:
256,192,196619,1,8,0:0:0:0:
256,192,196688,1,0,0:0:0:0:
256,192,196827,1,8,0:0:0:0:
256,192,196966,1,8,0:0:0:0:
256,192,197105,1,0,0:0:0:0:
256,192,197244,1,0,0:0:0:0:
256,192,197383,1,8,0:0:0:0:
256,192,197661,1,8,0:0:0:0:
256,192,197730,1,8,0:0:0:0:
256,192,197800,1,8,0:0:0:0:
256,192,197938,1,8,0:0:0:0:
256,192,198077,1,0,0:0:0:0:
256,192,198216,1,12,0:0:0:0:
256,192,198355,1,0,0:0:0:0:
256,192,198494,1,8,0:0:0:0:
256,192,198563,1,8,0:0:0:0:
256,192,198633,1,8,0:0:0:0:
256,192,198702,1,0,0:0:0:0:
256,192,198772,1,8,0:0:0:0:
256,192,198841,1,8,0:0:0:0:
256,192,198911,1,0,0:0:0:0:
256,192,199050,1,12,0:0:0:0:
256,192,199189,1,8,0:0:0:0:
256,192,199327,1,0,0:0:0:0:
256,192,199397,1,0,0:0:0:0:
256,192,199466,1,8,0:0:0:0:
256,192,199536,1,0,0:0:0:0:
256,192,199605,1,8,0:0:0:0:
256,192,199675,1,8,0:0:0:0:
256,192,199744,1,0,0:0:0:0:
256,192,199883,1,12,0:0:0:0:
256,192,200022,1,0,0:0:0:0:
256,192,200091,1,0,0:0:0:0:
256,192,200161,1,8,0:0:0:0:
256,192,200300,1,8,0:0:0:0:
256,192,200439,1,8,0:0:0:0:
256,192,200577,1,0,0:0:0:0:
256,192,200716,1,8,0:0:0:0:
256,192,200786,1,8,0:0:0:0:
256,192,200855,1,8,0:0:0:0:
256,192,200925,1,8,0:0:0:0:
256,192,200994,1,0,0:0:0:0:
256,192,201064,1,0,0:0:0:0:
256,192,201133,1,0,0:0:0:0:
256,192,201203,1,0,0:0:0:0:
256,192,201272,1,8,0:0:0:0:
256,192,201341,1,8,0:0:0:0:
256,192,201411,1,0,0:0:0:0:
256,192,201550,1,12,0:0:0:0:
256,192,201828,1,8,0:0:0:0:
256,192,201897,1,8,0:0:0:0:
256,192,201966,1,0,0:0:0:0:
256,192,202036,1,0,0:0:0:0:
256,192,202105,1,8,0:0:0:0:
256,192,202175,1,0,0:0:0:0:
256,192,202244,1,0,0:0:0:0:
256,192,202314,1,0,0:0:0:0:
256,192,202383,1,8,0:0:0:0:
256,192,202453,1,8,0:0:0:0:
256,192,202522,1,8,0:0:0:0:
256,192,202592,1,8,0:0:0:0:
256,192,202661,1,8,0:0:0:0:
256,192,202730,1,8,0:0:0:0:
256,192,202800,1,0,0:0:0:0:
256,192,202869,1,0,0:0:0:0:
256,192,202939,1,8,0:0:0:0:
256,192,203008,1,0,0:0:0:0:
256,192,203078,1,0,0:0:0:0:
256,192,203147,1,0,0:0:0:0:
256,192,203217,1,8,0:0:0:0:
256,192,203286,1,8,0:0:0:0:
256,192,203355,1,0,0:0:0:0:
256,192,203494,1,0,0:0:0:0:
256,192,203564,1,0,0:0:0:0:
256,192,203633,1,0,0:0:0:0:
256,192,203772,1,0,0:0:0:0:
256,192,203842,1,0,0:0:0:0:
256,192,203911,1,0,0:0:0:0:
256,192,204050,1,8,0:0:0:0:
256,192,204119,1,0,0:0:0:0:
256,192,204189,1,0,0:0:0:0:
256,192,204328,1,0,0:0:0:0:
256,192,204397,1,0,0:0:0:0:
256,192,204467,1,0,0:0:0:0:
256,192,204606,1,8,0:0:0:0:
256,192,204675,1,8,0:0:0:0:
256,192,204744,1,8,0:0:0:0:
256,192,204814,1,8,0:0:0:0:
256,192,204883,1,0,0:0:0:0:
256,192,204953,1,0,0:0:0:0:
256,192,205022,1,0,0:0:0:0:
256,192,205092,1,0,0:0:0:0:
256,192,205161,1,8,0:0:0:0:
256,192,205231,1,0,0:0:0:0:
256,192,205300,1,0,0:0:0:0:
256,192,205369,1,0,0:0:0:0:
256,192,205439,1,8,0:0:0:0:
256,192,205508,1,0,0:0:0:0:
256,192,205578,1,0,0:0:0:0:
256,192,205647,1,0,0:0:0:0:
256,192,205717,1,8,0:0:0:0:
256,192,205786,1,8,0:0:0:0:
256,192,205856,1,8,0:0:0:0:
256,192,205925,1,8,0:0:0:0:
256,192,205995,1,8,0:0:0:0:
256,192,206064,1,8,0:0:0:0:
256,192,206133,1,0,0:0:0:0:
256,192,206203,1,0,0:0:0:0:
256,192,206272,1,8,0:0:0:0:
256,192,206342,1,8,0:0:0:0:
256,192,206411,1,8,0:0:0:0:
256,192,206481,1,0,0:0:0:0:
256,192,206550,1,8,0:0:0:0:
256,192,206620,1,8,0:0:0:0:
256,192,206689,1,0,0:0:0:0:
256,192,206828,1,0,0:0:0:0:
256,192,206897,1,0,0:0:0:0:
256,192,206967,1,0,0:0:0:0:
256,192,207106,1,0,0:0:0:0:
256,192,207175,1,0,0:0:0:0:
256,192,207245,1,0,0:0:0:0:
256,192,207384,1,8,0:0:0:0:
256,192,207453,1,0,0:0:0:0:
256,192,207522,1,0,0:0:0:0:
256,192,207661,1,0,0:0:0:0:
256,192,207731,1,0,0:0:0:0:
256,192,207800,1,0,0:0:0:0:
256,192,207939,1,8,0:0:0:0:
256,192,208009,1,8,0:0:0:0:
256,192,208078,1,8,0:0:0:0:
256,192,208217,1,8,0:0:0:0:
256,192,208286,1,8,0:0:0:0:
256,192,208356,1,8,0:0:0:0:
256,192,208425,1,0,0:0:0:0:
256,192,208495,1,8,0:0:0:0:
256,192,208564,1,8,0:0:0:0:
256,192,208634,1,8,0:0:0:0:
256,192,208703,1,0,0:0:0:0:
256,192,208773,1,8,0:0:0:0:
256,192,208842,1,8,0:0:0:0:
256,192,208911,1,8,0:0:0:0:
256,192,208981,1,0,0:0:0:0:
256,192,209050,1,8,0:0:0:0:
256,192,209120,1,8,0:0:0:0:
256,192,209189,1,8,0:0:0:0:
256,192,209259,1,8,0:0:0:0:
256,192,209328,1,8,0:0:0:0:
256,192,209398,1,8,0:0:0:0:
256,192,209467,1,0,0:0:0:0:
256,192,209536,1,0,0:0:0:0:
256,192,209606,1,8,0:0:0:0:
256,192,209675,1,8,0:0:0:0:
256,192,209745,1,0,0:0:0:0:
256,192,209814,1,0,0:0:0:0:
256,192,209884,1,8,0:0:0:0:
256,192,209953,1,8,0:0:0:0:
256,192,210023,1,0,0:0:0:0:
256,192,210161,1,0,0:0:0:0:
256,192,210231,1,0,0:0:0:0:
256,192,210300,1,0,0:0:0:0:
256,192,210439,1,8,0:0:0:0:
256,192,210509,1,0,0:0:0:0:
256,192,210578,1,0,0:0:0:0:
256,192,210717,1,8,0:0:0:0:
256,192,210787,1,8,0:0:0:0:
256,192,210856,1,0,0:0:0:0:
256,192,210995,1,0,0:0:0:0:
256,192,211064,1,0,0:0:0:0:
256,192,211134,1,0,0:0:0:0:
256,192,211273,1,8,0:0:0:0:
256,192,211342,1,8,0:0:0:0:
256,192,211412,1,8,0:0:0:0:
256,192,211481,1,8,0:0:0:0:
256,192,211550,1,0,0:0:0:0:
256,192,211620,1,0,0:0:0:0:
256,192,211689,1,0,0:0:0:0:
256,192,211759,1,0,0:0:0:0:
256,192,211828,1,8,0:0:0:0:
256,192,211898,1,0,0:0:0:0:
256,192,211967,1,0,0:0:0:0:
256,192,212037,1,0,0:0:0:0:
256,192,212106,1,8,0:0:0:0:
256,192,212176,1,0,0:0:0:0:
256,192,212245,1,0,0:0:0:0:
256,192,212314,1,0,0:0:0:0:
256,192,212384,1,8,0:0:0:0:
256,192,212453,1,8,0:0:0:0:
256,192,212523,1,0,0:0:0:0:
256,192,212592,1,0,0:0:0:0:
256,192,212662,1,8,0:0:0:0:
256,192,212731,1,0,0:0:0:0:
256,192,212801,1,0,0:0:0:0:
256,192,212870,1,0,0:0:0:0:
256,192,212939,1,8,0:0:0:0:
256,192,213009,1,8,0:0:0:0:
256,192,213078,1,0,0:0:0:0:
256,192,213148,1,0,0:0:0:0:
256,192,213217,1,8,0:0:0:0:
256,192,213287,1,8,0:0:0:0:
256,192,213356,1,0,0:0:0:0:
256,192,213426,1,0,0:0:0:0:
256,192,213495,1,8,0:0:0:0:
256,192,213565,1,0,0:0:0:0:
256,192,213634,1,0,0:0:0:0:
256,192,213703,1,0,0:0:0:0:
256,192,213773,1,8,0:0:0:0:
256,192,213842,1,0,0:0:0:0:
256,192,213912,1,0,0:0:0:0:
256,192,213981,1,0,0:0:0:0:
256,192,214051,1,8,0:0:0:0:
256,192,214120,1,8,0:0:0:0:
256,192,214190,1,8,0:0:0:0:
256,192,214259,1,8,0:0:0:0:
256,192,214328,1,8,0:0:0:0:
256,192,214398,1,8,0:0:0:0:
256,192,214467,1,8,0:0:0:0:
256,192,214537,1,8,0:0:0:0:
256,192,214606,1,8,0:0:0:0:
256,192,214676,1,8,0:0:0:0:
256,192,214745,1,8,0:0:0:0:
256,192,214884,1,12,0:0:0:0:
256,192,215023,1,0,0:0:0:0:
256,192,215162,1,8,0:0:0:0:
256,192,215231,1,0,0:0:0:0:
256,192,215301,1,0,0:0:0:0:
256,192,215440,1,8,0:0:0:0:
256,192,215509,1,0,0:0:0:0:
256,192,215579,1,0,0:0:0:0:
256,192,215717,1,12,0:0:0:0:
256,192,215856,1,0,0:0:0:0:
256,192,215995,1,8,0:0:0:0:
256,192,216065,1,8,0:0:0:0:
256,192,216134,1,0,0:0:0:0:
256,192,216273,1,8,0:0:0:0:
256,192,216342,1,0,0:0:0:0:
256,192,216412,1,0,0:0:0:0:
256,192,216551,1,12,0:0:0:0:
256,192,216690,1,0,0:0:0:0:
256,192,216829,1,8,0:0:0:0:
256,192,216898,1,8,0:0:0:0:
256,192,216968,1,0,0:0:0:0:
256,192,217106,1,8,0:0:0:0:
256,192,217176,1,8,0:0:0:0:
256,192,217245,1,0,0:0:0:0:
256,192,217384,1,8,0:0:0:0:
256,192,217454,1,8,0:0:0:0:
256,192,217523,1,0,0:0:0:0:
256,192,217593,1,0,0:0:0:0:
256,192,217662,1,8,0:0:0:0:
256,192,217731,1,8,0:0:0:0:
256,192,217801,1,8,0:0:0:0:
256,192,217870,1,0,0:0:0:0:
256,192,217940,1,8,0:0:0:0:
256,192,218009,1,8,0:0:0:0:
256,192,218079,1,8,0:0:0:0:
256,192,218218,1,12,0:0:0:0:
256,192,218357,1,0,0:0:0:0:
256,192,218495,1,8,0:0:0:0:
256,192,218565,1,8,0:0:0:0:
256,192,218634,1,0,0:0:0:0:
256,192,218773,1,8,0:0:0:0:
256,192,218843,1,0,0:0:0:0:
256,192,218912,1,0,0:0:0:0:
256,192,219051,1,12,0:0:0:0:
256,192,219190,1,0,0:0:0:0:
256,192,219329,1,8,0:0:0:0:
256,192,219398,1,8,0:0:0:0:
256,192,219468,1,0,0:0:0:0:
256,192,219607,1,8,0:0:0:0:
256,192,219676,1,8,0:0:0:0:
256,192,219745,1,0,0:0:0:0:
256,192,219884,1,12,0:0:0:0:
256,192,220023,1,0,0:0:0:0:
256,192,220162,1,8,0:0:0:0:
256,192,220232,1,8,0:0:0:0:
256,192,220301,1,8,0:0:0:0:
256,192,220440,1,8,0:0:0:0:
256,192,220509,1,8,0:0:0:0:
256,192,220579,1,0,0:0:0:0:
256,192,220718,1,0,0:0:0:0:
256,192,220787,1,8,0:0:0:0:
256,192,220857,1,0,0:0:0:0:
256,192,220996,1,8,0:0:0:0:
256,192,221065,1,0,0:0:0:0:
256,192,221134,1,0,0:0:0:0:
256,192,221273,1,8,0:0:0:0:
256,192,221343,1,8,0:0:0:0:
256,192,221412,1,0,0:0:0:0:
256,192,221551,1,12,0:0:0:0:
256,192,221690,1,8,0:0:0:0:
256,192,221829,1,0,0:0:0:0:
256,192,221898,1,0,0:0:0:0:
256,192,221968,1,8,0:0:0:0:
256,192,222107,1,0,0:0:0:0:
256,192,222176,1,0,0:0:0:0:
256,192,222246,1,8,0:0:0:0:
256,192,222385,1,12,0:0:0:0:
256,192,222523,1,8,0:0:0:0:
256,192,222662,1,0,0:0:0:0:
256,192,222732,1,8,0:0:0:0:
256,192,222801,1,0,0:0:0:0:
256,192,222940,1,0,0:0:0:0:
256,192,223010,1,8,0:0:0:0:
256,192,223079,1,0,0:0:0:0:
256,192,223218,1,12,0:0:0:0:
256,192,223357,1,8,0:0:0:0:
256,192,223496,1,8,0:0:0:0:
256,192,223565,1,0,0:0:0:0:
256,192,223635,1,0,0:0:0:0:
256,192,223774,1,8,0:0:0:0:
256,192,223843,1,0,0:0:0:0:
256,192,223912,1,0,0:0:0:0:
256,192,224051,1,8,0:0:0:0:
256,192,224121,1,8,0:0:0:0:
256,192,224190,1,8,0:0:0:0:
256,192,224260,1,0,0:0:0:0:
256,192,224329,1,8,0:0:0:0:
256,192,224399,1,0,0:0:0:0:
256,192,224468,1,0,0:0:0:0:
256,192,224537,1,0,0:0:0:0:
256,192,224607,1,8,0:0:0:0:
256,192,224676,1,8,0:0:0:0:
256,192,224746,1,8,0:0:0:0:
256,192,224885,1,12,0:0:0:0:
256,192,225024,1,8,0:0:0:0:
256,192,225163,1,0,0:0:0:0:
256,192,225232,1,8,0:0:0:0:
256,192,225301,1,8,0:0:0:0:
256,192,225440,1,0,0:0:0:0:
256,192,225510,1,0,0:0:0:0:
256,192,225579,1,8,0:0:0:0:
256,192,225718,1,12,0:0:0:0:
256,192,225857,1,8,0:0:0:0:
256,192,225996,1,0,0:0:0:0:
256,192,226065,1,8,0:0:0:0:
256,192,226135,1,8,0:0:0:0:
256,192,226274,1,0,0:0:0:0:
256,192,226343,1,8,0:0:0:0:
256,192,226413,1,0,0:0:0:0:
256,192,226552,1,12,0:0:0:0:
256,192,226690,1,8,0:0:0:0:
256,192,226829,1,8,0:0:0:0:
256,192,226899,1,8,0:0:0:0:
256,192,226968,1,0,0:0:0:0:
256,192,227107,1,8,0:0:0:0:
256,192,227177,1,8,0:0:0:0:
256,192,227246,1,0,0:0:0:0:
256,192,227385,1,8,0:0:0:0:
256,192,227454,1,8,0:0:0:0:
256,192,227524,1,8,0:0:0:0:
256,192,227663,1,0,0:0:0:0:
256,192,227732,1,0,0:0:0:0:
256,192,227802,1,0,0:0:0:0:
256,192,227941,1,8,0:0:0:0:
256,192,228010,1,8,0:0:0:0:
256,192,228079,1,8,0:0:0:0:
256,192,228218,1,4,0:0:0:0:
