osu file format v14

[General]
AudioFilename: audio.mp3
AudioLeadIn: 0
PreviewTime: 38395
Countdown: 0
SampleSet: Normal
StackLeniency: 0.7
Mode: 1
LetterboxInBreaks: 0
WidescreenStoryboard: 1

[Editor]
DistanceSpacing: 0.8
BeatDivisor: 4
GridSize: 32
TimelineZoom: 2.4

[Metadata]
Title:Deathmask Divine
TitleUnicode:Deathmask Divine
Artist:The Black Dahlia Murder
ArtistUnicode:The Black Dahlia Murder
Creator:Ognjen3800
Version:Ura Oni
Source:
Tags:melodic death metal metalcore deathcore nocturnal english metal blade records Burak JustBurak skolodojko TBDM meiqth
BeatmapID:3914442
BeatmapSetID:1896838

[Difficulty]
HPDrainRate:5
CircleSize:2
OverallDifficulty:7
ApproachRate:10
SliderMultiplier:1.4
SliderTickRate:1

[Events]
//Background and Video events
0,0,"maxresdefault.jpg",0,0
//Break Periods
//Storyboard Layer 0 (Background)
//Storyboard Layer 1 (Fail)
//Storyboard Layer 2 (Pass)
//Storyboard Layer 3 (Foreground)
//Storyboard Layer 4 (Overlay)
//Storyboard Sound Samples

[TimingPoints]
567,263.157895,4,1,0,100,1,0
4240,-100,4,1,0,100,0,0
4306,-99.3777107297756,4,1,0,100,0,0
4371,-98.772373723175,4,1,0,100,0,0
4437,-98.1652230604452,4,1,0,100,0,0
4503,-97.5654910672961,4,1,0,100,0,0
4634,-96.3965611852936,4,1,0,100,0,0
4700,-95.8181818181818,4,1,0,100,0,0
4767,-95.2380952380952,4,1,0,100,0,0
12661,-95.2380952380952,4,1,0,100,0,0
12727,-96.0019443431766,4,1,0,100,0,0
12792,-96.766291033807,4,1,0,100,0,0
12858,-97.5549518399605,4,1,0,100,0,0
12924,-98.3565737051793,4,1,0,100,0,0
12990,-99.1714787848355,4,1,0,100,0,0
13056,-100,4,1,0,100,0,0
13188,-95.2380952380952,4,1,0,100,0,0
21082,-95.2380952380952,4,1,0,100,0,0
21148,-94.6734932183598,4,1,0,100,0,0
21213,-94.1239507054831,4,1,0,100,0,0
21345,-93.027360988526,4,1,0,100,0,0
21411,-92.4885924885925,4,1,0,100,0,0
21477,-91.9560286162973,4,1,0,100,0,0
21542,-91.4374945779474,4,1,0,100,0,0
21608,-90.9169326317605,4,1,0,100,0,0
29371,-90.9173561232839,4,1,0,100,0,0
29437,-91.7404715041966,4,1,0,100,0,0
29503,-92.5916414513923,4,1,0,100,0,0
29569,-93.4587536550824,4,1,0,100,0,0
29634,-94.3287491663804,4,1,0,100,0,0
29700,-95.2288604231461,4,1,0,100,0,0
29766,-96.1463154043347,4,1,0,100,0,0
29832,-97.081620265685,4,1,0,100,0,0
29898,-98.0353010518085,4,1,0,100,0,0
29963,-98.9930243015839,4,1,0,100,0,0
30030,-100,4,1,0,100,0,0
30294,-90.9090909090909,4,1,0,100,0,0
34503,-90.9090909090909,4,1,0,100,0,0
34569,-91.324200913242,4,1,0,100,0,0
34634,-91.7367433456112,4,1,0,100,0,0
34700,-92.1594637994833,4,1,0,100,0,0
34766,-92.5860980570948,4,1,0,100,0,0
35029,-92.5840199981483,4,1,0,100,0,0
35095,-93.0118071946578,4,1,0,100,0,0
35161,-93.4502397016415,4,1,0,100,0,0
35227,-93.8928250887341,4,1,0,100,0,0
35292,-94.3328212579551,4,1,0,100,0,0
35556,-94.3307235166494,4,1,0,100,0,0
35621,-94.773363135492,4,1,0,100,0,0
35687,-95.2270834032349,4,1,0,100,0,0
35753,-95.6851688715893,4,1,0,100,0,0
35819,-96.1476828408435,4,1,0,100,0,0
35884,-96.6075801319471,4,1,0,100,0,0
35950,-97.0790763830231,4,1,0,100,0,0
36016,-97.5551975097088,4,1,0,100,0,0
36082,-98.0360118950361,4,1,0,100,0,0
36213,-99.0045338806314,4,1,0,100,0,0
36279,-99.4997771658983,4,1,0,100,0,0
36345,-100,4,1,0,100,0,0
36610,-90.9090909090909,4,1,0,100,0,0
37534,-90.9090909090909,4,1,0,100,0,0
37600,-91.4961255712299,4,1,0,100,0,0
37666,-92.1,4,1,0,100,0,0
37732,-92.7118985303,4,1,0,100,0,0
37797,-93.3225250785287,4,1,0,100,0,0
37863,-93.9508313781495,4,1,0,100,0,0
37929,-94.5876553353189,4,1,0,100,0,0
37995,-95.2331713369869,4,1,0,100,0,0
38061,-95.8875585632483,4,1,0,100,0,0
38126,-96.5408805031446,4,1,0,100,0,0
38192,-97.213426219126,4,1,0,100,0,0
38324,-98.5870263326911,4,1,0,100,0,0
38461,-99.9891434154815,4,1,0,100,0,1
41478,-95.2380952380952,4,1,0,100,0,1
42398,-95.2380952380952,4,1,0,100,0,1
42463,-95.9902794653706,4,1,0,100,0,1
42529,-96.766291033807,4,1,0,100,0,1
42595,-97.5549518399605,4,1,0,100,0,1
42661,-98.3565737051793,4,1,0,100,0,1
42792,-99.9873433742564,4,1,0,100,0,1
45820,-95.2380952380952,4,1,0,100,0,1
46477,-95.2380952380952,4,1,0,100,0,1
46608,-96.3811268896015,4,1,0,100,0,1
46740,-97.5609756097561,4,1,0,100,0,1
46806,-98.1617990109172,4,1,0,100,0,1
46871,-98.7607960946301,4,1,0,100,0,1
47003,-100,4,1,0,100,0,1
50026,-95.2380952380952,4,1,0,100,0,1
50818,-96.3722975448882,4,1,0,100,0,1
50884,-96.9585253456221,4,1,0,100,0,1
50950,-97.5519287833828,4,1,0,100,0,1
51016,-98.1526404179884,4,1,0,100,0,1
51082,-98.7607960946301,4,1,0,100,0,1
51213,-99.990495200076,4,1,0,100,0,1
54251,-100,4,1,0,100,0,0
62666,-100,4,1,0,100,0,0
62732,-99.3777107297756,4,1,0,100,0,0
62797,-98.772373723175,4,1,0,100,0,0
62863,-98.1652230604452,4,1,0,100,0,0
62929,-97.5654910672961,4,1,0,100,0,0
62995,-96.9730425982151,4,1,0,100,0,0
63061,-96.3877457704618,4,1,0,100,0,0
63126,-95.8181818181818,4,1,0,100,0,0
63192,-95.2467016085306,4,1,0,100,0,0
63324,-95.2471663967997,4,1,0,100,0,0
63455,-96.7725497190411,4,1,0,100,0,0
63521,-97.5597226043654,4,1,0,100,0,0
63587,-98.3598066470312,4,1,0,100,0,0
63653,-99.1731221255487,4,1,0,100,0,0
63718,-99.9873686843105,4,1,0,100,0,0
72145,-100,4,1,0,100,0,1
75162,-95.2380952380952,4,1,0,100,0,1
75950,-95.2380952380952,4,1,0,100,0,1
76082,-96.3811268896015,4,1,0,100,0,1
76147,-96.9585253456221,4,1,0,100,0,1
76213,-97.5519287833828,4,1,0,100,0,1
76279,-98.1526404179884,4,1,0,100,0,1
76345,-98.7607960946301,4,1,0,100,0,1
76476,-99.990495200076,4,1,0,100,0,1
78452,-95.2380952380952,4,1,0,100,0,1
79503,-95.2380952380952,4,1,0,100,0,1
79591,-96.0021880840589,4,1,0,100,0,1
79678,-96.7697468179938,4,1,0,100,0,1
79766,-97.558715893825,4,1,0,100,0,1
79854,-98.3606557377049,4,1,0,100,0,1
79941,-99.1665489475915,4,1,0,100,0,1
80029,-99.9952518873748,4,1,0,100,0,1
80108,-100.837921953555,4,1,0,100,0,1
80196,-101.694915254237,4,1,0,100,0,1
80293,-103.092783505155,4,1,0,100,0,1
80371,-104.166666666667,4,1,0,100,0,1
80459,-105.263157894737,4,1,0,100,0,1
80567,-105.263157894737,4,1,0,100,0,0
84773,-105.263157894737,4,1,0,100,0,0
88983,-105.263157894737,4,1,0,100,0,0
93194,-105.263157894737,4,1,0,100,0,0
97404,-105.263157894737,4,1,0,100,0,0
101615,-105.263157894737,4,1,0,100,0,0
105825,-105.263157894737,4,1,0,100,0,0
110036,-105.263157894737,4,1,0,100,0,0
113324,-105.263157894737,4,1,0,100,0,0
113455,-106.057116536159,4,1,0,100,0,0
113521,-106.461680730551,4,1,0,100,0,0
113587,-106.869343235089,4,1,0,100,0,0
113653,-107.280139778684,4,1,0,100,0,0
113718,-107.687810581701,4,1,0,100,0,0
113784,-108.104935735665,4,1,0,100,0,0
113850,-108.525304896011,4,1,0,100,0,0
113916,-108.948956053706,4,1,0,100,0,0
113982,-109.375927795262,4,1,0,100,0,0
114047,-109.799713876967,4,1,0,100,0,0
114113,-110.233393177738,4,1,0,100,0,0
114179,-110.670511896179,4,1,0,100,0,0
114245,-111.111111111111,4,1,0,100,0,0
114514,-111.111111111111,4,1,0,80,0,0
130556,-109.89010989011,4,1,0,80,0,0
130621,-108.695652173913,4,1,0,80,0,0
130687,-107.52688172043,4,1,0,80,0,0
130753,-106.672074629893,4,1,0,80,0,0
130819,-105.263157894737,4,1,0,80,0,0
130884,-103.911497431845,4,1,0,80,0,0
130950,-102.574102964119,4,1,0,80,0,0
131016,-102.040816326531,4,1,0,80,0,0
131076,-101.010101010101,4,1,0,100,0,0
131159,-100,4,1,0,100,0,0
164108,-100.015199878401,4,1,0,100,0,0
164174,-99.0218209179834,4,1,0,100,0,0
164240,-98.0479809268365,4,1,0,100,0,0
164306,-97.0931090453003,4,1,0,100,0,0
164371,-96.1707103186203,4,1,0,100,0,0
164437,-95.2518818760857,4,1,0,100,0,0
164503,-94.3504445081732,4,1,0,100,0,0
164569,-93.4659090909091,4,1,0,100,0,0
164634,-92.6108374384236,4,1,0,100,0,0
164700,-91.7584716218101,4,1,0,100,0,0
164777,-90.9216526184883,4,1,0,100,0,1
172135,-90.9090909090909,4,1,0,100,0,1
172266,-91.9490045406916,4,1,0,100,0,1
172398,-93.0212014134275,4,1,0,100,0,1
172529,-94.1102868889087,4,1,0,100,0,1
172661,-95.2337885502397,4,1,0,100,0,1
172727,-95.8056591756892,4,1,0,100,0,1
172792,-96.3756177924217,4,1,0,100,0,1
172858,-96.9613259668508,4,1,0,100,0,1
172924,-97.5541967759867,4,1,0,100,0,1
173056,-98.7619583567811,4,1,0,100,0,1
173187,-99.9905042256196,4,1,0,100,0,1
173452,-90.9090909090909,4,1,0,100,0,1
180556,-90.9090909090909,4,1,0,100,0,1
180643,-91.9449901768173,4,1,0,100,0,1
180731,-93.0170928845899,4,1,0,100,0,1
180819,-94.1144925593243,4,1,0,100,0,1
180906,-95.2251763429192,4,1,0,100,0,1
180994,-96.3756177924217,4,1,0,100,0,1
181082,-97.5541967759867,4,1,0,100,0,1
181170,-98.7619583567811,4,1,0,100,0,1
181257,-99.9857570146703,4,1,0,100,0,1
181345,-101.254868022501,4,1,0,100,0,1
181433,-102.556610664719,4,1,0,100,0,1
181520,-103.876886652856,4,1,0,100,0,1
181619,-105.263157894737,4,1,0,100,0,0
214371,-105.269173619842,4,1,0,100,0,0
214503,-104.480998298355,4,1,0,100,0,0
214569,-104.091320072333,4,1,0,100,0,0
214634,-103.71037666798,4,1,0,100,0,0
214700,-103.326414988501,4,1,0,100,0,0
214766,-102.945285865981,4,1,0,100,0,0
214898,-102.191400832177,4,1,0,100,0,0
214963,-101.824212271973,4,1,0,100,0,0
215029,-101.454064771976,4,1,0,100,0,0
215095,-101.086598617056,4,1,0,100,0,0
215161,-100.721784776903,4,1,0,100,0,0
215227,-100.359594638771,4,1,0,100,0,0
215293,-100.005429176394,4,1,0,100,0,0

[HitObjects]
256,194,567,5,0,0:0:0:0:
256,194,698,1,0,0:0:0:0:
256,194,830,1,8,0:0:0:0:
256,194,961,1,0,0:0:0:0:
256,194,1093,1,12,0:0:0:0:
256,194,1356,1,8,0:0:0:0:
256,194,1422,1,8,0:0:0:0:
256,194,1488,1,0,0:0:0:0:
256,194,1619,1,8,0:0:0:0:
256,194,1685,1,0,0:0:0:0:
256,194,1751,1,0,0:0:0:0:
256,194,1882,1,12,0:0:0:0:
256,194,2145,1,0,0:0:0:0:
256,194,2277,1,0,0:0:0:0:
256,194,2409,1,8,0:0:0:0:
256,194,2540,1,0,0:0:0:0:
256,194,2672,1,8,0:0:0:0:
256,194,2803,1,8,0:0:0:0:
256,194,2935,1,0,0:0:0:0:
256,194,3067,1,0,0:0:0:0:
256,194,3198,1,12,0:0:0:0:
256,194,3461,1,8,0:0:0:0:
256,194,3527,1,0,0:0:0:0:
256,194,3593,1,0,0:0:0:0:
256,194,3724,1,8,0:0:0:0:
256,194,3790,1,0,0:0:0:0:
256,194,3856,1,0,0:0:0:0:
256,194,3988,1,12,0:0:0:0:
256,194,4251,1,8,0:0:0:0:
256,194,4317,1,8,0:0:0:0:
256,194,4382,1,0,0:0:0:0:
256,194,4448,1,0,0:0:0:0:
256,194,4514,1,8,0:0:0:0:
256,194,4645,1,0,0:0:0:0:
256,194,4711,1,0,0:0:0:0:
256,194,4777,1,8,0:0:0:0:
256,194,4909,1,0,0:0:0:0:
256,194,5040,1,8,0:0:0:0:
256,194,5106,1,0,0:0:0:0:
256,194,5172,1,0,0:0:0:0:
256,194,5303,1,8,0:0:0:0:
256,194,5435,1,0,0:0:0:0:
256,194,5567,1,8,0:0:0:0:
256,194,5632,1,0,0:0:0:0:
256,194,5698,1,8,0:0:0:0:
256,194,5764,1,0,0:0:0:0:
256,194,5830,1,0,0:0:0:0:
256,194,5961,1,0,0:0:0:0:
256,194,6093,1,8,0:0:0:0:
256,194,6224,1,0,0:0:0:0:
256,194,6356,1,8,0:0:0:0:
258,196,6488,1,0,0:0:0:0:
256,194,6619,1,8,0:0:0:0:
256,194,6685,1,8,0:0:0:0:
256,194,6751,1,0,0:0:0:0:
256,194,6817,1,0,0:0:0:0:
256,194,6882,1,8,0:0:0:0:
256,194,7014,1,0,0:0:0:0:
256,194,7145,1,8,0:0:0:0:
256,194,7211,1,8,0:0:0:0:
256,194,7277,1,0,0:0:0:0:
256,194,7409,1,8,0:0:0:0:
256,194,7474,1,0,0:0:0:0:
256,194,7540,1,8,0:0:0:0:
256,194,7672,1,0,0:0:0:0:
256,194,7803,1,0,0:0:0:0:
258,196,7935,1,8,0:0:0:0:
258,196,8001,1,8,0:0:0:0:
256,194,8067,1,0,0:0:0:0:
256,194,8132,1,0,0:0:0:0:
256,194,8198,1,0,0:0:0:0:
256,194,8330,1,8,0:0:0:0:
256,194,8461,1,0,0:0:0:0:
256,194,8527,1,0,0:0:0:0:
256,194,8593,1,8,0:0:0:0:
258,196,8724,1,0,0:0:0:0:
256,194,8856,1,0,0:0:0:0:
262,200,8988,1,8,0:0:0:0:
256,194,9119,1,0,0:0:0:0:
256,194,9251,1,8,0:0:0:0:
256,194,9317,1,8,0:0:0:0:
258,196,9382,1,0,0:0:0:0:
258,196,9514,1,8,0:0:0:0:
256,194,9645,1,0,0:0:0:0:
256,194,9711,1,0,0:0:0:0:
256,194,9777,1,8,0:0:0:0:
256,194,9843,1,0,0:0:0:0:
256,194,9909,1,8,0:0:0:0:
256,194,9974,1,8,0:0:0:0:
256,194,10040,1,0,0:0:0:0:
256,194,10172,1,8,0:0:0:0:
256,194,10303,1,0,0:0:0:0:
256,194,10369,1,0,0:0:0:0:
256,194,10435,1,8,0:0:0:0:
256,194,10567,1,0,0:0:0:0:
256,194,10698,1,0,0:0:0:0:
256,194,10830,1,8,0:0:0:0:
256,194,10895,1,0,0:0:0:0:
256,194,10961,1,0,0:0:0:0:
256,194,11027,1,0,0:0:0:0:
256,194,11093,1,8,0:0:0:0:
256,194,11224,1,0,0:0:0:0:
256,193,11356,1,8,0:0:0:0:
256,193,11422,1,0,0:0:0:0:
256,193,11488,1,0,0:0:0:0:
256,193,11619,1,8,0:0:0:0:
256,194,11751,1,8,0:0:0:0:
256,194,11882,1,0,0:0:0:0:
256,194,11948,1,0,0:0:0:0:
256,194,12014,1,0,0:0:0:0:
256,194,12080,1,0,0:0:0:0:
256,194,12145,1,8,0:0:0:0:
256,194,12277,1,0,0:0:0:0:
256,194,12409,1,8,0:0:0:0:
256,194,12540,1,0,0:0:0:0:
256,194,12672,1,8,0:0:0:0:
256,194,12738,1,8,0:0:0:0:
256,194,12803,1,0,0:0:0:0:
256,194,12869,1,0,0:0:0:0:
256,193,12935,1,8,0:0:0:0:
256,194,13001,1,0,0:0:0:0:
256,193,13067,1,0,0:0:0:0:
256,193,13198,1,8,0:0:0:0:
256,193,13330,1,0,0:0:0:0:
256,193,13461,1,8,0:0:0:0:
256,193,13593,1,0,0:0:0:0:
256,193,13659,1,0,0:0:0:0:
256,192,13724,1,8,0:0:0:0:
256,192,13856,1,0,0:0:0:0:
256,192,13988,1,8,0:0:0:0:
256,192,14053,1,0,0:0:0:0:
256,193,14119,1,8,0:0:0:0:
256,193,14251,1,0,0:0:0:0:
256,193,14382,1,8,0:0:0:0:
256,192,14514,1,0,0:0:0:0:
256,192,14580,1,0,0:0:0:0:
256,192,14645,1,8,0:0:0:0:
256,192,14711,1,0,0:0:0:0:
256,192,14777,1,8,0:0:0:0:
256,192,14843,1,8,0:0:0:0:
256,192,14909,1,0,0:0:0:0:
256,193,15040,1,8,0:0:0:0:
256,193,15172,1,0,0:0:0:0:
256,192,15303,1,8,0:0:0:0:
256,192,15369,1,8,0:0:0:0:
256,192,15435,1,0,0:0:0:0:
256,192,15567,1,8,0:0:0:0:
256,193,15698,1,0,0:0:0:0:
256,193,15764,1,0,0:0:0:0:
256,193,15830,1,8,0:0:0:0:
256,193,15895,1,0,0:0:0:0:
256,193,15961,1,8,0:0:0:0:
256,192,16093,1,0,0:0:0:0:
256,192,16224,1,0,0:0:0:0:
256,192,16356,1,8,0:0:0:0:
256,192,16422,1,8,0:0:0:0:
256,193,16488,1,8,0:0:0:0:
256,193,16553,1,8,0:0:0:0:
256,193,16619,1,0,0:0:0:0:
256,193,16751,1,8,0:0:0:0:
256,193,16882,1,8,0:0:0:0:
256,193,17014,1,0,0:0:0:0:
256,193,17145,1,8,0:0:0:0:
256,193,17211,1,8,0:0:0:0:
256,194,17277,1,0,0:0:0:0:
256,193,17343,1,0,0:0:0:0:
256,193,17409,1,8,0:0:0:0:
256,192,17540,1,0,0:0:0:0:
256,193,17672,1,8,0:0:0:0:
256,192,17803,1,8,0:0:0:0:
256,192,17935,1,0,0:0:0:0:
256,193,18067,1,8,0:0:0:0:
256,193,18198,1,0,0:0:0:0:
256,193,18264,1,0,0:0:0:0:
256,193,18330,1,8,0:0:0:0:
256,193,18395,1,0,0:0:0:0:
256,192,18461,1,0,0:0:0:0:
256,192,18527,1,0,0:0:0:0:
256,192,18593,1,8,0:0:0:0:
256,192,18724,1,0,0:0:0:0:
256,192,18790,1,0,0:0:0:0:
256,193,18856,1,8,0:0:0:0:
256,193,18988,1,0,0:0:0:0:
256,192,19119,1,0,0:0:0:0:
256,192,19251,1,8,0:0:0:0:
256,192,19317,1,8,0:0:0:0:
256,192,19382,1,0,0:0:0:0:
256,192,19514,1,8,0:0:0:0:
256,193,19645,1,0,0:0:0:0:
256,193,19777,1,8,0:0:0:0:
256,193,19843,1,0,0:0:0:0:
256,193,19909,1,0,0:0:0:0:
256,193,20040,1,8,0:0:0:0:
256,193,20106,1,0,0:0:0:0:
256,193,20172,1,8,0:0:0:0:
256,193,20238,1,8,0:0:0:0:
256,193,20303,1,0,0:0:0:0:
256,193,20369,1,0,0:0:0:0:
256,193,20435,1,8,0:0:0:0:
256,194,20567,1,0,0:0:0:0:
256,194,20698,1,0,0:0:0:0:
256,194,20830,1,8,0:0:0:0:
256,194,20961,1,0,0:0:0:0:
256,194,21093,1,8,0:0:0:0:
256,194,21159,1,8,0:0:0:0:
256,195,21224,1,0,0:0:0:0:
256,195,21356,1,8,0:0:0:0:
256,194,21422,1,0,0:0:0:0:
256,194,21488,1,0,0:0:0:0:
256,194,21553,1,0,0:0:0:0:
256,194,21619,1,8,0:0:0:0:
256,194,21751,1,0,0:0:0:0:
256,195,21817,1,0,0:0:0:0:
256,194,21882,1,8,0:0:0:0:
256,194,21948,1,0,0:0:0:0:
256,195,22014,1,0,0:0:0:0:
256,195,22080,1,0,0:0:0:0:
256,195,22145,1,8,0:0:0:0:
256,195,22211,1,8,0:0:0:0:
256,194,22277,1,0,0:0:0:0:
256,194,22409,1,8,0:0:0:0:
256,194,22474,1,0,0:0:0:0:
256,194,22540,1,0,0:0:0:0:
256,194,22606,1,0,0:0:0:0:
256,194,22672,1,8,0:0:0:0:
256,194,22738,1,8,0:0:0:0:
256,194,22803,1,0,0:0:0:0:
256,194,22869,1,0,0:0:0:0:
256,194,22935,1,8,0:0:0:0:
256,193,23067,1,0,0:0:0:0:
256,194,23132,1,0,0:0:0:0:
256,193,23198,1,8,0:0:0:0:
256,194,23264,1,0,0:0:0:0:
256,194,23330,1,0,0:0:0:0:
256,194,23395,1,0,0:0:0:0:
256,194,23461,1,8,0:0:0:0:
256,194,23593,1,0,0:0:0:0:
256,194,23659,1,0,0:0:0:0:
256,195,23724,1,8,0:0:0:0:
256,194,23790,1,0,0:0:0:0:
256,194,23856,1,8,0:0:0:0:
256,194,23922,1,8,0:0:0:0:
256,194,23988,1,0,0:0:0:0:
256,194,24053,1,0,0:0:0:0:
256,194,24119,1,8,0:0:0:0:
256,194,24185,1,0,0:0:0:0:
256,194,24251,1,8,0:0:0:0:
256,194,24317,1,8,0:0:0:0:
256,195,24382,1,0,0:0:0:0:
256,195,24514,1,8,0:0:0:0:
256,195,24580,1,8,0:0:0:0:
256,194,24645,1,0,0:0:0:0:
256,194,24711,1,0,0:0:0:0:
256,194,24777,1,8,0:0:0:0:
256,194,24843,1,0,0:0:0:0:
256,194,24909,1,0,0:0:0:0:
256,194,24974,1,0,0:0:0:0:
256,194,25040,1,8,0:0:0:0:
256,194,25106,1,8,0:0:0:0:
256,195,25172,1,0,0:0:0:0:
256,194,25238,1,0,0:0:0:0:
256,195,25303,1,8,0:0:0:0:
256,195,25369,1,8,0:0:0:0:
256,195,25435,1,8,0:0:0:0:
256,195,25501,1,0,0:0:0:0:
256,195,25567,1,8,0:0:0:0:
256,195,25698,1,0,0:0:0:0:
256,195,25764,1,0,0:0:0:0:
256,195,25830,1,8,0:0:0:0:
256,195,25895,1,8,0:0:0:0:
256,196,25961,1,0,0:0:0:0:
256,196,26027,1,0,0:0:0:0:
256,196,26093,1,8,0:0:0:0:
256,196,26159,1,0,0:0:0:0:
256,195,26224,1,0,0:0:0:0:
256,196,26290,1,0,0:0:0:0:
256,195,26356,1,8,0:0:0:0:
256,196,26488,1,0,0:0:0:0:
256,196,26553,1,0,0:0:0:0:
256,196,26619,1,8,0:0:0:0:
256,196,26685,1,8,0:0:0:0:
256,197,26751,1,8,0:0:0:0:
256,196,26817,1,0,0:0:0:0:
256,197,26882,1,8,0:0:0:0:
256,196,26948,1,0,0:0:0:0:
256,196,27014,1,0,0:0:0:0:
256,196,27145,1,8,0:0:0:0:
258,196,27211,1,0,0:0:0:0:
256,196,27277,1,0,0:0:0:0:
258,196,27343,1,0,0:0:0:0:
256,196,27409,1,8,0:0:0:0:
256,196,27474,1,8,0:0:0:0:
256,197,27540,1,0,0:0:0:0:
256,196,27606,1,0,0:0:0:0:
258,196,27672,1,8,0:0:0:0:
258,196,27803,1,0,0:0:0:0:
258,196,27869,1,0,0:0:0:0:
258,196,27935,1,8,0:0:0:0:
258,196,28001,1,8,0:0:0:0:
258,196,28067,1,0,0:0:0:0:
257,196,28132,1,0,0:0:0:0:
258,196,28198,1,8,0:0:0:0:
256,196,28264,1,0,0:0:0:0:
258,197,28330,1,0,0:0:0:0:
256,196,28395,1,0,0:0:0:0:
256,196,28461,1,8,0:0:0:0:
256,195,28593,1,0,0:0:0:0:
256,196,28659,1,0,0:0:0:0:
256,195,28724,1,8,0:0:0:0:
258,196,28790,1,8,0:0:0:0:
256,195,28856,1,8,0:0:0:0:
257,196,28922,1,8,0:0:0:0:
256,195,28988,1,0,0:0:0:0:
256,196,29053,1,0,0:0:0:0:
256,196,29119,1,0,0:0:0:0:
256,196,29185,1,0,0:0:0:0:
256,196,29251,1,8,0:0:0:0:
256,195,29382,1,0,0:0:0:0:
256,195,29448,1,0,0:0:0:0:
256,195,29514,1,8,0:0:0:0:
258,196,29580,1,0,0:0:0:0:
256,195,29645,1,0,0:0:0:0:
257,196,29711,1,0,0:0:0:0:
256,195,29777,1,8,0:0:0:0:
256,195,29843,1,0,0:0:0:0:
256,195,29909,1,0,0:0:0:0:
256,195,29974,1,0,0:0:0:0:
256,195,30040,1,8,0:0:0:0:
256,195,30303,1,8,0:0:0:0:
258,195,30369,1,8,0:0:0:0:
256,195,30435,1,0,0:0:0:0:
256,195,30501,1,0,0:0:0:0:
256,195,30567,1,8,0:0:0:0:
255,195,30632,1,8,0:0:0:0:
256,195,30698,1,0,0:0:0:0:
255,195,30764,1,0,0:0:0:0:
256,195,30830,1,8,0:0:0:0:
256,195,30961,1,0,0:0:0:0:
256,195,31027,1,0,0:0:0:0:
256,195,31093,1,8,0:0:0:0:
257,195,31159,1,8,0:0:0:0:
257,195,31224,1,8,0:0:0:0:
257,195,31290,1,8,0:0:0:0:
257,195,31356,1,0,0:0:0:0:
256,195,31422,1,0,0:0:0:0:
257,195,31488,1,0,0:0:0:0:
256,195,31553,1,0,0:0:0:0:
257,195,31619,1,8,0:0:0:0:
259,195,31685,1,8,0:0:0:0:
259,195,31751,1,0,0:0:0:0:
259,195,31817,1,0,0:0:0:0:
259,195,31882,1,8,0:0:0:0:
259,195,32145,1,8,0:0:0:0:
256,195,32211,1,8,0:0:0:0:
258,195,32277,1,8,0:0:0:0:
256,195,32343,1,8,0:0:0:0:
259,195,32409,1,0,0:0:0:0:
259,195,32474,1,0,0:0:0:0:
259,195,32540,1,0,0:0:0:0:
259,195,32606,1,0,0:0:0:0:
258,195,32672,1,8,0:0:0:0:
258,195,32803,1,0,0:0:0:0:
257,195,32869,1,0,0:0:0:0:
258,195,32935,1,8,0:0:0:0:
256,195,33001,1,8,0:0:0:0:
259,195,33067,1,0,0:0:0:0:
259,195,33132,1,0,0:0:0:0:
259,195,33198,1,8,0:0:0:0:
259,195,33330,1,0,0:0:0:0:
259,195,33395,1,0,0:0:0:0:
259,195,33461,1,8,0:0:0:0:
261,195,33527,1,0,0:0:0:0:
261,195,33593,1,0,0:0:0:0:
260,195,33659,1,0,0:0:0:0:
259,195,33724,1,8,0:0:0:0:
259,195,33790,1,8,0:0:0:0:
259,195,33856,1,8,0:0:0:0:
259,195,33922,1,8,0:0:0:0:
259,195,33988,1,0,0:0:0:0:
259,195,34053,1,0,0:0:0:0:
259,195,34119,1,0,0:0:0:0:
259,195,34185,1,0,0:0:0:0:
259,195,34251,1,8,0:0:0:0:
259,195,34514,1,0,0:0:0:0:
259,195,34580,1,0,0:0:0:0:
259,195,34645,1,0,0:0:0:0:
259,195,34711,1,0,0:0:0:0:
259,195,34777,1,8,0:0:0:0:
259,195,35040,1,8,0:0:0:0:
259,195,35106,1,8,0:0:0:0:
259,195,35172,1,0,0:0:0:0:
259,195,35238,1,0,0:0:0:0:
259,195,35303,1,8,0:0:0:0:
252,199,35567,1,8,0:0:0:0:
252,199,35632,1,8,0:0:0:0:
252,199,35698,1,8,0:0:0:0:
252,199,35764,1,8,0:0:0:0:
252,199,35830,1,0,0:0:0:0:
252,199,35895,1,0,0:0:0:0:
252,199,35961,1,0,0:0:0:0:
252,199,36027,1,0,0:0:0:0:
252,199,36093,1,8,0:0:0:0:
252,199,36224,1,0,0:0:0:0:
252,199,36290,1,0,0:0:0:0:
252,199,36356,1,8,0:0:0:0:
252,199,36619,1,8,0:0:0:0:
252,199,36685,1,8,0:0:0:0:
252,199,36751,1,0,0:0:0:0:
252,199,36817,1,0,0:0:0:0:
252,199,36882,1,8,0:0:0:0:
252,199,36948,1,8,0:0:0:0:
252,199,37014,1,0,0:0:0:0:
252,199,37080,1,0,0:0:0:0:
252,199,37145,1,8,0:0:0:0:
252,199,37211,1,0,0:0:0:0:
253,199,37277,1,0,0:0:0:0:
252,199,37343,1,0,0:0:0:0:
252,199,37409,1,8,0:0:0:0:
252,199,37540,1,0,0:0:0:0:
252,199,37606,1,0,0:0:0:0:
252,199,37672,1,8,0:0:0:0:
252,199,37738,1,8,0:0:0:0:
252,199,37803,1,0,0:0:0:0:
252,199,37869,1,0,0:0:0:0:
252,199,37935,1,8,0:0:0:0:
252,199,38001,1,8,0:0:0:0:
253,199,38067,1,0,0:0:0:0:
252,199,38132,1,0,0:0:0:0:
252,199,38198,1,8,0:0:0:0:
252,199,38330,1,0,0:0:0:0:
252,199,38461,1,8,0:0:0:0:
252,199,38593,1,0,0:0:0:0:
252,199,38856,1,8,0:0:0:0:
252,199,38988,1,0,0:0:0:0:
252,199,39053,1,0,0:0:0:0:
252,199,39119,1,8,0:0:0:0:
252,199,39251,1,0,0:0:0:0:
252,199,39382,1,8,0:0:0:0:
252,199,39448,1,8,0:0:0:0:
252,199,39514,1,8,0:0:0:0:
252,199,39645,1,0,0:0:0:0:
252,199,39909,1,8,0:0:0:0:
252,199,40040,1,0,0:0:0:0:
252,199,40171,1,8,0:0:0:0:
252,199,40303,1,0,0:0:0:0:
252,199,40435,1,8,0:0:0:0:
252,199,40501,1,0,0:0:0:0:
252,199,40567,1,8,0:0:0:0:
252,199,40698,1,0,0:0:0:0:
252,199,40961,1,8,0:0:0:0:
252,199,41092,1,0,0:0:0:0:
252,199,41159,1,0,0:0:0:0:
252,199,41223,1,8,0:0:0:0:
252,199,41355,1,0,0:0:0:0:
252,199,41488,1,8,0:0:0:0:
252,199,41553,1,0,0:0:0:0:
252,199,41619,1,8,0:0:0:0:
252,199,41685,1,8,0:0:0:0:
252,199,41751,1,0,0:0:0:0:
252,199,41817,1,0,0:0:0:0:
252,199,41882,1,8,0:0:0:0:
252,199,41948,1,8,0:0:0:0:
252,199,42014,1,0,0:0:0:0:
252,199,42080,1,0,0:0:0:0:
252,199,42145,1,8,0:0:0:0:
252,199,42277,1,0,0:0:0:0:
252,199,42409,1,8,0:0:0:0:
252,199,42474,1,8,0:0:0:0:
252,199,42540,1,0,0:0:0:0:
252,199,42606,1,0,0:0:0:0:
252,199,42672,1,8,0:0:0:0:
252,199,42803,1,0,0:0:0:0:
252,199,43067,1,8,0:0:0:0:
252,199,43198,1,0,0:0:0:0:
252,199,43264,1,0,0:0:0:0:
252,199,43330,1,8,0:0:0:0:
252,199,43461,1,0,0:0:0:0:
252,199,43593,1,8,0:0:0:0:
252,199,43659,1,8,0:0:0:0:
252,199,43724,1,8,0:0:0:0:
252,199,43856,1,0,0:0:0:0:
252,199,44119,1,8,0:0:0:0:
252,199,44251,1,0,0:0:0:0:
252,199,44382,1,8,0:0:0:0:
252,199,44514,1,0,0:0:0:0:
252,199,44645,1,8,0:0:0:0:
252,199,44711,1,0,0:0:0:0:
252,199,44777,1,8,0:0:0:0:
252,199,44909,1,0,0:0:0:0:
252,199,45172,1,8,0:0:0:0:
252,199,45303,1,0,0:0:0:0:
252,199,45369,1,0,0:0:0:0:
252,199,45435,1,8,0:0:0:0:
252,199,45567,1,0,0:0:0:0:
252,199,45698,1,8,0:0:0:0:
252,199,45830,1,0,0:0:0:0:
252,199,45895,1,0,0:0:0:0:
252,199,45961,1,0,0:0:0:0:
252,199,46027,1,0,0:0:0:0:
252,199,46093,1,8,0:0:0:0:
252,199,46159,1,8,0:0:0:0:
252,199,46224,1,8,0:0:0:0:
252,199,46290,1,8,0:0:0:0:
252,199,46356,1,0,0:0:0:0:
252,199,46488,1,8,0:0:0:0:
252,199,46619,1,8,0:0:0:0:
252,199,46751,1,0,0:0:0:0:
252,199,46817,1,0,0:0:0:0:
252,199,46882,1,8,0:0:0:0:
252,199,47014,1,0,0:0:0:0:
252,199,47277,1,8,0:0:0:0:
252,199,47409,1,0,0:0:0:0:
252,199,47474,1,0,0:0:0:0:
252,199,47540,1,8,0:0:0:0:
252,199,47672,1,0,0:0:0:0:
252,199,47803,1,8,0:0:0:0:
252,199,47869,1,8,0:0:0:0:
252,199,47935,1,8,0:0:0:0:
252,199,48066,1,0,0:0:0:0:
252,199,48330,1,8,0:0:0:0:
252,199,48461,1,0,0:0:0:0:
252,199,48592,1,8,0:0:0:0:
252,199,48724,1,0,0:0:0:0:
252,199,48856,1,8,0:0:0:0:
252,199,48922,1,0,0:0:0:0:
252,199,48988,1,8,0:0:0:0:
252,199,49119,1,0,0:0:0:0:
252,199,49382,1,8,0:0:0:0:
252,199,49513,1,0,0:0:0:0:
252,199,49580,1,0,0:0:0:0:
252,199,49644,1,8,0:0:0:0:
252,199,49776,1,0,0:0:0:0:
252,199,49909,1,8,0:0:0:0:
252,199,50040,1,0,0:0:0:0:
252,199,50105,1,0,0:0:0:0:
252,199,50171,1,0,0:0:0:0:
252,199,50237,1,0,0:0:0:0:
252,199,50303,1,8,0:0:0:0:
252,199,50369,1,8,0:0:0:0:
252,199,50435,1,0,0:0:0:0:
252,199,50500,1,0,0:0:0:0:
252,199,50566,1,8,0:0:0:0:
252,199,50697,1,0,0:0:0:0:
252,199,50829,1,8,0:0:0:0:
252,199,50895,1,8,0:0:0:0:
252,199,50961,1,0,0:0:0:0:
252,199,51027,1,0,0:0:0:0:
252,199,51093,1,8,0:0:0:0:
252,199,51224,1,0,0:0:0:0:
252,199,51488,1,8,0:0:0:0:
252,199,51620,1,0,0:0:0:0:
252,199,51685,1,0,0:0:0:0:
252,199,51751,1,8,0:0:0:0:
252,199,51883,1,0,0:0:0:0:
252,199,52014,1,8,0:0:0:0:
252,199,52080,1,8,0:0:0:0:
252,199,52146,1,8,0:0:0:0:
252,199,52277,1,0,0:0:0:0:
252,199,52541,1,8,0:0:0:0:
252,199,52672,1,0,0:0:0:0:
252,199,52803,1,8,0:0:0:0:
252,199,52935,1,0,0:0:0:0:
252,199,53067,1,8,0:0:0:0:
252,199,53133,1,0,0:0:0:0:
252,199,53199,1,8,0:0:0:0:
252,199,53330,1,0,0:0:0:0:
252,199,53593,1,8,0:0:0:0:
252,199,53725,1,0,0:0:0:0:
252,199,53790,1,0,0:0:0:0:
252,199,53856,1,8,0:0:0:0:
252,199,53988,1,0,0:0:0:0:
252,199,54119,1,8,0:0:0:0:
252,199,54251,1,0,0:0:0:0:
252,199,55303,1,8,0:0:0:0:
252,199,55435,1,0,0:0:0:0:
252,199,55501,1,0,0:0:0:0:
252,199,55567,1,8,0:0:0:0:
252,199,55632,1,8,0:0:0:0:
252,199,55698,1,0,0:0:0:0:
252,199,55830,1,8,0:0:0:0:
252,199,55961,1,0,0:0:0:0:
252,199,56027,1,0,0:0:0:0:
252,199,56093,1,8,0:0:0:0:
252,199,56224,1,0,0:0:0:0:
252,199,56356,1,8,0:0:0:0:
252,199,56488,1,0,0:0:0:0:
252,199,56553,1,0,0:0:0:0:
252,199,56619,1,8,0:0:0:0:
252,199,56751,1,0,0:0:0:0:
252,199,56882,1,8,0:0:0:0:
252,199,56948,1,0,0:0:0:0:
252,199,57014,1,8,0:0:0:0:
252,199,57080,1,8,0:0:0:0:
252,199,57145,1,0,0:0:0:0:
252,199,57277,1,8,0:0:0:0:
252,199,57409,1,0,0:0:0:0:
252,199,57540,1,8,0:0:0:0:
252,199,57672,1,0,0:0:0:0:
252,199,57738,1,0,0:0:0:0:
252,199,57803,1,0,0:0:0:0:
252,199,57869,1,0,0:0:0:0:
252,199,57935,1,8,0:0:0:0:
252,199,58067,1,0,0:0:0:0:
252,199,58198,1,8,0:0:0:0:
252,199,58264,1,8,0:0:0:0:
252,199,58330,1,0,0:0:0:0:
252,199,58461,1,8,0:0:0:0:
252,199,58593,1,0,0:0:0:0:
252,199,58659,1,0,0:0:0:0:
252,199,58724,1,8,0:0:0:0:
252,199,58856,1,0,0:0:0:0:
252,199,58988,1,8,0:0:0:0:
252,199,59053,1,8,0:0:0:0:
252,199,59119,1,8,0:0:0:0:
252,199,59185,1,8,0:0:0:0:
252,199,59251,1,0,0:0:0:0:
252,199,59382,1,8,0:0:0:0:
252,199,59514,1,0,0:0:0:0:
252,199,59645,1,0,0:0:0:0:
252,199,59777,1,8,0:0:0:0:
252,199,59843,1,8,0:0:0:0:
252,199,59909,1,0,0:0:0:0:
252,199,60040,1,8,0:0:0:0:
252,199,60172,1,0,0:0:0:0:
252,199,60238,1,0,0:0:0:0:
252,199,60303,1,8,0:0:0:0:
252,199,60369,1,8,0:0:0:0:
252,199,60435,1,0,0:0:0:0:
252,199,60567,1,8,0:0:0:0:
252,199,60698,1,0,0:0:0:0:
252,199,60764,1,8,0:0:0:0:
252,199,60830,1,0,0:0:0:0:
252,199,60961,1,8,0:0:0:0:
252,199,61093,1,0,0:0:0:0:
252,199,61224,1,8,0:0:0:0:
252,199,61290,1,8,0:0:0:0:
252,199,61356,1,8,0:0:0:0:
252,199,61422,1,8,0:0:0:0:
252,199,61488,1,0,0:0:0:0:
252,199,61619,1,8,0:0:0:0:
252,199,61751,1,8,0:0:0:0:
252,199,61882,1,0,0:0:0:0:
252,199,61948,1,0,0:0:0:0:
252,199,62014,1,0,0:0:0:0:
252,199,62080,1,0,0:0:0:0:
252,199,62145,1,8,0:0:0:0:
252,199,62277,1,0,0:0:0:0:
252,199,62409,1,8,0:0:0:0:
252,199,62540,1,0,0:0:0:0:
252,199,62672,1,8,0:0:0:0:
252,199,62738,1,8,0:0:0:0:
252,199,62803,1,8,0:0:0:0:
252,199,62869,1,8,0:0:0:0:
252,199,62935,1,0,0:0:0:0:
252,199,63001,1,0,0:0:0:0:
252,199,63067,1,0,0:0:0:0:
252,199,63132,1,0,0:0:0:0:
252,199,63198,1,8,0:0:0:0:
252,199,63330,1,0,0:0:0:0:
252,199,63461,1,8,0:0:0:0:
252,199,63527,1,8,0:0:0:0:
252,199,63593,1,0,0:0:0:0:
252,199,63659,1,0,0:0:0:0:
252,199,63724,1,8,0:0:0:0:
252,199,63856,1,0,0:0:0:0:
252,199,63988,1,8,0:0:0:0:
252,199,64119,1,0,0:0:0:0:
252,199,64185,1,0,0:0:0:0:
252,199,64251,1,8,0:0:0:0:
252,199,64382,1,0,0:0:0:0:
252,199,64514,1,8,0:0:0:0:
252,199,64580,1,0,0:0:0:0:
252,199,64645,1,8,0:0:0:0:
252,199,64711,1,8,0:0:0:0:
252,199,64777,1,0,0:0:0:0:
252,199,64909,1,8,0:0:0:0:
252,199,65040,1,0,0:0:0:0:
252,199,65172,1,0,0:0:0:0:
252,199,65303,1,8,0:0:0:0:
252,199,65369,1,8,0:0:0:0:
252,199,65435,1,0,0:0:0:0:
252,199,65567,1,8,0:0:0:0:
252,199,65698,1,0,0:0:0:0:
252,199,65764,1,0,0:0:0:0:
252,199,65830,1,8,0:0:0:0:
252,199,65895,1,8,0:0:0:0:
252,199,65961,1,0,0:0:0:0:
252,199,66093,1,8,0:0:0:0:
252,199,66224,1,0,0:0:0:0:
252,199,66356,1,8,0:0:0:0:
252,199,66422,1,8,0:0:0:0:
252,199,66488,1,0,0:0:0:0:
252,199,66554,1,0,0:0:0:0:
252,199,66619,1,8,0:0:0:0:
252,199,66751,1,0,0:0:0:0:
252,199,66882,1,8,0:0:0:0:
252,199,67014,1,0,0:0:0:0:
252,199,67080,1,0,0:0:0:0:
252,199,67145,1,8,0:0:0:0:
252,199,67277,1,0,0:0:0:0:
252,199,67409,1,8,0:0:0:0:
252,199,67474,1,0,0:0:0:0:
252,199,67540,1,0,0:0:0:0:
252,199,67606,1,0,0:0:0:0:
252,199,67672,1,8,0:0:0:0:
252,199,67803,1,0,0:0:0:0:
252,199,67935,1,8,0:0:0:0:
252,199,68067,1,0,0:0:0:0:
252,199,68132,1,0,0:0:0:0:
252,199,68198,1,8,0:0:0:0:
252,199,68330,1,0,0:0:0:0:
252,199,68461,1,8,0:0:0:0:
252,199,68527,1,8,0:0:0:0:
252,199,68593,1,0,0:0:0:0:
252,199,68659,1,0,0:0:0:0:
252,199,68724,1,8,0:0:0:0:
252,199,68856,1,8,0:0:0:0:
252,199,68988,1,0,0:0:0:0:
252,199,69053,1,0,0:0:0:0:
252,199,69119,1,8,0:0:0:0:
252,199,69251,1,0,0:0:0:0:
252,199,69382,1,8,0:0:0:0:
252,199,69448,1,8,0:0:0:0:
252,199,69514,1,0,0:0:0:0:
252,199,69645,1,8,0:0:0:0:
252,199,69777,1,0,0:0:0:0:
252,199,69909,1,0,0:0:0:0:
252,199,70040,1,8,0:0:0:0:
252,199,70106,1,0,0:0:0:0:
252,199,70172,1,0,0:0:0:0:
252,199,70303,1,8,0:0:0:0:
252,199,70435,1,0,0:0:0:0:
252,199,70501,1,0,0:0:0:0:
252,199,70567,1,8,0:0:0:0:
252,199,70698,1,0,0:0:0:0:
252,199,70830,1,8,0:0:0:0:
252,199,70961,1,0,0:0:0:0:
252,199,71093,1,8,0:0:0:0:
252,199,71224,1,0,0:0:0:0:
252,199,71290,1,0,0:0:0:0:
252,199,71356,1,8,0:0:0:0:
252,199,71422,1,8,0:0:0:0:
252,199,71488,1,0,0:0:0:0:
252,199,71619,1,8,0:0:0:0:
252,199,71685,1,8,0:0:0:0:
252,199,71751,1,0,0:0:0:0:
252,199,71817,1,0,0:0:0:0:
252,199,71882,1,8,0:0:0:0:
252,199,71948,1,0,0:0:0:0:
252,199,72014,1,0,0:0:0:0:
252,199,72080,1,0,0:0:0:0:
252,199,72145,1,8,0:0:0:0:
252,199,72277,1,0,0:0:0:0:
252,199,72540,1,8,0:0:0:0:
252,199,72672,1,0,0:0:0:0:
252,199,72737,1,0,0:0:0:0:
252,199,72803,1,8,0:0:0:0:
252,199,72935,1,0,0:0:0:0:
252,199,73066,1,8,0:0:0:0:
252,199,73132,1,8,0:0:0:0:
252,199,73198,1,8,0:0:0:0:
252,199,73329,1,0,0:0:0:0:
252,199,73593,1,8,0:0:0:0:
252,199,73724,1,0,0:0:0:0:
252,199,73855,1,8,0:0:0:0:
252,199,73987,1,0,0:0:0:0:
252,199,74119,1,8,0:0:0:0:
252,199,74185,1,0,0:0:0:0:
252,199,74251,1,8,0:0:0:0:
252,199,74382,1,0,0:0:0:0:
252,199,74645,1,8,0:0:0:0:
252,199,74776,1,0,0:0:0:0:
252,199,74843,1,0,0:0:0:0:
252,199,74909,1,8,0:0:0:0:
252,199,75039,1,0,0:0:0:0:
252,199,75172,1,8,0:0:0:0:
252,199,75237,1,0,0:0:0:0:
252,199,75303,1,8,0:0:0:0:
252,199,75369,1,8,0:0:0:0:
252,199,75435,1,0,0:0:0:0:
252,199,75501,1,0,0:0:0:0:
252,199,75566,1,8,0:0:0:0:
252,199,75632,1,0,0:0:0:0:
252,199,75698,1,0,0:0:0:0:
252,199,75764,1,0,0:0:0:0:
252,199,75829,1,8,0:0:0:0:
252,199,75961,1,0,0:0:0:0:
252,199,76093,1,8,0:0:0:0:
252,199,76158,1,8,0:0:0:0:
252,199,76224,1,0,0:0:0:0:
252,199,76290,1,0,0:0:0:0:
252,199,76356,1,8,0:0:0:0:
252,199,76487,1,0,0:0:0:0:
252,199,76751,1,8,0:0:0:0:
252,199,76882,1,0,0:0:0:0:
252,199,76948,1,0,0:0:0:0:
252,199,77014,1,8,0:0:0:0:
252,199,77145,1,0,0:0:0:0:
252,199,77277,1,8,0:0:0:0:
252,199,77343,1,8,0:0:0:0:
252,199,77408,1,8,0:0:0:0:
252,199,77540,1,0,0:0:0:0:
252,199,77803,1,8,0:0:0:0:
252,199,77934,1,0,0:0:0:0:
252,199,78000,1,0,0:0:0:0:
252,199,78066,1,8,0:0:0:0:
252,199,78197,1,0,0:0:0:0:
252,199,78330,1,8,0:0:0:0:
252,199,78461,1,0,0:0:0:0:
252,199,78527,1,0,0:0:0:0:
252,199,78593,1,0,0:0:0:0:
252,199,78659,1,0,0:0:0:0:
252,199,78724,1,8,0:0:0:0:
252,199,78790,1,8,0:0:0:0:
252,199,78856,1,8,0:0:0:0:
252,199,78922,1,8,0:0:0:0:
252,199,78988,1,0,0:0:0:0:
252,199,79119,1,8,0:0:0:0:
252,199,79251,1,0,0:0:0:0:
252,199,79317,1,0,0:0:0:0:
252,199,79382,1,8,0:0:0:0:
252,199,79448,1,0,0:0:0:0:
252,199,79514,1,8,0:0:0:0:
252,199,79602,1,0,0:0:0:0:
252,199,79689,1,0,0:0:0:0:
252,199,79777,1,8,0:0:0:0:
252,199,79865,1,0,0:0:0:0:
252,199,79952,1,0,0:0:0:0:
252,199,80040,1,8,0:0:0:0:
252,199,80128,1,8,0:0:0:0:
252,199,80216,1,0,0:0:0:0:
252,199,80303,1,8,0:0:0:0:
252,199,80391,1,0,0:0:0:0:
252,199,80479,1,0,0:0:0:0:
252,199,80567,1,8,0:0:0:0:
252,199,80830,1,0,0:0:0:0:
252,199,80917,1,0,0:0:0:0:
252,199,81005,1,0,0:0:0:0:
252,199,81093,1,8,0:0:0:0:
252,199,81181,1,0,0:0:0:0:
252,199,81268,1,0,0:0:0:0:
252,199,81356,1,8,0:0:0:0:
252,199,81444,1,8,0:0:0:0:
252,199,81531,1,0,0:0:0:0:
252,199,81619,1,8,0:0:0:0:
252,199,81707,1,0,0:0:0:0:
252,199,81795,1,0,0:0:0:0:
252,199,81882,1,8,0:0:0:0:
252,199,81970,1,8,0:0:0:0:
252,199,82058,1,0,0:0:0:0:
252,199,82145,1,8,0:0:0:0:
252,199,82233,1,0,0:0:0:0:
252,199,82321,1,0,0:0:0:0:
252,199,82409,1,8,0:0:0:0:
252,199,82496,1,8,0:0:0:0:
252,199,82584,1,8,0:0:0:0:
252,199,82672,1,8,0:0:0:0:
252,199,82935,1,8,0:0:0:0:
252,199,83023,1,0,0:0:0:0:
252,199,83110,1,0,0:0:0:0:
252,199,83198,1,8,0:0:0:0:
252,199,83286,1,8,0:0:0:0:
252,199,83374,1,0,0:0:0:0:
252,199,83461,1,8,0:0:0:0:
252,199,83549,1,0,0:0:0:0:
252,199,83637,1,0,0:0:0:0:
252,199,83724,1,8,0:0:0:0:
252,199,83790,1,8,0:0:0:0:
252,199,83856,1,0,0:0:0:0:
252,199,83922,1,0,0:0:0:0:
252,199,83988,1,8,0:0:0:0:
252,199,84053,1,8,0:0:0:0:
252,199,84119,1,0,0:0:0:0:
252,199,84185,1,0,0:0:0:0:
252,199,84251,1,8,0:0:0:0:
252,199,84317,1,0,0:0:0:0:
252,199,84382,1,0,0:0:0:0:
252,199,84448,1,0,0:0:0:0:
252,199,84514,1,8,0:0:0:0:
252,199,84777,1,8,0:0:0:0:
252,199,84865,1,0,0:0:0:0:
252,199,84952,1,0,0:0:0:0:
252,199,85040,1,8,0:0:0:0:
252,199,85128,1,8,0:0:0:0:
252,199,85216,1,8,0:0:0:0:
252,199,85303,1,8,0:0:0:0:
252,199,85391,1,0,0:0:0:0:
252,199,85479,1,0,0:0:0:0:
252,199,85567,1,8,0:0:0:0:
252,199,85654,1,8,0:0:0:0:
252,199,85742,1,0,0:0:0:0:
252,199,85830,1,8,0:0:0:0:
252,199,85917,1,0,0:0:0:0:
252,199,86005,1,0,0:0:0:0:
252,199,86093,1,8,0:0:0:0:
252,199,86181,1,8,0:0:0:0:
252,199,86268,1,8,0:0:0:0:
252,199,86356,1,8,0:0:0:0:
252,199,86444,1,0,0:0:0:0:
252,199,86531,1,0,0:0:0:0:
252,199,86619,1,8,0:0:0:0:
252,199,86707,1,8,0:0:0:0:
252,199,86795,1,0,0:0:0:0:
252,199,86882,1,8,0:0:0:0:
252,199,87145,1,8,0:0:0:0:
252,199,87233,1,8,0:0:0:0:
252,199,87321,1,0,0:0:0:0:
252,199,87409,1,8,0:0:0:0:
252,199,87496,1,0,0:0:0:0:
252,199,87584,1,0,0:0:0:0:
252,199,87672,1,8,0:0:0:0:
252,199,87759,1,8,0:0:0:0:
252,199,87847,1,0,0:0:0:0:
252,199,87935,1,8,0:0:0:0:
252,199,88001,1,0,0:0:0:0:
252,199,88067,1,0,0:0:0:0:
252,199,88132,1,0,0:0:0:0:
252,199,88198,1,8,0:0:0:0:
252,199,88264,1,8,0:0:0:0:
252,199,88330,1,0,0:0:0:0:
252,199,88395,1,0,0:0:0:0:
252,199,88461,1,8,0:0:0:0:
252,199,88527,1,0,0:0:0:0:
252,199,88593,1,0,0:0:0:0:
252,199,88659,1,0,0:0:0:0:
252,199,88724,1,8,0:0:0:0:
252,199,88988,1,8,0:0:0:0:
252,199,89076,1,0,0:0:0:0:
252,199,89163,1,0,0:0:0:0:
252,199,89251,1,8,0:0:0:0:
252,199,89339,1,8,0:0:0:0:
252,199,89427,1,0,0:0:0:0:
252,199,89514,1,8,0:0:0:0:
252,199,89602,1,0,0:0:0:0:
252,199,89690,1,0,0:0:0:0:
252,199,89778,1,8,0:0:0:0:
252,199,89865,1,8,0:0:0:0:
252,199,89952,1,0,0:0:0:0:
252,199,90041,1,8,0:0:0:0:
252,199,90128,1,0,0:0:0:0:
252,199,90216,1,0,0:0:0:0:
252,199,90304,1,8,0:0:0:0:
252,199,90392,1,8,0:0:0:0:
252,199,90479,1,8,0:0:0:0:
252,199,90567,1,8,0:0:0:0:
252,199,90655,1,0,0:0:0:0:
252,199,90742,1,0,0:0:0:0:
252,199,90830,1,8,0:0:0:0:
252,199,90917,1,0,0:0:0:0:
252,199,91005,1,8,0:0:0:0:
252,199,91093,1,8,0:0:0:0:
252,199,91181,1,0,0:0:0:0:
252,199,91268,1,0,0:0:0:0:
252,199,91356,1,8,0:0:0:0:
252,199,91444,1,0,0:0:0:0:
252,199,91531,1,0,0:0:0:0:
252,199,91619,1,8,0:0:0:0:
252,199,91707,1,8,0:0:0:0:
252,199,91795,1,0,0:0:0:0:
252,199,91882,1,8,0:0:0:0:
252,199,92145,1,8,0:0:0:0:
252,199,92211,1,8,0:0:0:0:
252,199,92277,1,0,0:0:0:0:
252,199,92343,1,0,0:0:0:0:
252,199,92409,1,8,0:0:0:0:
252,199,92474,1,8,0:0:0:0:
252,199,92540,1,0,0:0:0:0:
252,199,92606,1,0,0:0:0:0:
252,199,92672,1,8,0:0:0:0:
252,199,92738,1,0,0:0:0:0:
252,199,92803,1,0,0:0:0:0:
252,199,92869,1,0,0:0:0:0:
252,199,92935,1,8,0:0:0:0:
252,199,93198,1,8,0:0:0:0:
252,199,93286,1,0,0:0:0:0:
252,199,93374,1,0,0:0:0:0:
252,199,93461,1,8,0:0:0:0:
252,199,93549,1,8,0:0:0:0:
252,199,93637,1,0,0:0:0:0:
252,199,93724,1,0,0:0:0:0:
252,199,93812,1,0,0:0:0:0:
252,199,93900,1,0,0:0:0:0:
252,199,93988,1,8,0:0:0:0:
252,199,94075,1,0,0:0:0:0:
252,199,94163,1,0,0:0:0:0:
252,199,94251,1,8,0:0:0:0:
252,199,94338,1,8,0:0:0:0:
252,199,94426,1,8,0:0:0:0:
252,199,94514,1,8,0:0:0:0:
252,199,94602,1,0,0:0:0:0:
252,199,94689,1,0,0:0:0:0:
252,199,94777,1,8,0:0:0:0:
252,199,94865,1,8,0:0:0:0:
252,199,94952,1,0,0:0:0:0:
252,199,95040,1,8,0:0:0:0:
252,199,95128,1,0,0:0:0:0:
252,199,95216,1,0,0:0:0:0:
252,199,95303,1,8,0:0:0:0:
252,199,95567,1,8,0:0:0:0:
252,199,95654,1,0,0:0:0:0:
252,199,95742,1,0,0:0:0:0:
252,199,95830,1,8,0:0:0:0:
252,199,95917,1,0,0:0:0:0:
252,199,96005,1,8,0:0:0:0:
252,199,96093,1,8,0:0:0:0:
252,199,96181,1,0,0:0:0:0:
252,199,96268,1,0,0:0:0:0:
252,199,96356,1,8,0:0:0:0:
252,199,96422,1,8,0:0:0:0:
252,199,96488,1,0,0:0:0:0:
252,199,96553,1,0,0:0:0:0:
252,199,96619,1,8,0:0:0:0:
252,199,96685,1,0,0:0:0:0:
252,199,96751,1,0,0:0:0:0:
252,199,96817,1,0,0:0:0:0:
252,199,96882,1,8,0:0:0:0:
252,199,96948,1,8,0:0:0:0:
252,199,97014,1,0,0:0:0:0:
252,199,97080,1,0,0:0:0:0:
252,199,97145,1,8,0:0:0:0:
252,199,97409,1,8,0:0:0:0:
252,199,97496,1,8,0:0:0:0:
252,199,97584,1,8,0:0:0:0:
252,199,97672,1,8,0:0:0:0:
252,199,97760,1,0,0:0:0:0:
252,199,97847,1,0,0:0:0:0:
252,199,97935,1,8,0:0:0:0:
252,199,98023,1,8,0:0:0:0:
252,199,98110,1,0,0:0:0:0:
252,199,98198,1,8,0:0:0:0:
252,199,98286,1,0,0:0:0:0:
252,199,98374,1,0,0:0:0:0:
252,199,98461,1,8,0:0:0:0:
252,199,98549,1,8,0:0:0:0:
252,199,98637,1,0,0:0:0:0:
252,199,98724,1,8,0:0:0:0:
252,199,98812,1,0,0:0:0:0:
252,199,98900,1,0,0:0:0:0:
252,199,98988,1,8,0:0:0:0:
252,199,99075,1,8,0:0:0:0:
252,199,99163,1,8,0:0:0:0:
252,199,99251,1,8,0:0:0:0:
252,199,99338,1,0,0:0:0:0:
252,199,99426,1,0,0:0:0:0:
252,199,99514,1,8,0:0:0:0:
252,199,99602,1,8,0:0:0:0:
252,199,99689,1,0,0:0:0:0:
252,199,99777,1,8,0:0:0:0:
252,199,100040,1,8,0:0:0:0:
252,199,100128,1,8,0:0:0:0:
252,199,100216,1,0,0:0:0:0:
252,199,100303,1,8,0:0:0:0:
252,199,100391,1,0,0:0:0:0:
252,199,100479,1,0,0:0:0:0:
252,199,100567,1,8,0:0:0:0:
252,199,100632,1,8,0:0:0:0:
252,199,100698,1,8,0:0:0:0:
252,199,100764,1,8,0:0:0:0:
252,199,100830,1,0,0:0:0:0:
252,199,100895,1,0,0:0:0:0:
252,199,100961,1,0,0:0:0:0:
252,199,101027,1,0,0:0:0:0:
252,199,101093,1,8,0:0:0:0:
252,199,101159,1,8,0:0:0:0:
252,199,101224,1,0,0:0:0:0:
252,199,101290,1,0,0:0:0:0:
252,199,101356,1,8,0:0:0:0:
252,199,101619,1,8,0:0:0:0:
252,199,101707,1,0,0:0:0:0:
252,199,101795,1,0,0:0:0:0:
252,199,101882,1,8,0:0:0:0:
252,199,101970,1,8,0:0:0:0:
252,199,102058,1,0,0:0:0:0:
252,199,102145,1,8,0:0:0:0:
252,199,102233,1,8,0:0:0:0:
252,199,102321,1,8,0:0:0:0:
252,199,102409,1,8,0:0:0:0:
252,199,102496,1,0,0:0:0:0:
252,199,102584,1,0,0:0:0:0:
252,199,102672,1,8,0:0:0:0:
252,199,102759,1,0,0:0:0:0:
252,199,102847,1,0,0:0:0:0:
252,199,102935,1,8,0:0:0:0:
252,199,103023,1,8,0:0:0:0:
252,199,103110,1,0,0:0:0:0:
252,199,103198,1,8,0:0:0:0:
252,199,103286,1,8,0:0:0:0:
252,199,103374,1,0,0:0:0:0:
252,199,103461,1,0,0:0:0:0:
252,199,103724,1,8,0:0:0:0:
252,199,103812,1,8,0:0:0:0:
252,199,103900,1,0,0:0:0:0:
252,199,103988,1,0,0:0:0:0:
252,199,104075,1,0,0:0:0:0:
252,199,104163,1,0,0:0:0:0:
252,199,104251,1,8,0:0:0:0:
252,199,104338,1,0,0:0:0:0:
252,199,104426,1,0,0:0:0:0:
252,199,104514,1,8,0:0:0:0:
252,199,104602,1,8,0:0:0:0:
252,199,104689,1,0,0:0:0:0:
252,199,104777,1,8,0:0:0:0:
252,199,104843,1,0,0:0:0:0:
252,199,104909,1,0,0:0:0:0:
252,199,104974,1,0,0:0:0:0:
252,199,105040,1,8,0:0:0:0:
252,199,105106,1,8,0:0:0:0:
252,199,105172,1,0,0:0:0:0:
252,199,105238,1,0,0:0:0:0:
252,199,105303,1,8,0:0:0:0:
252,199,105369,1,0,0:0:0:0:
252,199,105435,1,0,0:0:0:0:
252,199,105501,1,0,0:0:0:0:
252,199,105567,1,8,0:0:0:0:
252,199,105830,1,8,0:0:0:0:
252,199,105917,1,8,0:0:0:0:
252,199,106005,1,8,0:0:0:0:
252,199,106093,1,8,0:0:0:0:
252,199,106181,1,0,0:0:0:0:
252,199,106268,1,0,0:0:0:0:
252,199,106356,1,8,0:0:0:0:
252,199,106444,1,0,0:0:0:0:
252,199,106531,1,0,0:0:0:0:
252,199,106619,1,8,0:0:0:0:
252,199,106707,1,8,0:0:0:0:
252,199,106795,1,0,0:0:0:0:
252,199,106882,1,8,0:0:0:0:
252,199,106970,1,0,0:0:0:0:
252,199,107058,1,0,0:0:0:0:
252,199,107145,1,8,0:0:0:0:
252,199,107233,1,8,0:0:0:0:
252,199,107321,1,0,0:0:0:0:
252,199,107409,1,8,0:0:0:0:
252,199,107496,1,0,0:0:0:0:
252,199,107584,1,0,0:0:0:0:
252,199,107672,1,8,0:0:0:0:
252,199,107759,1,8,0:0:0:0:
252,199,107847,1,8,0:0:0:0:
252,199,107935,1,8,0:0:0:0:
252,199,108023,1,0,0:0:0:0:
252,199,108110,1,0,0:0:0:0:
252,199,108198,1,8,0:0:0:0:
252,199,108461,1,8,0:0:0:0:
252,199,108549,1,0,0:0:0:0:
252,199,108637,1,8,0:0:0:0:
252,199,108724,1,8,0:0:0:0:
252,199,108812,1,0,0:0:0:0:
252,199,108900,1,0,0:0:0:0:
252,199,108988,1,8,0:0:0:0:
252,199,109053,1,8,0:0:0:0:
252,199,109119,1,0,0:0:0:0:
252,199,109185,1,0,0:0:0:0:
252,199,109251,1,8,0:0:0:0:
252,199,109317,1,0,0:0:0:0:
252,199,109382,1,0,0:0:0:0:
252,199,109448,1,0,0:0:0:0:
252,199,109514,1,8,0:0:0:0:
252,199,109580,1,8,0:0:0:0:
252,199,109645,1,0,0:0:0:0:
252,199,109711,1,0,0:0:0:0:
252,199,109777,1,8,0:0:0:0:
252,199,110040,1,8,0:0:0:0:
252,199,110128,1,8,0:0:0:0:
252,199,110216,1,0,0:0:0:0:
252,199,110303,1,8,0:0:0:0:
252,199,110391,1,0,0:0:0:0:
252,199,110479,1,0,0:0:0:0:
252,199,110567,1,8,0:0:0:0:
252,199,110654,1,8,0:0:0:0:
252,199,110742,1,0,0:0:0:0:
252,199,110830,1,8,0:0:0:0:
252,199,110917,1,0,0:0:0:0:
252,199,111005,1,0,0:0:0:0:
252,199,111093,1,8,0:0:0:0:
252,199,111181,1,8,0:0:0:0:
252,199,111268,1,0,0:0:0:0:
252,199,111356,1,8,0:0:0:0:
252,199,111444,1,0,0:0:0:0:
252,199,111531,1,0,0:0:0:0:
252,199,111619,1,8,0:0:0:0:
252,199,111707,1,8,0:0:0:0:
252,199,111795,1,8,0:0:0:0:
252,199,111882,1,8,0:0:0:0:
252,199,111970,1,0,0:0:0:0:
252,199,112058,1,0,0:0:0:0:
252,199,112145,1,8,0:0:0:0:
252,199,112409,1,8,0:0:0:0:
252,199,112496,1,0,0:0:0:0:
252,199,112584,1,0,0:0:0:0:
252,199,112672,1,8,0:0:0:0:
252,199,112759,1,8,0:0:0:0:
252,199,112847,1,0,0:0:0:0:
252,199,112935,1,8,0:0:0:0:
252,199,113023,1,8,0:0:0:0:
252,199,113110,1,0,0:0:0:0:
252,199,113198,1,8,0:0:0:0:
252,199,113330,1,0,0:0:0:0:
252,199,113461,1,8,0:0:0:0:
252,199,113527,1,8,0:0:0:0:
252,199,113593,1,0,0:0:0:0:
252,199,113659,1,0,0:0:0:0:
252,199,113724,1,8,0:0:0:0:
252,199,113790,1,0,0:0:0:0:
252,199,113856,1,0,0:0:0:0:
252,199,113922,1,0,0:0:0:0:
252,199,113988,1,8,0:0:0:0:
252,199,114053,1,8,0:0:0:0:
252,199,114119,1,0,0:0:0:0:
252,199,114185,1,0,0:0:0:0:
252,199,114251,1,12,0:0:0:0:
252,199,115040,1,0,0:0:0:0:
252,199,115303,1,8,0:0:0:0:
252,199,115830,1,4,0:0:0:0:
252,199,116356,1,12,0:0:0:0:
252,199,117145,1,0,0:0:0:0:
252,199,117211,1,0,0:0:0:0:
252,199,117277,1,0,0:0:0:0:
252,199,117343,1,0,0:0:0:0:
252,199,117409,1,8,0:0:0:0:
252,199,117540,1,0,0:0:0:0:
252,199,117672,1,8,0:0:0:0:
252,199,117738,1,0,0:0:0:0:
252,199,117803,1,8,0:0:0:0:
252,199,117869,1,8,0:0:0:0:
252,199,117935,1,0,0:0:0:0:
252,199,118001,1,0,0:0:0:0:
252,199,118067,1,8,0:0:0:0:
252,199,118132,1,8,0:0:0:0:
252,199,118198,1,0,0:0:0:0:
252,199,118330,1,8,0:0:0:0:
252,199,118461,1,0,0:0:0:0:
252,199,118724,1,0,0:0:0:0:
252,199,118856,1,0,0:0:0:0:
252,199,118988,1,8,0:0:0:0:
252,199,119119,1,8,0:0:0:0:
252,199,119251,1,0,0:0:0:0:
252,199,119382,1,0,0:0:0:0:
252,199,119514,1,8,0:0:0:0:
252,199,120303,1,0,0:0:0:0:
252,199,120567,1,8,0:0:0:0:
252,199,120962,1,8,0:0:0:0:
252,199,121093,1,0,0:0:0:0:
252,199,121356,1,0,0:0:0:0:
252,199,121619,1,8,0:0:0:0:
252,199,121882,1,0,0:0:0:0:
252,199,121948,1,0,0:0:0:0:
252,199,122014,1,0,0:0:0:0:
252,199,122080,1,0,0:0:0:0:
252,199,122145,1,8,0:0:0:0:
252,199,122211,1,8,0:0:0:0:
252,199,122277,1,8,0:0:0:0:
252,199,122343,1,8,0:0:0:0:
252,199,122409,1,0,0:0:0:0:
252,199,122540,1,8,0:0:0:0:
252,199,122672,1,4,0:0:0:0:
252,199,123461,1,0,0:0:0:0:
252,199,123724,1,12,0:0:0:0:
252,199,124251,1,4,0:0:0:0:
252,199,124777,1,12,0:0:0:0:
252,199,125567,1,0,0:0:0:0:
252,199,125830,1,8,0:0:0:0:
252,199,125961,1,0,0:0:0:0:
252,199,126027,1,0,0:0:0:0:
252,199,126093,1,8,0:0:0:0:
252,199,126224,1,8,0:0:0:0:
252,199,126356,1,0,0:0:0:0:
252,199,126488,1,0,0:0:0:0:
252,199,126619,1,8,0:0:0:0:
252,199,126751,1,8,0:0:0:0:
252,199,126882,1,0,0:0:0:0:
252,199,127145,1,8,0:0:0:0:
252,199,127277,1,8,0:0:0:0:
252,199,127409,1,0,0:0:0:0:
252,199,127540,1,0,0:0:0:0:
252,199,127672,1,0,0:0:0:0:
252,199,127803,1,0,0:0:0:0:
252,199,127935,1,8,0:0:0:0:
252,199,128724,1,0,0:0:0:0:
252,199,128988,1,12,0:0:0:0:
252,199,129382,1,0,0:0:0:0:
252,199,129777,1,0,0:0:0:0:
252,199,129843,1,0,0:0:0:0:
252,199,129909,1,0,0:0:0:0:
252,199,130040,1,8,0:0:0:0:
252,199,130303,1,0,0:0:0:0:
252,199,130567,1,8,0:0:0:0:
252,199,130632,1,8,0:0:0:0:
252,199,130698,1,8,0:0:0:0:
252,199,130764,1,8,0:0:0:0:
252,199,130830,1,0,0:0:0:0:
252,199,130895,1,0,0:0:0:0:
252,199,130961,1,0,0:0:0:0:
252,199,131027,1,0,0:0:0:0:
252,199,131093,1,8,0:0:0:0:
252,199,131224,1,0,0:0:0:0:
252,199,131356,1,8,0:0:0:0:
252,199,131488,1,0,0:0:0:0:
252,199,131619,1,8,0:0:0:0:
252,199,131707,1,0,0:0:0:0:
252,199,131795,1,0,0:0:0:0:
252,199,131882,1,8,0:0:0:0:
252,199,131970,1,8,0:0:0:0:
252,199,132058,1,0,0:0:0:0:
252,199,132145,1,8,0:0:0:0:
252,199,132233,1,8,0:0:0:0:
252,199,132321,1,0,0:0:0:0:
252,199,132409,1,8,0:0:0:0:
252,199,132496,1,0,0:0:0:0:
252,199,132584,1,0,0:0:0:0:
252,199,132672,1,8,0:0:0:0:
252,199,132847,1,0,0:0:0:0:
252,199,132935,1,8,0:0:0:0:
252,199,133023,1,0,0:0:0:0:
252,199,133110,1,0,0:0:0:0:
252,199,133198,1,8,0:0:0:0:
252,199,133286,1,0,0:0:0:0:
252,199,133374,1,0,0:0:0:0:
252,199,133461,1,8,0:0:0:0:
252,199,133549,1,8,0:0:0:0:
252,199,133637,1,0,0:0:0:0:
252,199,133724,1,8,0:0:0:0:
252,199,133812,1,8,0:0:0:0:
252,199,133900,1,0,0:0:0:0:
252,199,133988,1,8,0:0:0:0:
252,199,134163,1,0,0:0:0:0:
252,199,134251,1,8,0:0:0:0:
252,199,134338,1,0,0:0:0:0:
252,199,134426,1,0,0:0:0:0:
252,199,134514,1,8,0:0:0:0:
252,199,134602,1,8,0:0:0:0:
252,199,134689,1,8,0:0:0:0:
252,199,134777,1,8,0:0:0:0:
252,199,134865,1,0,0:0:0:0:
252,199,134952,1,0,0:0:0:0:
252,199,135040,1,8,0:0:0:0:
252,199,135106,1,8,0:0:0:0:
252,199,135172,1,0,0:0:0:0:
252,199,135238,1,0,0:0:0:0:
252,199,135303,1,8,0:0:0:0:
252,199,135567,1,8,0:0:0:0:
252,199,135698,1,0,0:0:0:0:
252,199,135830,1,8,0:0:0:0:
252,199,135917,1,0,0:0:0:0:
252,199,136005,1,0,0:0:0:0:
252,199,136093,1,8,0:0:0:0:
252,199,136181,1,8,0:0:0:0:
252,199,136268,1,0,0:0:0:0:
252,199,136356,1,8,0:0:0:0:
252,199,136619,1,0,0:0:0:0:
252,199,136751,1,0,0:0:0:0:
252,199,136882,1,8,0:0:0:0:
252,199,136970,1,8,0:0:0:0:
252,199,137058,1,0,0:0:0:0:
252,199,137145,1,8,0:0:0:0:
252,199,137233,1,8,0:0:0:0:
252,199,137321,1,0,0:0:0:0:
252,199,137409,1,8,0:0:0:0:
252,199,137672,1,0,0:0:0:0:
252,199,137738,1,0,0:0:0:0:
252,199,137803,1,8,0:0:0:0:
252,199,137935,1,0,0:0:0:0:
252,199,138067,1,0,0:0:0:0:
252,199,138198,1,8,0:0:0:0:
252,199,138264,1,8,0:0:0:0:
252,199,138330,1,0,0:0:0:0:
252,199,138461,1,8,0:0:0:0:
252,199,138593,1,0,0:0:0:0:
252,199,138659,1,0,0:0:0:0:
252,199,138724,1,8,0:0:0:0:
252,199,138790,1,0,0:0:0:0:
252,199,138856,1,8,0:0:0:0:
252,199,138988,1,0,0:0:0:0:
252,199,139119,1,8,0:0:0:0:
252,199,139185,1,8,0:0:0:0:
252,199,139251,1,0,0:0:0:0:
252,199,139382,1,0,0:0:0:0:
252,199,139514,1,8,0:0:0:0:
252,199,139580,1,8,0:0:0:0:
252,199,139645,1,8,0:0:0:0:
252,199,139711,1,8,0:0:0:0:
252,199,139777,1,0,0:0:0:0:
252,199,139909,1,8,0:0:0:0:
252,199,140040,1,0,0:0:0:0:
252,199,140106,1,0,0:0:0:0:
252,199,140172,1,0,0:0:0:0:
252,199,140238,1,0,0:0:0:0:
252,199,140303,1,8,0:0:0:0:
252,199,140435,1,0,0:0:0:0:
252,199,140567,1,8,0:0:0:0:
252,199,140632,1,8,0:0:0:0:
252,199,140698,1,0,0:0:0:0:
252,199,140764,1,0,0:0:0:0:
252,199,140830,1,8,0:0:0:0:
252,199,140961,1,0,0:0:0:0:
252,199,141093,1,8,0:0:0:0:
252,199,141159,1,0,0:0:0:0:
252,199,141224,1,8,0:0:0:0:
252,199,141290,1,8,0:0:0:0:
252,199,141356,1,0,0:0:0:0:
252,199,141488,1,8,0:0:0:0:
252,199,141619,1,0,0:0:0:0:
252,199,141751,1,8,0:0:0:0:
252,199,141882,1,0,0:0:0:0:
252,199,141948,1,0,0:0:0:0:
252,199,142014,1,0,0:0:0:0:
252,199,142080,1,0,0:0:0:0:
252,199,142145,1,8,0:0:0:0:
252,199,142277,1,0,0:0:0:0:
252,199,142409,1,8,0:0:0:0:
252,199,142540,1,8,0:0:0:0:
252,199,142672,1,0,0:0:0:0:
252,199,142738,1,0,0:0:0:0:
252,199,142803,1,8,0:0:0:0:
252,199,142869,1,0,0:0:0:0:
252,199,142935,1,8,0:0:0:0:
252,199,143001,1,8,0:0:0:0:
252,199,143067,1,0,0:0:0:0:
252,199,143132,1,0,0:0:0:0:
252,199,143198,1,8,0:0:0:0:
252,199,143330,1,8,0:0:0:0:
252,199,143461,1,0,0:0:0:0:
252,199,143593,1,0,0:0:0:0:
252,199,143724,1,8,0:0:0:0:
252,199,143812,1,8,0:0:0:0:
252,199,143900,1,0,0:0:0:0:
252,199,143988,1,8,0:0:0:0:
252,199,144075,1,0,0:0:0:0:
252,199,144163,1,0,0:0:0:0:
252,199,144251,1,8,0:0:0:0:
252,199,144338,1,0,0:0:0:0:
252,199,144426,1,8,0:0:0:0:
252,199,144514,1,8,0:0:0:0:
252,199,144602,1,0,0:0:0:0:
252,199,144689,1,0,0:0:0:0:
252,199,144777,1,8,0:0:0:0:
252,199,144952,1,0,0:0:0:0:
252,199,145040,1,8,0:0:0:0:
252,199,145128,1,0,0:0:0:0:
252,199,145216,1,0,0:0:0:0:
252,199,145303,1,8,0:0:0:0:
252,199,145391,1,8,0:0:0:0:
252,199,145479,1,0,0:0:0:0:
252,199,145567,1,8,0:0:0:0:
252,199,145654,1,0,0:0:0:0:
252,199,145742,1,0,0:0:0:0:
252,199,145830,1,8,0:0:0:0:
252,199,146005,1,0,0:0:0:0:
252,199,146093,1,8,0:0:0:0:
252,199,146181,1,8,0:0:0:0:
252,199,146268,1,0,0:0:0:0:
252,199,146356,1,8,0:0:0:0:
252,199,146444,1,0,0:0:0:0:
252,199,146531,1,8,0:0:0:0:
252,199,146619,1,8,0:0:0:0:
252,199,146707,1,0,0:0:0:0:
252,199,146795,1,0,0:0:0:0:
252,199,146882,1,8,0:0:0:0:
252,199,147058,1,0,0:0:0:0:
252,199,147145,1,8,0:0:0:0:
252,199,147233,1,8,0:0:0:0:
252,199,147321,1,0,0:0:0:0:
252,199,147409,1,8,0:0:0:0:
252,199,147496,1,8,0:0:0:0:
252,199,147584,1,0,0:0:0:0:
252,199,147672,1,8,0:0:0:0:
252,199,147759,1,0,0:0:0:0:
252,199,147847,1,0,0:0:0:0:
252,199,147935,1,8,0:0:0:0:
252,199,148067,1,0,0:0:0:0:
252,199,148198,1,8,0:0:0:0:
252,199,148330,1,0,0:0:0:0:
252,199,148461,1,8,0:0:0:0:
252,199,148593,1,0,0:0:0:0:
252,199,148659,1,0,0:0:0:0:
252,199,148724,1,8,0:0:0:0:
252,199,148790,1,8,0:0:0:0:
252,199,148856,1,0,0:0:0:0:
252,199,148922,1,0,0:0:0:0:
252,199,148988,1,8,0:0:0:0:
252,199,149119,1,0,0:0:0:0:
252,199,149251,1,8,0:0:0:0:
252,199,149317,1,8,0:0:0:0:
252,199,149382,1,0,0:0:0:0:
252,199,149448,1,0,0:0:0:0:
252,199,149514,1,8,0:0:0:0:
252,199,149645,1,0,0:0:0:0:
252,199,149777,1,8,0:0:0:0:
252,199,149843,1,0,0:0:0:0:
252,199,149909,1,8,0:0:0:0:
252,199,149974,1,8,0:0:0:0:
252,199,150040,1,0,0:0:0:0:
252,199,150172,1,8,0:0:0:0:
252,199,150303,1,0,0:0:0:0:
252,199,150435,1,8,0:0:0:0:
252,199,150501,1,0,0:0:0:0:
252,199,150567,1,8,0:0:0:0:
252,199,150698,1,0,0:0:0:0:
252,199,150830,1,8,0:0:0:0:
252,199,150895,1,0,0:0:0:0:
252,199,150961,1,0,0:0:0:0:
252,199,151027,1,0,0:0:0:0:
252,199,151093,1,8,0:0:0:0:
252,199,151224,1,0,0:0:0:0:
252,199,151356,1,8,0:0:0:0:
252,199,151422,1,8,0:0:0:0:
252,199,151488,1,0,0:0:0:0:
252,199,151619,1,8,0:0:0:0:
252,199,151751,1,0,0:0:0:0:
252,199,151882,1,8,0:0:0:0:
252,199,151948,1,8,0:0:0:0:
252,199,152014,1,0,0:0:0:0:
252,199,152080,1,0,0:0:0:0:
252,199,152145,1,8,0:0:0:0:
252,199,152233,1,0,0:0:0:0:
252,199,152321,1,8,0:0:0:0:
252,199,152409,1,8,0:0:0:0:
252,199,152496,1,0,0:0:0:0:
252,199,152584,1,0,0:0:0:0:
252,199,152672,1,8,0:0:0:0:
252,199,152847,1,0,0:0:0:0:
252,199,152935,1,8,0:0:0:0:
252,199,153023,1,0,0:0:0:0:
252,199,153110,1,0,0:0:0:0:
252,199,153198,1,8,0:0:0:0:
252,199,153286,1,8,0:0:0:0:
252,199,153374,1,0,0:0:0:0:
252,199,153461,1,8,0:0:0:0:
252,199,153549,1,8,0:0:0:0:
252,199,153637,1,0,0:0:0:0:
252,199,153724,1,8,0:0:0:0:
252,199,153988,1,0,0:0:0:0:
252,199,154053,1,0,0:0:0:0:
252,199,154119,1,0,0:0:0:0:
252,199,154185,1,0,0:0:0:0:
252,199,154251,1,8,0:0:0:0:
252,199,154382,1,0,0:0:0:0:
252,199,154514,1,8,0:0:0:0:
252,199,154580,1,8,0:0:0:0:
252,199,154645,1,0,0:0:0:0:
252,199,154711,1,0,0:0:0:0:
252,199,154777,1,8,0:0:0:0:
252,199,154909,1,0,0:0:0:0:
252,199,155040,1,8,0:0:0:0:
252,199,155106,1,0,0:0:0:0:
252,199,155172,1,0,0:0:0:0:
252,199,155238,1,0,0:0:0:0:
252,199,155303,1,8,0:0:0:0:
252,199,155435,1,0,0:0:0:0:
252,199,155567,1,8,0:0:0:0:
252,199,155632,1,8,0:0:0:0:
252,199,155698,1,0,0:0:0:0:
252,199,155764,1,0,0:0:0:0:
252,199,155830,1,8,0:0:0:0:
252,199,155961,1,0,0:0:0:0:
252,199,156027,1,0,0:0:0:0:
252,199,156093,1,8,0:0:0:0:
252,199,156224,1,0,0:0:0:0:
252,199,156356,1,8,0:0:0:0:
252,199,156488,1,0,0:0:0:0:
252,199,156553,1,0,0:0:0:0:
252,199,156619,1,8,0:0:0:0:
252,199,156685,1,0,0:0:0:0:
252,199,156751,1,8,0:0:0:0:
252,199,156882,1,0,0:0:0:0:
252,199,157014,1,8,0:0:0:0:
252,199,157080,1,8,0:0:0:0:
252,199,157145,1,0,0:0:0:0:
252,199,157277,1,8,0:0:0:0:
252,199,157409,1,0,0:0:0:0:
252,199,157474,1,0,0:0:0:0:
252,199,157540,1,8,0:0:0:0:
252,199,157672,1,0,0:0:0:0:
252,199,157803,1,8,0:0:0:0:
252,199,157869,1,0,0:0:0:0:
252,199,157935,1,8,0:0:0:0:
252,199,158001,1,8,0:0:0:0:
252,199,158067,1,0,0:0:0:0:
252,199,158198,1,8,0:0:0:0:
252,199,158330,1,0,0:0:0:0:
252,199,158461,1,8,0:0:0:0:
252,199,158593,1,0,0:0:0:0:
252,199,158659,1,0,0:0:0:0:
252,199,158724,1,8,0:0:0:0:
252,199,158856,1,0,0:0:0:0:
252,199,158988,1,8,0:0:0:0:
252,199,159053,1,8,0:0:0:0:
252,199,159119,1,0,0:0:0:0:
252,199,159185,1,0,0:0:0:0:
252,199,159251,1,8,0:0:0:0:
252,199,159382,1,0,0:0:0:0:
252,199,159514,1,8,0:0:0:0:
252,199,159580,1,0,0:0:0:0:
252,199,159645,1,8,0:0:0:0:
252,199,159777,1,0,0:0:0:0:
252,199,159909,1,8,0:0:0:0:
252,199,159974,1,0,0:0:0:0:
252,199,160040,1,0,0:0:0:0:
252,199,160106,1,0,0:0:0:0:
252,199,160172,1,8,0:0:0:0:
252,199,160303,1,0,0:0:0:0:
252,199,160435,1,8,0:0:0:0:
252,199,160501,1,8,0:0:0:0:
252,199,160567,1,8,0:0:0:0:
252,199,160698,1,0,0:0:0:0:
252,199,160830,1,8,0:0:0:0:
252,199,160895,1,8,0:0:0:0:
252,199,160961,1,0,0:0:0:0:
252,199,161093,1,8,0:0:0:0:
252,199,161224,1,0,0:0:0:0:
252,199,161290,1,0,0:0:0:0:
252,199,161356,1,8,0:0:0:0:
252,199,161422,1,8,0:0:0:0:
252,199,161488,1,0,0:0:0:0:
252,199,161619,1,8,0:0:0:0:
252,199,161751,1,0,0:0:0:0:
252,199,161882,1,8,0:0:0:0:
252,199,161948,1,0,0:0:0:0:
252,199,162014,1,8,0:0:0:0:
252,199,162145,1,0,0:0:0:0:
252,199,162277,1,8,0:0:0:0:
252,199,162343,1,8,0:0:0:0:
252,199,162409,1,0,0:0:0:0:
252,199,162474,1,0,0:0:0:0:
252,199,162540,1,8,0:0:0:0:
252,199,162672,1,0,0:0:0:0:
252,199,162803,1,0,0:0:0:0:
252,199,162935,1,8,0:0:0:0:
252,199,163001,1,8,0:0:0:0:
252,199,163067,1,0,0:0:0:0:
252,199,163198,1,8,0:0:0:0:
252,199,163330,1,0,0:0:0:0:
252,199,163395,1,0,0:0:0:0:
252,199,163461,1,0,0:0:0:0:
252,199,163527,1,0,0:0:0:0:
252,199,163593,1,8,0:0:0:0:
252,199,163724,1,0,0:0:0:0:
252,199,163856,1,8,0:0:0:0:
252,199,163988,1,0,0:0:0:0:
252,199,164119,1,8,0:0:0:0:
252,199,164185,1,0,0:0:0:0:
252,199,164251,1,8,0:0:0:0:
252,199,164317,1,8,0:0:0:0:
252,199,164382,1,0,0:0:0:0:
252,199,164448,1,0,0:0:0:0:
252,199,164514,1,8,0:0:0:0:
252,199,164580,1,8,0:0:0:0:
252,199,164645,1,0,0:0:0:0:
252,199,164711,1,0,0:0:0:0:
252,199,164777,1,8,0:0:0:0:
256,194,164909,1,0,0:0:0:0:
256,195,164975,1,0,0:0:0:0:
256,194,165040,1,8,0:0:0:0:
256,194,165106,1,8,0:0:0:0:
256,195,165172,1,0,0:0:0:0:
256,195,165238,1,0,0:0:0:0:
256,195,165303,1,8,0:0:0:0:
256,195,165369,1,0,0:0:0:0:
256,194,165435,1,0,0:0:0:0:
256,194,165567,1,8,0:0:0:0:
256,194,165632,1,8,0:0:0:0:
256,194,165698,1,0,0:0:0:0:
256,194,165764,1,0,0:0:0:0:
256,194,165830,1,8,0:0:0:0:
256,194,165896,1,0,0:0:0:0:
256,194,165961,1,0,0:0:0:0:
256,194,166027,1,0,0:0:0:0:
256,194,166093,1,8,0:0:0:0:
256,193,166225,1,0,0:0:0:0:
256,194,166290,1,0,0:0:0:0:
256,193,166356,1,8,0:0:0:0:
256,194,166422,1,0,0:0:0:0:
256,194,166488,1,0,0:0:0:0:
256,194,166553,1,0,0:0:0:0:
256,194,166619,1,8,0:0:0:0:
256,194,166751,1,0,0:0:0:0:
256,194,166817,1,0,0:0:0:0:
256,195,166882,1,8,0:0:0:0:
256,194,166948,1,8,0:0:0:0:
256,194,167014,1,8,0:0:0:0:
256,194,167080,1,8,0:0:0:0:
256,194,167146,1,0,0:0:0:0:
256,194,167211,1,0,0:0:0:0:
256,194,167277,1,0,0:0:0:0:
256,194,167343,1,0,0:0:0:0:
256,194,167409,1,8,0:0:0:0:
256,194,167475,1,8,0:0:0:0:
256,195,167540,1,0,0:0:0:0:
256,195,167672,1,8,0:0:0:0:
256,195,167738,1,8,0:0:0:0:
256,194,167803,1,0,0:0:0:0:
256,194,167869,1,0,0:0:0:0:
256,194,167935,1,8,0:0:0:0:
256,194,168198,1,8,0:0:0:0:
256,194,168264,1,8,0:0:0:0:
256,195,168330,1,8,0:0:0:0:
256,194,168396,1,8,0:0:0:0:
256,195,168461,1,0,0:0:0:0:
256,195,168527,1,0,0:0:0:0:
256,195,168593,1,0,0:0:0:0:
256,195,168659,1,0,0:0:0:0:
256,195,168724,1,8,0:0:0:0:
256,195,168856,1,0,0:0:0:0:
256,195,168922,1,0,0:0:0:0:
256,195,168988,1,8,0:0:0:0:
256,195,169053,1,8,0:0:0:0:
256,196,169119,1,0,0:0:0:0:
256,196,169185,1,0,0:0:0:0:
256,196,169251,1,8,0:0:0:0:
256,196,169317,1,0,0:0:0:0:
256,195,169382,1,0,0:0:0:0:
256,196,169448,1,0,0:0:0:0:
256,195,169514,1,8,0:0:0:0:
256,196,169646,1,0,0:0:0:0:
256,196,169711,1,0,0:0:0:0:
256,196,169777,1,8,0:0:0:0:
256,196,169843,1,0,0:0:0:0:
256,197,169909,1,0,0:0:0:0:
256,196,169975,1,0,0:0:0:0:
256,197,170040,1,8,0:0:0:0:
256,196,170106,1,8,0:0:0:0:
256,196,170172,1,0,0:0:0:0:
256,196,170303,1,8,0:0:0:0:
258,196,170369,1,8,0:0:0:0:
256,196,170435,1,0,0:0:0:0:
258,196,170501,1,0,0:0:0:0:
256,196,170567,1,8,0:0:0:0:
256,196,170632,1,0,0:0:0:0:
256,197,170698,1,0,0:0:0:0:
256,196,170764,1,0,0:0:0:0:
258,196,170830,1,8,0:0:0:0:
258,196,170961,1,0,0:0:0:0:
258,196,171027,1,0,0:0:0:0:
258,196,171093,1,8,0:0:0:0:
258,196,171159,1,0,0:0:0:0:
258,196,171225,1,0,0:0:0:0:
257,196,171290,1,0,0:0:0:0:
258,196,171356,1,8,0:0:0:0:
256,196,171422,1,8,0:0:0:0:
258,197,171488,1,0,0:0:0:0:
256,196,171553,1,0,0:0:0:0:
256,196,171619,1,8,0:0:0:0:
256,195,171751,1,0,0:0:0:0:
256,196,171817,1,0,0:0:0:0:
256,195,171882,1,8,0:0:0:0:
258,196,171948,1,8,0:0:0:0:
256,195,172014,1,0,0:0:0:0:
257,196,172080,1,0,0:0:0:0:
256,195,172146,1,8,0:0:0:0:
256,196,172277,1,0,0:0:0:0:
256,196,172409,1,8,0:0:0:0:
256,195,172540,1,0,0:0:0:0:
256,195,172672,1,8,0:0:0:0:
256,195,172738,1,8,0:0:0:0:
256,195,172803,1,8,0:0:0:0:
256,195,172869,1,8,0:0:0:0:
256,195,172935,1,0,0:0:0:0:
256,195,173067,1,8,0:0:0:0:
256,195,173198,1,0,0:0:0:0:
256,195,173461,1,8,0:0:0:0:
258,195,173527,1,8,0:0:0:0:
256,195,173593,1,0,0:0:0:0:
256,195,173659,1,0,0:0:0:0:
256,195,173725,1,8,0:0:0:0:
255,195,173790,1,0,0:0:0:0:
256,195,173856,1,0,0:0:0:0:
255,195,173922,1,0,0:0:0:0:
256,195,173988,1,8,0:0:0:0:
256,195,174119,1,0,0:0:0:0:
256,195,174185,1,0,0:0:0:0:
256,195,174251,1,8,0:0:0:0:
257,195,174317,1,8,0:0:0:0:
257,195,174382,1,8,0:0:0:0:
257,195,174448,1,8,0:0:0:0:
257,195,174514,1,0,0:0:0:0:
256,195,174580,1,0,0:0:0:0:
257,195,174646,1,0,0:0:0:0:
256,195,174711,1,0,0:0:0:0:
257,195,174777,1,8,0:0:0:0:
259,195,174843,1,8,0:0:0:0:
259,195,174909,1,0,0:0:0:0:
259,195,174975,1,0,0:0:0:0:
259,195,175040,1,8,0:0:0:0:
259,195,175303,1,8,0:0:0:0:
256,195,175369,1,0,0:0:0:0:
258,195,175435,1,0,0:0:0:0:
256,195,175501,1,0,0:0:0:0:
259,195,175567,1,8,0:0:0:0:
259,195,175632,1,8,0:0:0:0:
259,195,175698,1,0,0:0:0:0:
259,195,175764,1,0,0:0:0:0:
258,195,175830,1,8,0:0:0:0:
258,195,175961,1,0,0:0:0:0:
257,195,176027,1,0,0:0:0:0:
258,195,176093,1,8,0:0:0:0:
256,195,176159,1,8,0:0:0:0:
259,195,176225,1,0,0:0:0:0:
259,195,176290,1,0,0:0:0:0:
259,195,176356,1,8,0:0:0:0:
259,195,176422,1,8,0:0:0:0:
259,195,176488,1,8,0:0:0:0:
259,195,176553,1,8,0:0:0:0:
259,195,176619,1,0,0:0:0:0:
261,195,176685,1,0,0:0:0:0:
261,195,176751,1,8,0:0:0:0:
261,195,176817,1,8,0:0:0:0:
261,195,176882,1,8,0:0:0:0:
261,195,176948,1,8,0:0:0:0:
259,195,177014,1,0,0:0:0:0:
259,195,177080,1,0,0:0:0:0:
259,195,177146,1,8,0:0:0:0:
259,195,177211,1,8,0:0:0:0:
259,195,177277,1,0,0:0:0:0:
259,195,177343,1,0,0:0:0:0:
259,195,177409,1,8,0:0:0:0:
259,195,177672,1,8,0:0:0:0:
259,195,177738,1,0,0:0:0:0:
259,195,177803,1,0,0:0:0:0:
259,195,177869,1,0,0:0:0:0:
259,195,177935,1,8,0:0:0:0:
259,195,178001,1,8,0:0:0:0:
259,195,178067,1,0,0:0:0:0:
259,195,178132,1,0,0:0:0:0:
259,195,178198,1,8,0:0:0:0:
259,195,178264,1,0,0:0:0:0:
259,195,178330,1,0,0:0:0:0:
259,195,178396,1,0,0:0:0:0:
259,195,178461,1,8,0:0:0:0:
259,195,178593,1,0,0:0:0:0:
259,195,178659,1,0,0:0:0:0:
252,199,178725,1,8,0:0:0:0:
252,199,178790,1,8,0:0:0:0:
252,199,178856,1,0,0:0:0:0:
252,199,178922,1,0,0:0:0:0:
252,199,178988,1,8,0:0:0:0:
252,199,179053,1,8,0:0:0:0:
252,199,179119,1,0,0:0:0:0:
252,199,179185,1,0,0:0:0:0:
252,199,179251,1,8,0:0:0:0:
252,199,179382,1,0,0:0:0:0:
252,199,179448,1,0,0:0:0:0:
252,199,179514,1,8,0:0:0:0:
252,199,179777,1,8,0:0:0:0:
252,199,179843,1,8,0:0:0:0:
252,199,179909,1,0,0:0:0:0:
252,199,179975,1,0,0:0:0:0:
252,199,180040,1,8,0:0:0:0:
252,199,180106,1,0,0:0:0:0:
252,199,180172,1,0,0:0:0:0:
252,199,180238,1,0,0:0:0:0:
252,199,180303,1,8,0:0:0:0:
252,199,180369,1,8,0:0:0:0:
253,199,180435,1,0,0:0:0:0:
252,199,180501,1,0,0:0:0:0:
252,199,180567,1,8,0:0:0:0:
252,199,180654,1,8,0:0:0:0:
252,199,180742,1,0,0:0:0:0:
252,199,180830,1,8,0:0:0:0:
252,199,180917,1,0,0:0:0:0:
252,199,181005,1,0,0:0:0:0:
252,199,181093,1,8,0:0:0:0:
252,199,181181,1,8,0:0:0:0:
252,199,181268,1,0,0:0:0:0:
252,199,181356,1,8,0:0:0:0:
252,199,181444,1,0,0:0:0:0:
252,199,181531,1,0,0:0:0:0:
252,199,181619,1,8,0:0:0:0:
252,199,181882,1,0,0:0:0:0:
252,199,181969,1,0,0:0:0:0:
252,199,182057,1,0,0:0:0:0:
252,199,182145,1,8,0:0:0:0:
252,199,182233,1,8,0:0:0:0:
252,199,182320,1,0,0:0:0:0:
252,199,182409,1,8,0:0:0:0:
252,199,182496,1,0,0:0:0:0:
252,199,182583,1,0,0:0:0:0:
252,199,182671,1,8,0:0:0:0:
252,199,182759,1,8,0:0:0:0:
252,199,182847,1,8,0:0:0:0:
252,199,182934,1,8,0:0:0:0:
252,199,183022,1,0,0:0:0:0:
252,199,183110,1,0,0:0:0:0:
252,199,183197,1,8,0:0:0:0:
252,199,183285,1,8,0:0:0:0:
252,199,183373,1,0,0:0:0:0:
252,199,183461,1,8,0:0:0:0:
252,199,183548,1,8,0:0:0:0:
252,199,183636,1,0,0:0:0:0:
252,199,183724,1,8,0:0:0:0:
252,199,183987,1,8,0:0:0:0:
252,199,184075,1,0,0:0:0:0:
252,199,184162,1,0,0:0:0:0:
252,199,184250,1,8,0:0:0:0:
252,199,184338,1,8,0:0:0:0:
252,199,184426,1,0,0:0:0:0:
252,199,184513,1,8,0:0:0:0:
252,199,184601,1,0,0:0:0:0:
252,199,184689,1,0,0:0:0:0:
252,199,184776,1,8,0:0:0:0:
252,199,184842,1,8,0:0:0:0:
252,199,184908,1,0,0:0:0:0:
252,199,184974,1,0,0:0:0:0:
252,199,185040,1,8,0:0:0:0:
252,199,185105,1,8,0:0:0:0:
252,199,185171,1,0,0:0:0:0:
252,199,185237,1,0,0:0:0:0:
252,199,185303,1,8,0:0:0:0:
252,199,185369,1,0,0:0:0:0:
252,199,185434,1,0,0:0:0:0:
252,199,185500,1,0,0:0:0:0:
252,199,185566,1,8,0:0:0:0:
252,199,185829,1,8,0:0:0:0:
252,199,185917,1,0,0:0:0:0:
252,199,186004,1,0,0:0:0:0:
252,199,186092,1,8,0:0:0:0:
252,199,186180,1,8,0:0:0:0:
252,199,186268,1,8,0:0:0:0:
252,199,186355,1,8,0:0:0:0:
252,199,186443,1,0,0:0:0:0:
252,199,186531,1,0,0:0:0:0:
252,199,186619,1,8,0:0:0:0:
252,199,186706,1,8,0:0:0:0:
252,199,186794,1,0,0:0:0:0:
252,199,186882,1,8,0:0:0:0:
252,199,186969,1,0,0:0:0:0:
252,199,187057,1,0,0:0:0:0:
252,199,187145,1,8,0:0:0:0:
252,199,187233,1,8,0:0:0:0:
252,199,187320,1,8,0:0:0:0:
252,199,187408,1,8,0:0:0:0:
252,199,187496,1,0,0:0:0:0:
252,199,187583,1,0,0:0:0:0:
252,199,187671,1,8,0:0:0:0:
252,199,187759,1,8,0:0:0:0:
252,199,187847,1,0,0:0:0:0:
252,199,187934,1,8,0:0:0:0:
252,199,188197,1,8,0:0:0:0:
252,199,188285,1,8,0:0:0:0:
252,199,188373,1,0,0:0:0:0:
252,199,188461,1,8,0:0:0:0:
252,199,188548,1,8,0:0:0:0:
252,199,188636,1,0,0:0:0:0:
252,199,188724,1,8,0:0:0:0:
252,199,188812,1,0,0:0:0:0:
252,199,188899,1,0,0:0:0:0:
252,199,188987,1,8,0:0:0:0:
252,199,189053,1,8,0:0:0:0:
252,199,189119,1,0,0:0:0:0:
252,199,189184,1,0,0:0:0:0:
252,199,189250,1,8,0:0:0:0:
252,199,189316,1,8,0:0:0:0:
252,199,189382,1,0,0:0:0:0:
252,199,189447,1,0,0:0:0:0:
252,199,189513,1,8,0:0:0:0:
252,199,189579,1,0,0:0:0:0:
252,199,189645,1,0,0:0:0:0:
252,199,189711,1,0,0:0:0:0:
252,199,189776,1,8,0:0:0:0:
252,199,190040,1,8,0:0:0:0:
252,199,190128,1,0,0:0:0:0:
252,199,190215,1,0,0:0:0:0:
252,199,190303,1,8,0:0:0:0:
252,199,190391,1,8,0:0:0:0:
252,199,190479,1,8,0:0:0:0:
252,199,190566,1,8,0:0:0:0:
252,199,190654,1,0,0:0:0:0:
252,199,190742,1,0,0:0:0:0:
252,199,190830,1,8,0:0:0:0:
252,199,190917,1,8,0:0:0:0:
252,199,191004,1,0,0:0:0:0:
252,199,191093,1,8,0:0:0:0:
252,199,191180,1,0,0:0:0:0:
252,199,191268,1,0,0:0:0:0:
252,199,191356,1,8,0:0:0:0:
252,199,191444,1,8,0:0:0:0:
252,199,191531,1,8,0:0:0:0:
252,199,191619,1,8,0:0:0:0:
252,199,191707,1,0,0:0:0:0:
252,199,191794,1,0,0:0:0:0:
252,199,191882,1,8,0:0:0:0:
252,199,191969,1,0,0:0:0:0:
252,199,192057,1,8,0:0:0:0:
252,199,192145,1,8,0:0:0:0:
252,199,192233,1,0,0:0:0:0:
252,199,192320,1,0,0:0:0:0:
252,199,192408,1,8,0:0:0:0:
252,199,192496,1,8,0:0:0:0:
252,199,192583,1,8,0:0:0:0:
252,199,192671,1,8,0:0:0:0:
252,199,192759,1,0,0:0:0:0:
252,199,192847,1,0,0:0:0:0:
252,199,192934,1,8,0:0:0:0:
252,199,193197,1,8,0:0:0:0:
252,199,193263,1,8,0:0:0:0:
252,199,193329,1,0,0:0:0:0:
252,199,193395,1,0,0:0:0:0:
252,199,193461,1,8,0:0:0:0:
252,199,193526,1,0,0:0:0:0:
252,199,193592,1,0,0:0:0:0:
252,199,193658,1,0,0:0:0:0:
252,199,193724,1,8,0:0:0:0:
252,199,193790,1,8,0:0:0:0:
252,199,193855,1,0,0:0:0:0:
252,199,193921,1,0,0:0:0:0:
252,199,193987,1,8,0:0:0:0:
252,199,194250,1,8,0:0:0:0:
252,199,194338,1,0,0:0:0:0:
252,199,194426,1,0,0:0:0:0:
252,199,194513,1,8,0:0:0:0:
252,199,194601,1,8,0:0:0:0:
252,199,194689,1,0,0:0:0:0:
252,199,194776,1,0,0:0:0:0:
252,199,194864,1,0,0:0:0:0:
252,199,194952,1,0,0:0:0:0:
252,199,195040,1,8,0:0:0:0:
252,199,195127,1,0,0:0:0:0:
252,199,195215,1,0,0:0:0:0:
252,199,195303,1,8,0:0:0:0:
252,199,195390,1,8,0:0:0:0:
252,199,195478,1,8,0:0:0:0:
252,199,195566,1,8,0:0:0:0:
252,199,195654,1,0,0:0:0:0:
252,199,195741,1,0,0:0:0:0:
252,199,195829,1,8,0:0:0:0:
252,199,195917,1,8,0:0:0:0:
252,199,196004,1,0,0:0:0:0:
252,199,196092,1,8,0:0:0:0:
252,199,196180,1,0,0:0:0:0:
252,199,196268,1,0,0:0:0:0:
252,199,196355,1,8,0:0:0:0:
252,199,196619,1,8,0:0:0:0:
252,199,196706,1,0,0:0:0:0:
252,199,196794,1,0,0:0:0:0:
252,199,196882,1,8,0:0:0:0:
252,199,196969,1,8,0:0:0:0:
252,199,197057,1,0,0:0:0:0:
252,199,197145,1,8,0:0:0:0:
252,199,197233,1,0,0:0:0:0:
252,199,197320,1,0,0:0:0:0:
252,199,197408,1,8,0:0:0:0:
252,199,197474,1,8,0:0:0:0:
252,199,197540,1,0,0:0:0:0:
252,199,197605,1,0,0:0:0:0:
252,199,197671,1,8,0:0:0:0:
252,199,197737,1,0,0:0:0:0:
252,199,197803,1,0,0:0:0:0:
252,199,197869,1,0,0:0:0:0:
252,199,197934,1,8,0:0:0:0:
252,199,198000,1,8,0:0:0:0:
252,199,198066,1,0,0:0:0:0:
252,199,198132,1,0,0:0:0:0:
252,199,198197,1,8,0:0:0:0:
252,199,198461,1,8,0:0:0:0:
252,199,198548,1,8,0:0:0:0:
252,199,198636,1,8,0:0:0:0:
252,199,198724,1,8,0:0:0:0:
252,199,198812,1,0,0:0:0:0:
252,199,198899,1,0,0:0:0:0:
252,199,198987,1,8,0:0:0:0:
252,199,199075,1,8,0:0:0:0:
252,199,199162,1,0,0:0:0:0:
252,199,199250,1,8,0:0:0:0:
252,199,199338,1,0,0:0:0:0:
252,199,199426,1,0,0:0:0:0:
252,199,199513,1,8,0:0:0:0:
252,199,199601,1,8,0:0:0:0:
252,199,199689,1,0,0:0:0:0:
252,199,199776,1,8,0:0:0:0:
252,199,199864,1,8,0:0:0:0:
252,199,199952,1,0,0:0:0:0:
252,199,200040,1,8,0:0:0:0:
252,199,200127,1,8,0:0:0:0:
252,199,200215,1,8,0:0:0:0:
252,199,200303,1,8,0:0:0:0:
252,199,200390,1,0,0:0:0:0:
252,199,200478,1,0,0:0:0:0:
252,199,200566,1,8,0:0:0:0:
252,199,200654,1,0,0:0:0:0:
252,199,200741,1,0,0:0:0:0:
252,199,200829,1,8,0:0:0:0:
252,199,201092,1,8,0:0:0:0:
252,199,201180,1,8,0:0:0:0:
252,199,201268,1,0,0:0:0:0:
252,199,201355,1,8,0:0:0:0:
252,199,201443,1,0,0:0:0:0:
252,199,201531,1,0,0:0:0:0:
252,199,201619,1,8,0:0:0:0:
252,199,201684,1,8,0:0:0:0:
252,199,201750,1,8,0:0:0:0:
252,199,201816,1,8,0:0:0:0:
252,199,201882,1,0,0:0:0:0:
252,199,201947,1,0,0:0:0:0:
252,199,202014,1,0,0:0:0:0:
252,199,202080,1,0,0:0:0:0:
252,199,202145,1,8,0:0:0:0:
252,199,202211,1,8,0:0:0:0:
252,199,202276,1,0,0:0:0:0:
252,199,202342,1,0,0:0:0:0:
252,199,202408,1,8,0:0:0:0:
252,199,202671,1,8,0:0:0:0:
252,199,202759,1,8,0:0:0:0:
252,199,202847,1,0,0:0:0:0:
252,199,202934,1,0,0:0:0:0:
252,199,203022,1,0,0:0:0:0:
252,199,203110,1,0,0:0:0:0:
252,199,203197,1,8,0:0:0:0:
252,199,203285,1,0,0:0:0:0:
252,199,203373,1,8,0:0:0:0:
252,199,203461,1,8,0:0:0:0:
252,199,203548,1,0,0:0:0:0:
252,199,203636,1,0,0:0:0:0:
252,199,203724,1,8,0:0:0:0:
252,199,203811,1,8,0:0:0:0:
252,199,203899,1,8,0:0:0:0:
252,199,203987,1,8,0:0:0:0:
252,199,204075,1,0,0:0:0:0:
252,199,204162,1,0,0:0:0:0:
252,199,204250,1,8,0:0:0:0:
252,199,204338,1,8,0:0:0:0:
252,199,204426,1,0,0:0:0:0:
252,199,204513,1,8,0:0:0:0:
252,199,204776,1,8,0:0:0:0:
252,199,204864,1,8,0:0:0:0:
252,199,204952,1,0,0:0:0:0:
252,199,205040,1,0,0:0:0:0:
252,199,205127,1,0,0:0:0:0:
252,199,205215,1,0,0:0:0:0:
252,199,205303,1,8,0:0:0:0:
252,199,205390,1,8,0:0:0:0:
252,199,205478,1,0,0:0:0:0:
252,199,205566,1,8,0:0:0:0:
252,199,205654,1,8,0:0:0:0:
252,199,205741,1,0,0:0:0:0:
252,199,205829,1,8,0:0:0:0:
252,199,205895,1,0,0:0:0:0:
252,199,205961,1,0,0:0:0:0:
252,199,206026,1,0,0:0:0:0:
252,199,206092,1,8,0:0:0:0:
252,199,206158,1,8,0:0:0:0:
252,199,206224,1,0,0:0:0:0:
252,199,206290,1,0,0:0:0:0:
252,199,206355,1,8,0:0:0:0:
252,199,206421,1,0,0:0:0:0:
252,199,206487,1,0,0:0:0:0:
252,199,206553,1,0,0:0:0:0:
252,199,206619,1,8,0:0:0:0:
252,199,206882,1,8,0:0:0:0:
252,199,206969,1,8,0:0:0:0:
252,199,207057,1,8,0:0:0:0:
252,199,207145,1,8,0:0:0:0:
252,199,207233,1,0,0:0:0:0:
252,199,207320,1,0,0:0:0:0:
252,199,207408,1,8,0:0:0:0:
252,199,207496,1,0,0:0:0:0:
252,199,207583,1,0,0:0:0:0:
252,199,207671,1,8,0:0:0:0:
252,199,207759,1,8,0:0:0:0:
252,199,207847,1,8,0:0:0:0:
252,199,207934,1,8,0:0:0:0:
252,199,208022,1,0,0:0:0:0:
252,199,208110,1,0,0:0:0:0:
252,199,208197,1,8,0:0:0:0:
252,199,208285,1,8,0:0:0:0:
252,199,208373,1,8,0:0:0:0:
252,199,208461,1,8,0:0:0:0:
252,199,208548,1,0,0:0:0:0:
252,199,208636,1,0,0:0:0:0:
252,199,208724,1,8,0:0:0:0:
252,199,208811,1,8,0:0:0:0:
252,199,208899,1,8,0:0:0:0:
252,199,208987,1,8,0:0:0:0:
252,199,209075,1,0,0:0:0:0:
252,199,209162,1,0,0:0:0:0:
252,199,209250,1,8,0:0:0:0:
252,199,209513,1,8,0:0:0:0:
252,199,209601,1,0,0:0:0:0:
252,199,209689,1,8,0:0:0:0:
252,199,209776,1,8,0:0:0:0:
252,199,209864,1,0,0:0:0:0:
252,199,209952,1,0,0:0:0:0:
252,199,210040,1,8,0:0:0:0:
252,199,210106,1,8,0:0:0:0:
252,199,210172,1,0,0:0:0:0:
252,199,210238,1,0,0:0:0:0:
252,199,210303,1,8,0:0:0:0:
252,199,210369,1,0,0:0:0:0:
252,199,210434,1,0,0:0:0:0:
252,199,210500,1,0,0:0:0:0:
252,199,210566,1,8,0:0:0:0:
252,199,210632,1,8,0:0:0:0:
252,199,210697,1,0,0:0:0:0:
252,199,210763,1,0,0:0:0:0:
252,199,210829,1,8,0:0:0:0:
252,199,211092,1,8,0:0:0:0:
252,199,211180,1,0,0:0:0:0:
252,199,211268,1,0,0:0:0:0:
252,199,211355,1,8,0:0:0:0:
252,199,211443,1,8,0:0:0:0:
252,199,211531,1,0,0:0:0:0:
252,199,211619,1,0,0:0:0:0:
252,199,211706,1,0,0:0:0:0:
252,199,211794,1,0,0:0:0:0:
252,199,211882,1,8,0:0:0:0:
252,199,211969,1,0,0:0:0:0:
252,199,212057,1,0,0:0:0:0:
252,199,212145,1,8,0:0:0:0:
252,199,212233,1,8,0:0:0:0:
252,199,212320,1,0,0:0:0:0:
252,199,212408,1,8,0:0:0:0:
252,199,212496,1,0,0:0:0:0:
252,199,212583,1,0,0:0:0:0:
252,199,212671,1,8,0:0:0:0:
252,199,212759,1,8,0:0:0:0:
252,199,212847,1,8,0:0:0:0:
252,199,212934,1,8,0:0:0:0:
252,199,213022,1,0,0:0:0:0:
252,199,213110,1,0,0:0:0:0:
252,199,213197,1,8,0:0:0:0:
252,199,213461,1,0,0:0:0:0:
252,199,213548,1,0,0:0:0:0:
252,199,213636,1,0,0:0:0:0:
252,199,213724,1,8,0:0:0:0:
252,199,213811,1,8,0:0:0:0:
252,199,213899,1,0,0:0:0:0:
252,199,213987,1,8,0:0:0:0:
252,199,214075,1,8,0:0:0:0:
252,199,214162,1,0,0:0:0:0:
252,199,214250,1,8,0:0:0:0:
252,199,214382,1,0,0:0:0:0:
252,199,214514,1,8,0:0:0:0:
252,199,214580,1,8,0:0:0:0:
252,199,214645,1,0,0:0:0:0:
252,199,214711,1,0,0:0:0:0:
252,199,214777,1,8,0:0:0:0:
252,199,214909,1,0,0:0:0:0:
252,199,214974,1,0,0:0:0:0:
252,199,215040,1,8,0:0:0:0:
252,199,215106,1,8,0:0:0:0:
252,199,215172,1,8,0:0:0:0:
252,199,215238,1,8,0:0:0:0:
252,199,215303,1,4,0:0:0:0:
