osu file format v14

[General]
AudioFilename: audio.mp3
AudioLeadIn: 0
PreviewTime: 38395
Countdown: 0
SampleSet: Normal
StackLeniency: 0.7
Mode: 1
LetterboxInBreaks: 0
WidescreenStoryboard: 0

[Editor]
DistanceSpacing: 0.8
BeatDivisor: 3
GridSize: 32
TimelineZoom: 2.2

[Metadata]
Title:Deathmask Divine
TitleUnicode:Deathmask Divine
Artist:The Black Dahlia Murder
ArtistUnicode:The Black Dahlia Murder
Creator:Ognjen3800
Version:Inner Oni
Source:
Tags:melodic death metal metalcore deathcore nocturnal english metal blade records Burak JustBurak skolodojko TBDM meiqth
BeatmapID:3909357
BeatmapSetID:1896838

[Difficulty]
HPDrainRate:5.5
CircleSize:2
OverallDifficulty:6
ApproachRate:10
SliderMultiplier:1.4
SliderTickRate:1

[Events]
//Background and Video events
0,0,"maxresdefault.jpg",0,0
//Break Periods
//Storyboard Layer 0 (Background)
//Storyboard Layer 1 (Fail)
//Storyboard Layer 2 (Pass)
//Storyboard Layer 3 (Foreground)
//Storyboard Layer 4 (Overlay)
//Storyboard Sound Samples

[TimingPoints]
567,263.157895,4,1,0,100,1,0
38461,-100,4,1,0,100,0,1
54251,-100,4,1,0,100,0,0
72145,-100,4,1,0,100,0,1
80567,-100,4,1,0,100,0,0
114514,-100,4,1,0,80,0,0
131076,-100,4,1,0,100,0,0
164777,-100,4,1,0,100,0,1
181619,-100,4,1,0,100,0,0

[HitObjects]
256,194,567,5,8,0:0:0:0:
256,194,698,1,0,0:0:0:0:
256,194,830,1,0,0:0:0:0:
256,194,961,1,0,0:0:0:0:
256,194,1093,1,12,0:0:0:0:
256,194,1356,1,8,0:0:0:0:
256,194,1422,1,8,0:0:0:0:
256,194,1488,1,0,0:0:0:0:
256,194,1619,1,8,0:0:0:0:
256,194,1751,1,0,0:0:0:0:
256,194,1882,1,12,0:0:0:0:
256,194,2145,1,0,0:0:0:0:
256,194,2277,1,0,0:0:0:0:
256,194,2409,1,8,0:0:0:0:
256,194,2540,1,0,0:0:0:0:
256,194,2672,1,8,0:0:0:0:
256,194,2803,1,8,0:0:0:0:
256,194,2935,1,0,0:0:0:0:
256,194,3067,1,0,0:0:0:0:
256,194,3198,1,12,0:0:0:0:
256,194,3461,1,8,0:0:0:0:
256,194,3527,1,0,0:0:0:0:
256,194,3593,1,8,0:0:0:0:
256,194,3724,1,0,0:0:0:0:
256,194,3856,1,0,0:0:0:0:
256,194,3988,1,12,0:0:0:0:
256,194,4251,1,8,0:0:0:0:
256,194,4382,1,0,0:0:0:0:
256,194,4514,1,8,0:0:0:0:
256,194,4645,1,0,0:0:0:0:
256,194,4711,1,0,0:0:0:0:
256,194,4777,1,8,0:0:0:0:
256,194,4843,1,8,0:0:0:0:
256,194,4909,1,0,0:0:0:0:
256,194,5040,1,8,0:0:0:0:
256,194,5172,1,0,0:0:0:0:
256,194,5238,1,0,0:0:0:0:
256,194,5303,1,8,0:0:0:0:
256,194,5435,1,0,0:0:0:0:
256,194,5567,1,8,0:0:0:0:
256,194,5698,1,0,0:0:0:0:
256,194,5961,1,0,0:0:0:0:
256,194,6027,1,0,0:0:0:0:
256,194,6093,1,8,0:0:0:0:
256,194,6224,1,0,0:0:0:0:
256,194,6356,1,8,0:0:0:0:
256,194,6488,1,8,0:0:0:0:
256,194,6619,1,0,0:0:0:0:
256,194,6751,1,0,0:0:0:0:
256,194,6882,1,8,0:0:0:0:
256,194,6948,1,8,0:0:0:0:
256,194,7014,1,0,0:0:0:0:
256,194,7080,1,0,0:0:0:0:
256,194,7145,1,8,0:0:0:0:
256,194,7277,1,0,0:0:0:0:
256,194,7409,1,8,0:0:0:0:
256,194,7474,1,8,0:0:0:0:
256,194,7540,1,8,0:0:0:0:
256,194,7672,1,0,0:0:0:0:
256,194,7803,1,0,0:0:0:0:
256,194,7935,1,8,0:0:0:0:
256,194,8198,1,8,0:0:0:0:
256,194,8330,1,0,0:0:0:0:
256,194,8461,1,8,0:0:0:0:
256,194,8593,1,0,0:0:0:0:
256,194,8724,1,8,0:0:0:0:
256,194,8790,1,8,0:0:0:0:
256,194,8856,1,0,0:0:0:0:
256,194,8988,1,8,0:0:0:0:
256,194,9251,1,8,0:0:0:0:
256,194,9382,1,0,0:0:0:0:
256,194,9514,1,8,0:0:0:0:
256,194,9645,1,0,0:0:0:0:
256,194,9777,1,8,0:0:0:0:
256,194,9843,1,0,0:0:0:0:
256,194,9909,1,8,0:0:0:0:
256,194,10172,1,8,0:0:0:0:
256,194,10303,1,0,0:0:0:0:
256,194,10435,1,8,0:0:0:0:
256,194,10501,1,0,0:0:0:0:
256,194,10567,1,0,0:0:0:0:
256,194,10698,1,8,0:0:0:0:
256,194,10830,1,8,0:0:0:0:
256,194,10961,1,0,0:0:0:0:
256,194,11093,1,8,0:0:0:0:
256,194,11159,1,8,0:0:0:0:
256,194,11224,1,0,0:0:0:0:
256,194,11290,1,0,0:0:0:0:
256,194,11356,1,8,0:0:0:0:
256,194,11488,1,0,0:0:0:0:
256,194,11619,1,8,0:0:0:0:
256,194,11685,1,8,0:0:0:0:
256,194,11751,1,8,0:0:0:0:
256,194,11882,1,0,0:0:0:0:
256,194,12014,1,0,0:0:0:0:
256,194,12145,1,8,0:0:0:0:
256,194,12211,1,8,0:0:0:0:
256,194,12277,1,0,0:0:0:0:
256,194,12343,1,0,0:0:0:0:
256,194,12409,1,8,0:0:0:0:
256,194,12672,1,8,0:0:0:0:
256,194,12738,1,8,0:0:0:0:
256,194,12803,1,0,0:0:0:0:
256,194,12935,1,8,0:0:0:0:
256,194,13067,1,0,0:0:0:0:
256,194,13198,1,8,0:0:0:0:
256,194,13461,1,0,0:0:0:0:
256,194,13593,1,0,0:0:0:0:
256,194,13724,1,8,0:0:0:0:
256,194,13790,1,0,0:0:0:0:
256,194,13856,1,8,0:0:0:0:
256,194,13988,1,0,0:0:0:0:
256,194,14119,1,8,0:0:0:0:
256,194,14185,1,8,0:0:0:0:
256,194,14251,1,0,0:0:0:0:
256,194,14382,1,8,0:0:0:0:
256,194,14645,1,8,0:0:0:0:
256,194,14777,1,0,0:0:0:0:
256,194,14909,1,0,0:0:0:0:
256,194,15040,1,8,0:0:0:0:
256,194,15172,1,0,0:0:0:0:
256,194,15237,1,8,0:0:0:0:
256,194,15303,1,8,0:0:0:0:
256,194,15435,1,0,0:0:0:0:
256,194,15567,1,8,0:0:0:0:
256,194,15698,1,0,0:0:0:0:
256,194,15764,1,0,0:0:0:0:
256,194,15830,1,8,0:0:0:0:
256,194,15895,1,0,0:0:0:0:
256,194,15961,1,8,0:0:0:0:
256,194,16093,1,0,0:0:0:0:
256,194,16224,1,0,0:0:0:0:
256,194,16356,1,8,0:0:0:0:
256,194,16619,1,8,0:0:0:0:
256,194,16751,1,0,0:0:0:0:
256,194,16882,1,8,0:0:0:0:
256,194,17014,1,0,0:0:0:0:
256,194,17145,1,8,0:0:0:0:
256,194,17211,1,8,0:0:0:0:
256,194,17277,1,0,0:0:0:0:
256,194,17409,1,8,0:0:0:0:
256,194,17540,1,0,0:0:0:0:
256,194,17672,1,8,0:0:0:0:
256,194,17803,1,0,0:0:0:0:
256,194,17869,1,0,0:0:0:0:
256,194,17935,1,8,0:0:0:0:
256,194,18067,1,8,0:0:0:0:
256,194,18198,1,0,0:0:0:0:
256,194,18330,1,8,0:0:0:0:
256,194,18395,1,8,0:0:0:0:
256,194,18461,1,0,0:0:0:0:
256,194,18593,1,8,0:0:0:0:
256,194,18724,1,0,0:0:0:0:
256,194,18856,1,8,0:0:0:0:
256,194,19119,1,8,0:0:0:0:
256,194,19251,1,8,0:0:0:0:
256,194,19382,1,0,0:0:0:0:
256,194,19448,1,0,0:0:0:0:
256,194,19514,1,8,0:0:0:0:
256,194,19580,1,8,0:0:0:0:
256,194,19645,1,0,0:0:0:0:
256,194,19777,1,8,0:0:0:0:
256,194,19909,1,0,0:0:0:0:
256,194,20040,1,8,0:0:0:0:
256,194,20106,1,8,0:0:0:0:
256,194,20172,1,8,0:0:0:0:
256,194,20303,1,0,0:0:0:0:
256,194,20435,1,0,0:0:0:0:
256,194,20567,1,8,0:0:0:0:
256,194,20830,1,0,0:0:0:0:
256,194,20961,1,0,0:0:0:0:
256,194,21093,1,8,0:0:0:0:
256,194,21159,1,0,0:0:0:0:
256,194,21224,1,8,0:0:0:0:
256,194,21356,1,0,0:0:0:0:
256,194,21488,1,0,0:0:0:0:
256,194,21619,1,8,0:0:0:0:
256,194,21882,1,8,0:0:0:0:
256,194,21948,1,8,0:0:0:0:
256,194,22014,1,0,0:0:0:0:
256,194,22080,1,0,0:0:0:0:
256,194,22145,1,8,0:0:0:0:
256,194,22277,1,0,0:0:0:0:
256,194,22343,1,0,0:0:0:0:
256,194,22409,1,8,0:0:0:0:
256,194,22540,1,0,0:0:0:0:
256,194,22672,1,8,0:0:0:0:
256,194,22738,1,0,0:0:0:0:
256,194,22804,1,0,0:0:0:0:
256,194,22870,1,0,0:0:0:0:
256,194,22936,1,8,0:0:0:0:
256,194,23067,1,0,0:0:0:0:
256,194,23198,1,8,0:0:0:0:
256,194,23461,1,8,0:0:0:0:
256,194,23527,1,8,0:0:0:0:
256,194,23593,1,0,0:0:0:0:
256,194,23724,1,8,0:0:0:0:
256,194,23856,1,0,0:0:0:0:
256,194,23922,1,0,0:0:0:0:
256,194,23988,1,8,0:0:0:0:
256,194,24053,1,0,0:0:0:0:
256,194,24119,1,0,0:0:0:0:
256,194,24251,1,8,0:0:0:0:
256,194,24317,1,0,0:0:0:0:
256,194,24382,1,0,0:0:0:0:
256,194,24448,1,0,0:0:0:0:
256,194,24514,1,8,0:0:0:0:
256,194,24645,1,0,0:0:0:0:
256,194,24777,1,8,0:0:0:0:
256,194,25040,1,8,0:0:0:0:
256,194,25106,1,0,0:0:0:0:
256,194,25172,1,0,0:0:0:0:
256,194,25238,1,0,0:0:0:0:
256,194,25303,1,8,0:0:0:0:
256,194,25435,1,0,0:0:0:0:
256,194,25501,1,0,0:0:0:0:
256,194,25567,1,8,0:0:0:0:
256,194,25699,1,0,0:0:0:0:
256,194,25764,1,0,0:0:0:0:
256,194,25830,1,8,0:0:0:0:
256,194,25895,1,8,0:0:0:0:
256,194,25961,1,0,0:0:0:0:
256,194,26093,1,8,0:0:0:0:
256,194,26356,1,8,0:0:0:0:
256,194,26422,1,8,0:0:0:0:
256,194,26488,1,0,0:0:0:0:
256,194,26553,1,0,0:0:0:0:
256,194,26619,1,8,0:0:0:0:
256,194,26751,1,0,0:0:0:0:
256,194,26817,1,0,0:0:0:0:
256,194,26882,1,8,0:0:0:0:
256,194,27014,1,0,0:0:0:0:
256,194,27145,1,8,0:0:0:0:
256,194,27211,1,8,0:0:0:0:
256,194,27277,1,0,0:0:0:0:
256,194,27343,1,0,0:0:0:0:
256,194,27409,1,8,0:0:0:0:
256,194,27540,1,0,0:0:0:0:
256,194,27672,1,8,0:0:0:0:
256,194,27935,1,8,0:0:0:0:
256,194,28001,1,0,0:0:0:0:
256,194,28067,1,0,0:0:0:0:
256,194,28132,1,0,0:0:0:0:
256,194,28198,1,8,0:0:0:0:
256,194,28330,1,0,0:0:0:0:
256,194,28461,1,8,0:0:0:0:
256,194,28593,1,0,0:0:0:0:
256,194,28659,1,0,0:0:0:0:
256,194,28724,1,8,0:0:0:0:
256,194,28856,1,0,0:0:0:0:
256,194,28988,1,8,0:0:0:0:
256,194,29053,1,8,0:0:0:0:
256,194,29119,1,0,0:0:0:0:
256,194,29251,1,8,0:0:0:0:
256,194,29382,1,0,0:0:0:0:
256,194,29514,1,8,0:0:0:0:
256,194,29580,1,8,0:0:0:0:
256,194,29645,1,8,0:0:0:0:
256,194,29777,1,0,0:0:0:0:
256,194,29843,1,0,0:0:0:0:
256,194,29909,1,0,0:0:0:0:
256,194,29974,1,0,0:0:0:0:
256,194,30040,1,8,0:0:0:0:
256,194,30303,1,8,0:0:0:0:
256,194,30369,1,8,0:0:0:0:
256,194,30435,1,0,0:0:0:0:
256,194,30501,1,0,0:0:0:0:
256,194,30566,1,8,0:0:0:0:
256,194,30698,1,0,0:0:0:0:
256,194,30764,1,0,0:0:0:0:
256,194,30830,1,8,0:0:0:0:
256,194,30961,1,0,0:0:0:0:
256,194,31093,1,8,0:0:0:0:
256,194,31159,1,0,0:0:0:0:
256,194,31225,1,0,0:0:0:0:
256,194,31291,1,0,0:0:0:0:
256,194,31357,1,8,0:0:0:0:
256,194,31488,1,0,0:0:0:0:
256,194,31619,1,8,0:0:0:0:
256,194,31882,1,8,0:0:0:0:
256,194,31948,1,8,0:0:0:0:
256,194,32014,1,0,0:0:0:0:
256,194,32145,1,8,0:0:0:0:
256,194,32277,1,0,0:0:0:0:
256,194,32343,1,0,0:0:0:0:
256,194,32409,1,8,0:0:0:0:
256,194,32474,1,8,0:0:0:0:
256,194,32540,1,0,0:0:0:0:
256,194,32672,1,8,0:0:0:0:
256,194,32738,1,0,0:0:0:0:
256,194,32803,1,0,0:0:0:0:
256,194,32869,1,0,0:0:0:0:
256,194,32935,1,8,0:0:0:0:
256,194,33066,1,0,0:0:0:0:
256,194,33198,1,8,0:0:0:0:
256,194,33461,1,8,0:0:0:0:
256,194,33527,1,0,0:0:0:0:
256,194,33593,1,0,0:0:0:0:
256,194,33659,1,0,0:0:0:0:
256,194,33724,1,8,0:0:0:0:
256,194,33856,1,0,0:0:0:0:
256,194,33922,1,0,0:0:0:0:
256,194,33988,1,8,0:0:0:0:
256,194,34120,1,0,0:0:0:0:
256,194,34251,1,8,0:0:0:0:
256,194,34316,1,8,0:0:0:0:
256,194,34382,1,0,0:0:0:0:
256,194,34448,1,0,0:0:0:0:
256,194,34514,1,8,0:0:0:0:
256,194,34777,1,8,0:0:0:0:
256,194,34843,1,0,0:0:0:0:
256,194,34909,1,0,0:0:0:0:
256,194,34974,1,0,0:0:0:0:
256,194,35040,1,8,0:0:0:0:
256,194,35303,1,8,0:0:0:0:
256,194,35435,1,0,0:0:0:0:
256,194,35566,1,8,0:0:0:0:
256,194,35632,1,8,0:0:0:0:
256,194,35698,1,0,0:0:0:0:
256,194,35764,1,0,0:0:0:0:
256,194,35830,1,8,0:0:0:0:
256,194,35961,1,0,0:0:0:0:
256,194,36027,1,0,0:0:0:0:
256,194,36093,1,8,0:0:0:0:
256,194,36356,1,8,0:0:0:0:
256,194,36422,1,8,0:0:0:0:
256,194,36488,1,0,0:0:0:0:
256,194,36553,1,0,0:0:0:0:
256,194,36619,1,8,0:0:0:0:
256,194,36751,1,0,0:0:0:0:
256,194,36882,1,8,0:0:0:0:
256,194,37014,1,0,0:0:0:0:
256,194,37080,1,0,0:0:0:0:
256,194,37145,1,8,0:0:0:0:
256,194,37277,1,0,0:0:0:0:
256,194,37409,1,8,0:0:0:0:
256,194,37474,1,8,0:0:0:0:
256,194,37540,1,0,0:0:0:0:
256,194,37672,1,8,0:0:0:0:
256,194,37803,1,0,0:0:0:0:
256,194,37935,1,8,0:0:0:0:
256,194,38001,1,8,0:0:0:0:
256,194,38067,1,8,0:0:0:0:
256,194,38198,1,0,0:0:0:0:
256,194,38264,1,0,0:0:0:0:
256,194,38330,1,0,0:0:0:0:
256,194,38395,1,0,0:0:0:0:
256,194,38461,1,8,0:0:0:0:
256,194,38593,1,0,0:0:0:0:
256,194,38856,1,8,0:0:0:0:
256,194,38988,1,0,0:0:0:0:
256,194,39119,1,8,0:0:0:0:
256,194,39251,1,0,0:0:0:0:
256,194,39382,1,8,0:0:0:0:
256,194,39448,1,8,0:0:0:0:
256,194,39514,1,8,0:0:0:0:
256,194,39645,1,0,0:0:0:0:
256,194,39909,1,8,0:0:0:0:
256,194,40040,1,0,0:0:0:0:
256,194,40172,1,8,0:0:0:0:
256,194,40303,1,0,0:0:0:0:
256,194,40435,1,8,0:0:0:0:
256,194,40501,1,0,0:0:0:0:
256,194,40567,1,8,0:0:0:0:
256,194,40698,1,0,0:0:0:0:
256,194,40961,1,8,0:0:0:0:
256,194,41093,1,0,0:0:0:0:
256,194,41224,1,8,0:0:0:0:
256,194,41356,1,8,0:0:0:0:
256,194,41488,1,0,0:0:0:0:
256,194,41619,1,8,0:0:0:0:
256,194,41685,1,8,0:0:0:0:
256,194,41751,1,8,0:0:0:0:
256,194,41817,1,8,0:0:0:0:
256,194,41882,1,0,0:0:0:0:
256,194,42014,1,8,0:0:0:0:
256,194,42080,1,8,0:0:0:0:
256,194,42145,1,0,0:0:0:0:
256,194,42211,1,0,0:0:0:0:
256,194,42277,1,8,0:0:0:0:
256,194,42409,1,0,0:0:0:0:
256,194,42540,1,0,0:0:0:0:
256,194,42672,1,8,0:0:0:0:
256,194,42803,1,0,0:0:0:0:
256,194,43066,1,8,0:0:0:0:
256,194,43198,1,0,0:0:0:0:
256,194,43329,1,8,0:0:0:0:
256,194,43461,1,0,0:0:0:0:
256,194,43592,1,8,0:0:0:0:
256,194,43658,1,8,0:0:0:0:
256,194,43724,1,8,0:0:0:0:
256,194,43855,1,0,0:0:0:0:
256,194,44119,1,8,0:0:0:0:
256,194,44250,1,0,0:0:0:0:
256,194,44382,1,8,0:0:0:0:
256,194,44513,1,0,0:0:0:0:
256,194,44645,1,8,0:0:0:0:
256,194,44711,1,0,0:0:0:0:
256,194,44777,1,8,0:0:0:0:
256,194,44908,1,0,0:0:0:0:
256,194,45171,1,8,0:0:0:0:
256,194,45303,1,0,0:0:0:0:
256,194,45434,1,8,0:0:0:0:
256,194,45567,1,0,0:0:0:0:
256,194,45698,1,0,0:0:0:0:
256,194,45829,1,8,0:0:0:0:
256,194,45894,1,8,0:0:0:0:
256,194,45960,1,0,0:0:0:0:
256,194,46026,1,0,0:0:0:0:
256,194,46093,1,8,0:0:0:0:
256,194,46224,1,0,0:0:0:0:
256,194,46290,1,0,0:0:0:0:
256,194,46355,1,8,0:0:0:0:
256,194,46421,1,0,0:0:0:0:
256,194,46487,1,0,0:0:0:0:
256,194,46619,1,8,0:0:0:0:
256,194,46750,1,0,0:0:0:0:
256,194,46882,1,8,0:0:0:0:
256,194,47014,1,0,0:0:0:0:
256,194,47277,1,8,0:0:0:0:
256,194,47409,1,0,0:0:0:0:
256,194,47540,1,8,0:0:0:0:
256,194,47672,1,0,0:0:0:0:
256,194,47803,1,8,0:0:0:0:
256,194,47869,1,0,0:0:0:0:
256,194,47935,1,8,0:0:0:0:
256,194,48067,1,0,0:0:0:0:
256,194,48330,1,8,0:0:0:0:
256,194,48461,1,0,0:0:0:0:
256,194,48593,1,8,0:0:0:0:
256,194,48724,1,0,0:0:0:0:
256,194,48856,1,8,0:0:0:0:
256,194,48922,1,8,0:0:0:0:
256,194,48988,1,8,0:0:0:0:
256,194,49119,1,0,0:0:0:0:
256,194,49382,1,8,0:0:0:0:
256,194,49514,1,0,0:0:0:0:
256,194,49645,1,8,0:0:0:0:
256,194,49777,1,0,0:0:0:0:
256,194,49909,1,8,0:0:0:0:
256,194,50040,1,0,0:0:0:0:
256,194,50106,1,0,0:0:0:0:
256,194,50172,1,8,0:0:0:0:
256,194,50238,1,8,0:0:0:0:
256,194,50303,1,0,0:0:0:0:
256,194,50435,1,8,0:0:0:0:
256,194,50501,1,0,0:0:0:0:
256,194,50566,1,0,0:0:0:0:
256,194,50632,1,0,0:0:0:0:
256,194,50698,1,8,0:0:0:0:
256,194,50830,1,0,0:0:0:0:
256,194,50961,1,8,0:0:0:0:
256,194,51093,1,8,0:0:0:0:
256,194,51225,1,0,0:0:0:0:
256,194,51488,1,8,0:0:0:0:
256,194,51620,1,0,0:0:0:0:
256,194,51751,1,8,0:0:0:0:
256,194,51883,1,0,0:0:0:0:
256,194,52014,1,8,0:0:0:0:
256,194,52080,1,0,0:0:0:0:
256,194,52146,1,8,0:0:0:0:
256,194,52277,1,0,0:0:0:0:
256,194,52541,1,8,0:0:0:0:
256,194,52672,1,0,0:0:0:0:
256,194,52804,1,8,0:0:0:0:
256,194,52935,1,0,0:0:0:0:
256,194,53067,1,8,0:0:0:0:
256,194,53133,1,8,0:0:0:0:
256,194,53199,1,8,0:0:0:0:
256,194,53330,1,0,0:0:0:0:
256,194,53593,1,8,0:0:0:0:
256,194,53725,1,0,0:0:0:0:
256,194,53856,1,8,0:0:0:0:
256,194,53988,1,8,0:0:0:0:
256,194,54119,1,0,0:0:0:0:
256,194,54251,1,8,0:0:0:0:
256,194,55303,1,8,0:0:0:0:
256,194,55434,1,0,0:0:0:0:
256,194,55500,1,0,0:0:0:0:
256,194,55566,1,8,0:0:0:0:
256,194,55698,1,0,0:0:0:0:
256,194,55829,1,8,0:0:0:0:
256,194,55961,1,0,0:0:0:0:
256,194,56027,1,0,0:0:0:0:
256,194,56092,1,8,0:0:0:0:
256,194,56159,1,8,0:0:0:0:
256,194,56224,1,0,0:0:0:0:
256,194,56356,1,8,0:0:0:0:
256,194,56487,1,0,0:0:0:0:
256,194,56619,1,8,0:0:0:0:
256,194,56750,1,0,0:0:0:0:
256,194,56816,1,0,0:0:0:0:
256,194,56882,1,8,0:0:0:0:
256,194,57013,1,0,0:0:0:0:
256,194,57145,1,8,0:0:0:0:
256,194,57277,1,8,0:0:0:0:
256,194,57408,1,0,0:0:0:0:
256,194,57540,1,8,0:0:0:0:
256,194,57803,1,8,0:0:0:0:
256,194,57869,1,8,0:0:0:0:
256,194,57935,1,0,0:0:0:0:
256,194,58066,1,0,0:0:0:0:
256,194,58198,1,8,0:0:0:0:
256,194,58330,1,0,0:0:0:0:
256,194,58395,1,0,0:0:0:0:
256,194,58461,1,8,0:0:0:0:
256,194,58593,1,0,0:0:0:0:
256,194,58724,1,8,0:0:0:0:
256,194,58856,1,0,0:0:0:0:
256,194,58988,1,8,0:0:0:0:
256,194,59119,1,8,0:0:0:0:
256,194,59251,1,0,0:0:0:0:
256,194,59382,1,8,0:0:0:0:
256,194,59645,1,8,0:0:0:0:
256,194,59777,1,0,0:0:0:0:
256,194,59909,1,8,0:0:0:0:
256,194,59974,1,0,0:0:0:0:
256,194,60040,1,0,0:0:0:0:
256,194,60172,1,8,0:0:0:0:
256,194,60303,1,0,0:0:0:0:
256,194,60435,1,8,0:0:0:0:
256,194,60567,1,0,0:0:0:0:
256,194,60632,1,0,0:0:0:0:
256,194,60698,1,0,0:0:0:0:
256,194,60764,1,0,0:0:0:0:
256,194,60830,1,8,0:0:0:0:
256,194,60961,1,0,0:0:0:0:
256,194,61224,1,0,0:0:0:0:
256,194,61290,1,0,0:0:0:0:
256,194,61356,1,8,0:0:0:0:
256,194,61488,1,0,0:0:0:0:
256,194,61619,1,8,0:0:0:0:
256,194,61751,1,8,0:0:0:0:
256,194,61882,1,0,0:0:0:0:
256,194,62014,1,8,0:0:0:0:
256,194,62080,1,8,0:0:0:0:
256,194,62145,1,0,0:0:0:0:
256,194,62277,1,8,0:0:0:0:
256,194,62409,1,0,0:0:0:0:
256,194,62540,1,0,0:0:0:0:
256,194,62672,1,8,0:0:0:0:
256,194,62738,1,0,0:0:0:0:
256,194,62803,1,0,0:0:0:0:
256,194,62869,1,0,0:0:0:0:
256,194,62935,1,8,0:0:0:0:
256,194,63067,1,0,0:0:0:0:
256,194,63132,1,0,0:0:0:0:
256,194,63198,1,8,0:0:0:0:
256,194,63330,1,0,0:0:0:0:
256,194,63461,1,8,0:0:0:0:
256,194,63724,1,8,0:0:0:0:
256,194,63855,1,0,0:0:0:0:
256,194,63921,1,0,0:0:0:0:
256,194,63987,1,8,0:0:0:0:
256,194,64119,1,0,0:0:0:0:
256,194,64251,1,8,0:0:0:0:
256,194,64317,1,0,0:0:0:0:
256,194,64382,1,0,0:0:0:0:
256,194,64514,1,8,0:0:0:0:
256,194,64645,1,8,0:0:0:0:
256,194,64777,1,0,0:0:0:0:
256,194,64909,1,8,0:0:0:0:
256,194,65171,1,0,0:0:0:0:
256,194,65303,1,8,0:0:0:0:
256,194,65434,1,0,0:0:0:0:
256,194,65567,1,8,0:0:0:0:
256,194,65632,1,0,0:0:0:0:
256,194,65698,1,0,0:0:0:0:
256,194,65829,1,8,0:0:0:0:
256,194,65961,1,0,0:0:0:0:
256,194,66093,1,8,0:0:0:0:
256,194,66224,1,0,0:0:0:0:
256,194,66290,1,0,0:0:0:0:
256,194,66356,1,8,0:0:0:0:
256,194,66488,1,8,0:0:0:0:
256,194,66619,1,0,0:0:0:0:
256,194,66751,1,0,0:0:0:0:
256,194,66882,1,8,0:0:0:0:
256,194,67145,1,8,0:0:0:0:
256,194,67211,1,8,0:0:0:0:
256,194,67277,1,0,0:0:0:0:
256,194,67409,1,8,0:0:0:0:
256,194,67540,1,0,0:0:0:0:
256,194,67672,1,8,0:0:0:0:
256,194,67803,1,8,0:0:0:0:
256,194,67935,1,0,0:0:0:0:
256,194,68198,1,8,0:0:0:0:
256,194,68330,1,0,0:0:0:0:
256,194,68461,1,8,0:0:0:0:
256,194,68527,1,0,0:0:0:0:
256,194,68593,1,8,0:0:0:0:
256,194,68724,1,0,0:0:0:0:
256,194,68856,1,8,0:0:0:0:
256,194,68988,1,0,0:0:0:0:
256,194,69119,1,8,0:0:0:0:
256,194,69251,1,0,0:0:0:0:
256,194,69317,1,0,0:0:0:0:
256,194,69382,1,8,0:0:0:0:
256,194,69514,1,0,0:0:0:0:
256,194,69645,1,8,0:0:0:0:
256,194,69777,1,0,0:0:0:0:
256,194,70040,1,8,0:0:0:0:
256,194,70106,1,0,0:0:0:0:
256,194,70172,1,0,0:0:0:0:
256,194,70303,1,8,0:0:0:0:
256,194,70435,1,0,0:0:0:0:
256,194,70501,1,0,0:0:0:0:
256,194,70567,1,8,0:0:0:0:
256,194,70698,1,0,0:0:0:0:
256,194,70830,1,8,0:0:0:0:
256,194,70961,1,0,0:0:0:0:
256,194,71093,1,8,0:0:0:0:
256,194,71224,1,0,0:0:0:0:
256,194,71290,1,0,0:0:0:0:
256,194,71356,1,8,0:0:0:0:
256,194,71488,1,0,0:0:0:0:
256,194,71619,1,8,0:0:0:0:
256,194,71751,1,8,0:0:0:0:
256,194,71882,1,0,0:0:0:0:
256,194,72014,1,0,0:0:0:0:
256,194,72145,1,8,0:0:0:0:
256,194,72277,1,0,0:0:0:0:
256,194,72540,1,8,0:0:0:0:
256,194,72672,1,0,0:0:0:0:
256,194,72803,1,8,0:0:0:0:
256,194,72935,1,0,0:0:0:0:
256,194,73066,1,8,0:0:0:0:
256,194,73132,1,0,0:0:0:0:
256,194,73198,1,8,0:0:0:0:
256,194,73329,1,0,0:0:0:0:
256,194,73593,1,8,0:0:0:0:
256,194,73724,1,0,0:0:0:0:
256,194,73856,1,8,0:0:0:0:
256,194,73987,1,0,0:0:0:0:
256,194,74119,1,8,0:0:0:0:
256,194,74185,1,8,0:0:0:0:
256,194,74251,1,8,0:0:0:0:
256,194,74382,1,0,0:0:0:0:
256,194,74645,1,8,0:0:0:0:
256,194,74777,1,0,0:0:0:0:
256,194,74908,1,8,0:0:0:0:
256,194,75040,1,0,0:0:0:0:
256,194,75172,1,8,0:0:0:0:
256,194,75303,1,0,0:0:0:0:
256,194,75369,1,0,0:0:0:0:
256,194,75435,1,0,0:0:0:0:
256,194,75501,1,0,0:0:0:0:
256,194,75567,1,8,0:0:0:0:
256,194,75698,1,0,0:0:0:0:
256,194,75764,1,0,0:0:0:0:
256,194,75829,1,8,0:0:0:0:
256,194,75895,1,8,0:0:0:0:
256,194,75961,1,0,0:0:0:0:
256,194,76093,1,8,0:0:0:0:
256,194,76224,1,0,0:0:0:0:
256,194,76356,1,8,0:0:0:0:
256,194,76487,1,0,0:0:0:0:
256,194,76750,1,8,0:0:0:0:
256,194,76882,1,0,0:0:0:0:
256,194,77013,1,8,0:0:0:0:
256,194,77145,1,0,0:0:0:0:
256,194,77276,1,8,0:0:0:0:
256,194,77342,1,8,0:0:0:0:
256,194,77408,1,8,0:0:0:0:
256,194,77539,1,0,0:0:0:0:
256,194,77803,1,8,0:0:0:0:
256,194,77934,1,0,0:0:0:0:
256,194,78066,1,8,0:0:0:0:
256,194,78197,1,0,0:0:0:0:
256,194,78329,1,8,0:0:0:0:
256,194,78395,1,8,0:0:0:0:
256,194,78461,1,8,0:0:0:0:
256,194,78527,1,8,0:0:0:0:
256,194,78593,1,0,0:0:0:0:
256,194,78724,1,8,0:0:0:0:
256,194,78790,1,8,0:0:0:0:
256,194,78856,1,0,0:0:0:0:
256,194,78922,1,0,0:0:0:0:
256,194,78988,1,8,0:0:0:0:
256,194,79119,1,0,0:0:0:0:
256,194,79251,1,8,0:0:0:0:
256,194,79317,1,8,0:0:0:0:
256,194,79382,1,0,0:0:0:0:
256,194,79514,1,8,0:0:0:0:
256,194,79689,1,0,0:0:0:0:
256,194,79777,1,0,0:0:0:0:
256,194,79865,1,0,0:0:0:0:
256,194,79952,1,0,0:0:0:0:
256,194,80040,1,8,0:0:0:0:
256,194,80172,1,0,0:0:0:0:
256,194,80303,1,8,0:0:0:0:
256,194,80391,1,0,0:0:0:0:
256,194,80479,1,0,0:0:0:0:
256,194,80567,1,8,0:0:0:0:
256,194,81093,1,8,0:0:0:0:
256,194,81181,1,8,0:0:0:0:
256,194,81268,1,0,0:0:0:0:
256,194,81356,1,8,0:0:0:0:
256,194,81444,1,0,0:0:0:0:
256,194,81531,1,0,0:0:0:0:
256,194,81619,1,8,0:0:0:0:
256,194,81882,1,8,0:0:0:0:
256,194,81970,1,0,0:0:0:0:
256,194,82058,1,0,0:0:0:0:
256,194,82145,1,8,0:0:0:0:
256,194,82321,1,0,0:0:0:0:
256,194,82409,1,8,0:0:0:0:
256,194,82496,1,0,0:0:0:0:
256,194,82584,1,0,0:0:0:0:
256,194,82672,1,8,0:0:0:0:
256,194,82935,1,8,0:0:0:0:
256,194,83023,1,8,0:0:0:0:
256,194,83110,1,0,0:0:0:0:
256,194,83198,1,0,0:0:0:0:
256,194,83286,1,0,0:0:0:0:
256,194,83374,1,0,0:0:0:0:
256,194,83461,1,8,0:0:0:0:
256,194,83724,1,8,0:0:0:0:
256,194,83790,1,8,0:0:0:0:
256,194,83856,1,0,0:0:0:0:
256,194,83922,1,0,0:0:0:0:
256,194,83988,1,8,0:0:0:0:
256,194,84119,1,0,0:0:0:0:
256,194,84185,1,0,0:0:0:0:
256,194,84251,1,8,0:0:0:0:
256,194,84382,1,0,0:0:0:0:
256,194,84514,1,8,0:0:0:0:
256,194,84580,1,8,0:0:0:0:
256,194,84645,1,0,0:0:0:0:
256,194,84711,1,0,0:0:0:0:
256,194,84777,1,8,0:0:0:0:
256,194,85040,1,8,0:0:0:0:
256,194,85128,1,8,0:0:0:0:
256,194,85215,1,0,0:0:0:0:
256,194,85303,1,8,0:0:0:0:
256,194,85391,1,0,0:0:0:0:
256,194,85478,1,0,0:0:0:0:
256,194,85566,1,8,0:0:0:0:
256,194,85829,1,8,0:0:0:0:
256,194,85917,1,0,0:0:0:0:
256,194,86005,1,0,0:0:0:0:
256,194,86092,1,8,0:0:0:0:
256,194,86268,1,0,0:0:0:0:
256,194,86356,1,8,0:0:0:0:
256,194,86443,1,0,0:0:0:0:
256,194,86531,1,0,0:0:0:0:
256,194,86619,1,8,0:0:0:0:
256,194,86795,1,0,0:0:0:0:
256,194,86882,1,8,0:0:0:0:
256,194,87145,1,8,0:0:0:0:
256,194,87233,1,8,0:0:0:0:
256,194,87321,1,0,0:0:0:0:
256,194,87409,1,8,0:0:0:0:
256,194,87496,1,0,0:0:0:0:
256,194,87584,1,0,0:0:0:0:
256,194,87672,1,8,0:0:0:0:
256,194,87935,1,8,0:0:0:0:
256,194,88001,1,8,0:0:0:0:
256,194,88067,1,0,0:0:0:0:
256,194,88133,1,0,0:0:0:0:
256,194,88199,1,8,0:0:0:0:
256,194,88330,1,0,0:0:0:0:
256,194,88396,1,0,0:0:0:0:
256,194,88462,1,8,0:0:0:0:
256,194,88593,1,0,0:0:0:0:
256,194,88725,1,8,0:0:0:0:
256,194,88791,1,0,0:0:0:0:
256,194,88856,1,0,0:0:0:0:
256,194,88922,1,0,0:0:0:0:
256,194,88988,1,8,0:0:0:0:
256,194,89251,1,8,0:0:0:0:
256,194,89339,1,8,0:0:0:0:
256,194,89426,1,0,0:0:0:0:
256,194,89514,1,0,0:0:0:0:
256,194,89602,1,0,0:0:0:0:
256,194,89689,1,0,0:0:0:0:
256,194,89777,1,8,0:0:0:0:
256,194,90040,1,8,0:0:0:0:
256,194,90128,1,0,0:0:0:0:
256,194,90216,1,0,0:0:0:0:
256,194,90303,1,8,0:0:0:0:
256,194,90479,1,0,0:0:0:0:
256,194,90567,1,8,0:0:0:0:
256,194,90654,1,0,0:0:0:0:
256,194,90742,1,0,0:0:0:0:
256,194,90830,1,8,0:0:0:0:
256,194,91006,1,0,0:0:0:0:
256,194,91093,1,8,0:0:0:0:
256,194,91356,1,8,0:0:0:0:
256,194,91444,1,8,0:0:0:0:
256,194,91532,1,0,0:0:0:0:
256,194,91620,1,8,0:0:0:0:
256,194,91707,1,0,0:0:0:0:
256,194,91795,1,0,0:0:0:0:
256,194,91883,1,8,0:0:0:0:
256,194,92145,1,8,0:0:0:0:
256,194,92211,1,0,0:0:0:0:
256,194,92277,1,0,0:0:0:0:
256,194,92343,1,0,0:0:0:0:
256,194,92409,1,8,0:0:0:0:
256,194,92540,1,0,0:0:0:0:
256,194,92672,1,8,0:0:0:0:
256,194,92738,1,8,0:0:0:0:
256,194,92803,1,8,0:0:0:0:
256,194,92935,1,0,0:0:0:0:
256,194,93001,1,0,0:0:0:0:
256,194,93066,1,0,0:0:0:0:
256,194,93132,1,0,0:0:0:0:
256,194,93198,1,8,0:0:0:0:
256,194,93461,1,8,0:0:0:0:
256,194,93549,1,8,0:0:0:0:
256,194,93636,1,0,0:0:0:0:
256,194,93724,1,8,0:0:0:0:
256,194,93812,1,0,0:0:0:0:
256,194,93899,1,0,0:0:0:0:
256,194,93987,1,8,0:0:0:0:
256,194,94250,1,8,0:0:0:0:
256,194,94338,1,0,0:0:0:0:
256,194,94426,1,0,0:0:0:0:
256,194,94513,1,8,0:0:0:0:
256,194,94689,1,0,0:0:0:0:
256,194,94777,1,8,0:0:0:0:
256,194,94864,1,0,0:0:0:0:
256,194,94952,1,0,0:0:0:0:
256,194,95040,1,8,0:0:0:0:
256,194,95216,1,0,0:0:0:0:
256,194,95303,1,8,0:0:0:0:
256,194,95566,1,8,0:0:0:0:
256,194,95654,1,8,0:0:0:0:
256,194,95742,1,0,0:0:0:0:
256,194,95830,1,0,0:0:0:0:
256,194,95917,1,0,0:0:0:0:
256,194,96005,1,0,0:0:0:0:
256,194,96093,1,8,0:0:0:0:
256,194,96356,1,8,0:0:0:0:
256,194,96422,1,8,0:0:0:0:
256,194,96488,1,0,0:0:0:0:
256,194,96554,1,0,0:0:0:0:
256,194,96620,1,8,0:0:0:0:
256,194,96751,1,0,0:0:0:0:
256,194,96817,1,0,0:0:0:0:
256,194,96883,1,8,0:0:0:0:
256,194,97014,1,0,0:0:0:0:
256,194,97146,1,8,0:0:0:0:
256,194,97211,1,0,0:0:0:0:
256,194,97277,1,0,0:0:0:0:
256,194,97343,1,0,0:0:0:0:
256,194,97409,1,8,0:0:0:0:
256,194,97672,1,8,0:0:0:0:
256,194,97760,1,8,0:0:0:0:
256,194,97847,1,0,0:0:0:0:
256,194,97935,1,8,0:0:0:0:
256,194,98023,1,0,0:0:0:0:
256,194,98110,1,0,0:0:0:0:
256,194,98198,1,8,0:0:0:0:
256,194,98461,1,8,0:0:0:0:
256,194,98549,1,0,0:0:0:0:
256,194,98637,1,0,0:0:0:0:
256,194,98724,1,8,0:0:0:0:
256,194,98900,1,0,0:0:0:0:
256,194,98988,1,8,0:0:0:0:
256,194,99075,1,0,0:0:0:0:
256,194,99163,1,0,0:0:0:0:
256,194,99251,1,8,0:0:0:0:
256,194,99427,1,0,0:0:0:0:
256,194,99514,1,8,0:0:0:0:
256,194,99777,1,8,0:0:0:0:
256,194,99865,1,8,0:0:0:0:
256,194,99953,1,0,0:0:0:0:
256,194,100041,1,0,0:0:0:0:
256,194,100128,1,0,0:0:0:0:
256,194,100216,1,0,0:0:0:0:
256,194,100304,1,8,0:0:0:0:
256,194,100567,1,8,0:0:0:0:
256,194,100633,1,8,0:0:0:0:
256,194,100699,1,0,0:0:0:0:
256,194,100765,1,0,0:0:0:0:
256,194,100831,1,8,0:0:0:0:
256,194,100962,1,0,0:0:0:0:
256,194,101094,1,8,0:0:0:0:
256,194,101160,1,8,0:0:0:0:
256,194,101225,1,8,0:0:0:0:
256,194,101357,1,0,0:0:0:0:
256,194,101423,1,0,0:0:0:0:
256,194,101488,1,0,0:0:0:0:
256,194,101554,1,0,0:0:0:0:
256,194,101620,1,8,0:0:0:0:
256,194,101883,1,8,0:0:0:0:
256,194,101971,1,8,0:0:0:0:
256,194,102058,1,0,0:0:0:0:
256,194,102146,1,8,0:0:0:0:
256,194,102234,1,0,0:0:0:0:
256,194,102321,1,0,0:0:0:0:
256,194,102409,1,8,0:0:0:0:
256,194,102672,1,8,0:0:0:0:
256,194,102760,1,0,0:0:0:0:
256,194,102848,1,0,0:0:0:0:
256,194,102935,1,8,0:0:0:0:
256,194,103111,1,0,0:0:0:0:
256,194,103199,1,8,0:0:0:0:
256,194,103286,1,0,0:0:0:0:
256,194,103374,1,0,0:0:0:0:
256,194,103462,1,8,0:0:0:0:
256,194,103638,1,0,0:0:0:0:
256,194,103725,1,8,0:0:0:0:
256,194,103988,1,8,0:0:0:0:
256,194,104076,1,8,0:0:0:0:
256,194,104164,1,0,0:0:0:0:
256,194,104252,1,8,0:0:0:0:
256,194,104339,1,0,0:0:0:0:
256,194,104427,1,0,0:0:0:0:
256,194,104515,1,8,0:0:0:0:
256,194,104777,1,8,0:0:0:0:
256,194,104843,1,8,0:0:0:0:
256,194,104909,1,0,0:0:0:0:
256,194,104975,1,0,0:0:0:0:
256,194,105041,1,8,0:0:0:0:
256,194,105172,1,0,0:0:0:0:
256,194,105238,1,0,0:0:0:0:
256,194,105304,1,8,0:0:0:0:
256,194,105435,1,0,0:0:0:0:
256,194,105567,1,8,0:0:0:0:
256,194,105633,1,0,0:0:0:0:
256,194,105698,1,0,0:0:0:0:
256,194,105764,1,0,0:0:0:0:
256,194,105830,1,8,0:0:0:0:
256,194,106093,1,8,0:0:0:0:
256,194,106181,1,0,0:0:0:0:
256,194,106268,1,0,0:0:0:0:
256,194,106356,1,8,0:0:0:0:
256,194,106444,1,8,0:0:0:0:
256,194,106531,1,0,0:0:0:0:
256,194,106619,1,8,0:0:0:0:
256,194,106882,1,8,0:0:0:0:
256,194,106970,1,0,0:0:0:0:
256,194,107058,1,0,0:0:0:0:
256,194,107145,1,8,0:0:0:0:
256,194,107321,1,0,0:0:0:0:
256,194,107409,1,8,0:0:0:0:
256,194,107496,1,0,0:0:0:0:
256,194,107584,1,0,0:0:0:0:
256,194,107672,1,8,0:0:0:0:
256,194,107848,1,0,0:0:0:0:
256,194,107935,1,8,0:0:0:0:
256,194,108198,1,8,0:0:0:0:
256,194,108286,1,8,0:0:0:0:
256,194,108374,1,0,0:0:0:0:
256,194,108461,1,8,0:0:0:0:
256,194,108549,1,0,0:0:0:0:
256,194,108637,1,0,0:0:0:0:
256,194,108725,1,8,0:0:0:0:
256,194,108988,1,8,0:0:0:0:
256,194,109054,1,8,0:0:0:0:
256,194,109120,1,0,0:0:0:0:
256,194,109186,1,0,0:0:0:0:
256,194,109252,1,8,0:0:0:0:
256,194,109383,1,0,0:0:0:0:
256,194,109515,1,8,0:0:0:0:
256,194,109580,1,0,0:0:0:0:
256,194,109646,1,0,0:0:0:0:
256,194,109778,1,8,0:0:0:0:
256,194,109844,1,0,0:0:0:0:
256,194,109909,1,0,0:0:0:0:
256,194,109975,1,0,0:0:0:0:
256,194,110041,1,8,0:0:0:0:
256,194,110304,1,8,0:0:0:0:
256,194,110392,1,8,0:0:0:0:
256,194,110479,1,0,0:0:0:0:
256,194,110567,1,8,0:0:0:0:
256,194,110655,1,0,0:0:0:0:
256,194,110742,1,0,0:0:0:0:
256,194,110830,1,8,0:0:0:0:
256,194,111093,1,8,0:0:0:0:
256,194,111181,1,8,0:0:0:0:
256,194,111269,1,0,0:0:0:0:
256,194,111356,1,0,0:0:0:0:
256,194,111532,1,0,0:0:0:0:
256,194,111620,1,8,0:0:0:0:
256,194,111707,1,8,0:0:0:0:
256,194,111795,1,0,0:0:0:0:
256,194,111883,1,8,0:0:0:0:
256,194,112059,1,0,0:0:0:0:
256,194,112146,1,8,0:0:0:0:
256,194,112409,1,8,0:0:0:0:
256,194,112497,1,8,0:0:0:0:
256,194,112585,1,0,0:0:0:0:
256,194,112673,1,0,0:0:0:0:
256,194,112760,1,0,0:0:0:0:
256,194,112848,1,0,0:0:0:0:
256,194,112936,1,8,0:0:0:0:
256,194,113198,1,0,0:0:0:0:
256,194,113330,1,8,0:0:0:0:
256,194,113461,1,0,0:0:0:0:
256,194,113527,1,0,0:0:0:0:
256,194,113593,1,0,0:0:0:0:
256,194,113659,1,0,0:0:0:0:
256,194,113724,1,8,0:0:0:0:
256,194,113856,1,0,0:0:0:0:
256,194,113988,1,8,0:0:0:0:
256,194,114053,1,8,0:0:0:0:
256,194,114119,1,0,0:0:0:0:
256,194,114185,1,0,0:0:0:0:
256,194,114251,1,12,0:0:0:0:
256,194,115040,1,0,0:0:0:0:
256,194,115303,1,8,0:0:0:0:
256,194,115830,1,4,0:0:0:0:
256,194,116356,1,12,0:0:0:0:
256,194,117145,1,8,0:0:0:0:
256,194,117277,1,0,0:0:0:0:
256,194,117343,1,0,0:0:0:0:
256,194,117409,1,8,0:0:0:0:
256,194,117540,1,8,0:0:0:0:
256,194,117672,1,0,0:0:0:0:
256,194,117738,1,0,0:0:0:0:
256,194,117803,1,8,0:0:0:0:
256,194,117869,1,8,0:0:0:0:
256,194,117935,1,0,0:0:0:0:
256,194,118067,1,8,0:0:0:0:
256,194,118198,1,0,0:0:0:0:
256,194,118264,1,0,0:0:0:0:
256,194,118330,1,0,0:0:0:0:
256,194,118395,1,0,0:0:0:0:
256,194,118461,1,8,0:0:0:0:
256,194,118724,1,0,0:0:0:0:
256,194,118856,1,0,0:0:0:0:
256,194,118988,1,8,0:0:0:0:
256,194,119119,1,8,0:0:0:0:
256,194,119251,1,0,0:0:0:0:
256,194,119382,1,0,0:0:0:0:
256,194,119514,1,8,0:0:0:0:
256,194,120303,1,0,0:0:0:0:
256,194,120567,1,8,0:0:0:0:
256,194,120961,1,8,0:0:0:0:
256,194,121093,1,0,0:0:0:0:
256,194,121356,1,0,0:0:0:0:
256,194,121619,1,8,0:0:0:0:
256,194,121882,1,0,0:0:0:0:
256,194,121948,1,0,0:0:0:0:
256,194,122014,1,0,0:0:0:0:
256,194,122080,1,0,0:0:0:0:
256,194,122145,1,8,0:0:0:0:
256,194,122277,1,0,0:0:0:0:
256,194,122409,1,8,0:0:0:0:
256,194,122474,1,8,0:0:0:0:
256,194,122540,1,0,0:0:0:0:
256,194,122606,1,0,0:0:0:0:
256,194,122672,1,12,0:0:0:0:
256,194,123461,1,0,0:0:0:0:
256,194,123724,1,12,0:0:0:0:
256,194,124251,1,4,0:0:0:0:
256,194,124777,1,12,0:0:0:0:
256,194,125567,1,0,0:0:0:0:
256,194,125830,1,8,0:0:0:0:
256,194,125961,1,0,0:0:0:0:
256,194,126027,1,0,0:0:0:0:
256,194,126093,1,8,0:0:0:0:
256,194,126224,1,8,0:0:0:0:
256,194,126356,1,0,0:0:0:0:
256,194,126488,1,0,0:0:0:0:
256,194,126619,1,8,0:0:0:0:
256,194,126751,1,0,0:0:0:0:
256,194,126882,1,8,0:0:0:0:
256,194,127145,1,8,0:0:0:0:
256,194,127277,1,8,0:0:0:0:
256,194,127409,1,0,0:0:0:0:
256,194,127540,1,0,0:0:0:0:
256,194,127672,1,8,0:0:0:0:
256,194,127803,1,0,0:0:0:0:
256,194,127935,1,8,0:0:0:0:
256,194,128724,1,0,0:0:0:0:
256,194,128988,1,12,0:0:0:0:
256,194,129382,1,0,0:0:0:0:
256,194,129777,1,8,0:0:0:0:
256,194,129843,1,0,0:0:0:0:
256,194,129909,1,0,0:0:0:0:
256,194,130040,1,8,0:0:0:0:
256,194,130303,1,0,0:0:0:0:
256,194,130567,1,8,0:0:0:0:
256,194,130632,1,8,0:0:0:0:
256,194,130698,1,0,0:0:0:0:
256,194,130764,1,0,0:0:0:0:
256,194,130830,1,8,0:0:0:0:
256,194,130961,1,0,0:0:0:0:
256,194,131093,1,8,0:0:0:0:
256,194,131224,1,0,0:0:0:0:
256,194,131356,1,8,0:0:0:0:
256,194,131422,1,8,0:0:0:0:
256,194,131488,1,0,0:0:0:0:
256,194,131619,1,8,0:0:0:0:
256,194,131751,1,0,0:0:0:0:
256,194,131882,1,8,0:0:0:0:
256,194,131948,1,0,0:0:0:0:
256,194,132014,1,0,0:0:0:0:
256,194,132145,1,8,0:0:0:0:
256,194,132409,1,8,0:0:0:0:
256,194,132474,1,8,0:0:0:0:
256,194,132540,1,0,0:0:0:0:
256,194,132672,1,8,0:0:0:0:
256,194,132803,1,0,0:0:0:0:
256,194,132869,1,0,0:0:0:0:
256,194,132935,1,8,0:0:0:0:
256,194,133001,1,8,0:0:0:0:
256,194,133067,1,0,0:0:0:0:
256,194,133198,1,8,0:0:0:0:
256,194,133461,1,8,0:0:0:0:
256,194,133527,1,0,0:0:0:0:
256,194,133593,1,8,0:0:0:0:
256,194,133724,1,0,0:0:0:0:
256,194,133856,1,0,0:0:0:0:
256,194,133988,1,8,0:0:0:0:
256,194,134053,1,8,0:0:0:0:
256,194,134119,1,0,0:0:0:0:
256,194,134251,1,8,0:0:0:0:
256,194,134382,1,0,0:0:0:0:
256,194,134514,1,8,0:0:0:0:
256,194,134645,1,0,0:0:0:0:
256,194,134777,1,8,0:0:0:0:
256,194,135040,1,0,0:0:0:0:
256,194,135106,1,0,0:0:0:0:
256,194,135172,1,0,0:0:0:0:
256,194,135238,1,0,0:0:0:0:
256,194,135303,1,8,0:0:0:0:
256,194,135435,1,0,0:0:0:0:
256,194,135567,1,8,0:0:0:0:
256,194,135632,1,8,0:0:0:0:
256,194,135698,1,0,0:0:0:0:
256,194,135830,1,8,0:0:0:0:
256,194,135961,1,0,0:0:0:0:
256,194,136027,1,0,0:0:0:0:
256,194,136093,1,8,0:0:0:0:
256,194,136159,1,8,0:0:0:0:
256,194,136224,1,0,0:0:0:0:
256,194,136356,1,8,0:0:0:0:
256,194,136619,1,8,0:0:0:0:
256,194,136685,1,0,0:0:0:0:
256,194,136751,1,0,0:0:0:0:
256,194,136882,1,8,0:0:0:0:
256,194,137014,1,0,0:0:0:0:
256,194,137145,1,8,0:0:0:0:
256,194,137211,1,8,0:0:0:0:
256,194,137277,1,0,0:0:0:0:
256,194,137343,1,0,0:0:0:0:
256,194,137409,1,8,0:0:0:0:
256,194,137672,1,0,0:0:0:0:
256,194,137738,1,0,0:0:0:0:
256,194,137803,1,8,0:0:0:0:
256,194,137935,1,0,0:0:0:0:
256,194,138067,1,8,0:0:0:0:
256,194,138132,1,8,0:0:0:0:
256,194,138198,1,0,0:0:0:0:
256,194,138330,1,8,0:0:0:0:
256,194,138461,1,0,0:0:0:0:
256,194,138724,1,0,0:0:0:0:
256,194,138856,1,8,0:0:0:0:
256,194,138922,1,8,0:0:0:0:
256,194,138988,1,0,0:0:0:0:
256,194,139119,1,8,0:0:0:0:
256,194,139251,1,0,0:0:0:0:
256,194,139382,1,8,0:0:0:0:
256,194,139514,1,0,0:0:0:0:
256,194,139580,1,0,0:0:0:0:
256,194,139645,1,8,0:0:0:0:
256,194,139777,1,0,0:0:0:0:
256,194,139909,1,8,0:0:0:0:
256,194,139974,1,8,0:0:0:0:
256,194,140040,1,0,0:0:0:0:
256,194,140106,1,0,0:0:0:0:
256,194,140172,1,8,0:0:0:0:
256,194,140303,1,0,0:0:0:0:
256,194,140435,1,8,0:0:0:0:
256,194,140567,1,0,0:0:0:0:
256,194,140632,1,0,0:0:0:0:
256,194,140698,1,8,0:0:0:0:
256,194,140830,1,0,0:0:0:0:
256,194,140961,1,8,0:0:0:0:
256,194,141027,1,8,0:0:0:0:
256,194,141093,1,0,0:0:0:0:
256,194,141159,1,0,0:0:0:0:
256,194,141224,1,8,0:0:0:0:
256,194,141356,1,0,0:0:0:0:
256,194,141488,1,8,0:0:0:0:
256,194,141619,1,0,0:0:0:0:
256,194,141882,1,8,0:0:0:0:
256,194,141948,1,8,0:0:0:0:
256,194,142014,1,0,0:0:0:0:
256,194,142145,1,8,0:0:0:0:
256,194,142277,1,0,0:0:0:0:
256,194,142409,1,8,0:0:0:0:
256,194,142540,1,0,0:0:0:0:
256,194,142606,1,0,0:0:0:0:
256,194,142672,1,8,0:0:0:0:
256,194,142935,1,8,0:0:0:0:
256,194,143067,1,0,0:0:0:0:
256,194,143132,1,0,0:0:0:0:
256,194,143198,1,8,0:0:0:0:
256,194,143330,1,0,0:0:0:0:
256,194,143461,1,8,0:0:0:0:
256,194,143593,1,0,0:0:0:0:
256,194,143724,1,8,0:0:0:0:
256,194,143790,1,8,0:0:0:0:
256,194,143856,1,0,0:0:0:0:
256,194,143988,1,8,0:0:0:0:
256,194,144251,1,8,0:0:0:0:
256,194,144317,1,8,0:0:0:0:
256,194,144382,1,0,0:0:0:0:
256,194,144514,1,8,0:0:0:0:
256,194,144645,1,0,0:0:0:0:
256,194,144777,1,8,0:0:0:0:
256,194,145040,1,8,0:0:0:0:
256,194,145106,1,0,0:0:0:0:
256,194,145172,1,0,0:0:0:0:
256,194,145303,1,8,0:0:0:0:
256,194,145435,1,0,0:0:0:0:
256,194,145567,1,8,0:0:0:0:
256,194,145698,1,0,0:0:0:0:
256,194,145764,1,0,0:0:0:0:
256,194,145830,1,8,0:0:0:0:
256,194,146093,1,8,0:0:0:0:
256,194,146159,1,0,0:0:0:0:
256,194,146224,1,0,0:0:0:0:
256,194,146356,1,8,0:0:0:0:
256,194,146488,1,0,0:0:0:0:
256,194,146619,1,8,0:0:0:0:
256,194,146685,1,8,0:0:0:0:
256,194,146751,1,0,0:0:0:0:
256,194,146882,1,8,0:0:0:0:
256,194,147145,1,8,0:0:0:0:
256,194,147211,1,0,0:0:0:0:
256,194,147277,1,0,0:0:0:0:
256,194,147409,1,8,0:0:0:0:
256,194,147540,1,0,0:0:0:0:
256,194,147606,1,0,0:0:0:0:
256,194,147672,1,8,0:0:0:0:
256,194,147738,1,0,0:0:0:0:
256,194,147803,1,0,0:0:0:0:
256,194,147935,1,8,0:0:0:0:
256,194,148198,1,8,0:0:0:0:
256,194,148264,1,0,0:0:0:0:
256,194,148330,1,0,0:0:0:0:
256,194,148461,1,8,0:0:0:0:
256,194,148593,1,0,0:0:0:0:
256,194,148724,1,8,0:0:0:0:
256,194,148790,1,8,0:0:0:0:
256,194,148856,1,0,0:0:0:0:
256,194,148922,1,0,0:0:0:0:
256,194,148988,1,8,0:0:0:0:
256,194,149119,1,0,0:0:0:0:
256,194,149251,1,8,0:0:0:0:
256,194,149382,1,0,0:0:0:0:
256,194,149514,1,8,0:0:0:0:
256,194,149777,1,8,0:0:0:0:
256,194,149843,1,0,0:0:0:0:
256,194,149909,1,0,0:0:0:0:
256,194,150040,1,8,0:0:0:0:
256,194,150172,1,0,0:0:0:0:
256,194,150303,1,8,0:0:0:0:
256,194,150435,1,0,0:0:0:0:
256,194,150501,1,0,0:0:0:0:
256,194,150567,1,8,0:0:0:0:
256,194,150698,1,0,0:0:0:0:
256,194,150830,1,8,0:0:0:0:
256,194,150895,1,8,0:0:0:0:
256,194,150961,1,0,0:0:0:0:
256,194,151027,1,0,0:0:0:0:
256,194,151093,1,8,0:0:0:0:
256,194,151224,1,0,0:0:0:0:
256,194,151356,1,8,0:0:0:0:
256,194,151488,1,0,0:0:0:0:
256,194,151619,1,8,0:0:0:0:
256,194,151882,1,8,0:0:0:0:
256,194,151948,1,0,0:0:0:0:
256,194,152014,1,0,0:0:0:0:
256,194,152080,1,0,0:0:0:0:
256,194,152145,1,8,0:0:0:0:
256,194,152277,1,0,0:0:0:0:
256,194,152409,1,8,0:0:0:0:
256,194,152540,1,0,0:0:0:0:
256,194,152606,1,0,0:0:0:0:
256,194,152672,1,8,0:0:0:0:
256,194,152803,1,0,0:0:0:0:
256,194,152935,1,8,0:0:0:0:
256,194,153067,1,8,0:0:0:0:
256,194,153198,1,0,0:0:0:0:
256,194,153461,1,8,0:0:0:0:
256,194,153527,1,8,0:0:0:0:
256,194,153593,1,0,0:0:0:0:
256,194,153659,1,0,0:0:0:0:
256,194,153724,1,8,0:0:0:0:
256,194,153856,1,0,0:0:0:0:
256,194,153988,1,8,0:0:0:0:
256,194,154053,1,8,0:0:0:0:
256,194,154119,1,0,0:0:0:0:
256,194,154251,1,8,0:0:0:0:
256,194,154514,1,8,0:0:0:0:
256,194,154580,1,0,0:0:0:0:
256,194,154645,1,0,0:0:0:0:
256,194,154777,1,8,0:0:0:0:
256,194,154909,1,0,0:0:0:0:
256,194,155040,1,8,0:0:0:0:
256,194,155106,1,8,0:0:0:0:
256,194,155172,1,0,0:0:0:0:
256,194,155303,1,8,0:0:0:0:
256,194,155435,1,0,0:0:0:0:
256,194,155567,1,8,0:0:0:0:
256,194,155830,1,8,0:0:0:0:
256,194,155961,1,8,0:0:0:0:
256,194,156093,1,0,0:0:0:0:
256,194,156224,1,8,0:0:0:0:
256,194,156290,1,0,0:0:0:0:
256,194,156356,1,8,0:0:0:0:
256,194,156488,1,0,0:0:0:0:
256,194,156619,1,8,0:0:0:0:
256,194,156751,1,8,0:0:0:0:
256,194,156882,1,0,0:0:0:0:
256,194,157145,1,8,0:0:0:0:
256,194,157277,1,0,0:0:0:0:
256,194,157343,1,0,0:0:0:0:
256,194,157409,1,8,0:0:0:0:
256,194,157540,1,0,0:0:0:0:
256,194,157672,1,8,0:0:0:0:
256,194,157803,1,8,0:0:0:0:
256,194,157935,1,0,0:0:0:0:
256,194,158198,1,8,0:0:0:0:
256,194,158330,1,0,0:0:0:0:
256,194,158395,1,0,0:0:0:0:
256,194,158461,1,8,0:0:0:0:
256,194,158593,1,0,0:0:0:0:
256,194,158724,1,8,0:0:0:0:
256,194,158856,1,8,0:0:0:0:
256,194,158988,1,0,0:0:0:0:
256,194,159119,1,8,0:0:0:0:
256,194,159185,1,0,0:0:0:0:
256,194,159251,1,0,0:0:0:0:
256,194,159317,1,0,0:0:0:0:
256,194,159382,1,8,0:0:0:0:
256,194,159514,1,0,0:0:0:0:
256,194,159645,1,8,0:0:0:0:
256,194,159711,1,8,0:0:0:0:
256,194,159777,1,0,0:0:0:0:
256,194,159909,1,8,0:0:0:0:
256,194,160040,1,0,0:0:0:0:
256,194,160172,1,8,0:0:0:0:
256,194,160303,1,0,0:0:0:0:
256,194,160369,1,0,0:0:0:0:
256,194,160435,1,8,0:0:0:0:
256,194,160567,1,0,0:0:0:0:
256,194,160830,1,8,0:0:0:0:
256,194,160895,1,8,0:0:0:0:
256,194,160961,1,0,0:0:0:0:
256,194,161093,1,8,0:0:0:0:
256,194,161224,1,8,0:0:0:0:
256,194,161356,1,0,0:0:0:0:
256,194,161422,1,0,0:0:0:0:
256,194,161488,1,0,0:0:0:0:
256,194,161619,1,8,0:0:0:0:
256,194,161882,1,0,0:0:0:0:
256,194,161948,1,0,0:0:0:0:
256,194,162014,1,8,0:0:0:0:
256,194,162145,1,0,0:0:0:0:
256,194,162277,1,0,0:0:0:0:
256,194,162409,1,8,0:0:0:0:
256,194,162474,1,8,0:0:0:0:
256,194,162540,1,0,0:0:0:0:
256,194,162672,1,8,0:0:0:0:
256,194,162935,1,8,0:0:0:0:
256,194,163001,1,8,0:0:0:0:
256,194,163067,1,0,0:0:0:0:
256,194,163198,1,8,0:0:0:0:
256,194,163330,1,0,0:0:0:0:
256,194,163395,1,0,0:0:0:0:
256,194,163461,1,8,0:0:0:0:
256,194,163527,1,8,0:0:0:0:
256,194,163593,1,0,0:0:0:0:
256,194,163724,1,8,0:0:0:0:
256,194,163856,1,0,0:0:0:0:
256,194,163922,1,0,0:0:0:0:
256,194,163988,1,8,0:0:0:0:
256,194,164119,1,0,0:0:0:0:
256,194,164251,1,8,0:0:0:0:
256,194,164382,1,8,0:0:0:0:
256,194,164514,1,0,0:0:0:0:
256,194,164580,1,0,0:0:0:0:
256,194,164645,1,0,0:0:0:0:
256,194,164711,1,0,0:0:0:0:
256,194,164777,1,8,0:0:0:0:
256,194,165040,1,8,0:0:0:0:
256,194,165106,1,8,0:0:0:0:
256,194,165172,1,0,0:0:0:0:
256,194,165238,1,0,0:0:0:0:
256,194,165303,1,8,0:0:0:0:
256,194,165435,1,0,0:0:0:0:
256,194,165501,1,0,0:0:0:0:
256,194,165567,1,8,0:0:0:0:
256,194,165698,1,0,0:0:0:0:
256,194,165830,1,8,0:0:0:0:
256,194,165895,1,8,0:0:0:0:
256,194,165962,1,0,0:0:0:0:
256,194,166028,1,0,0:0:0:0:
256,194,166094,1,8,0:0:0:0:
256,194,166225,1,0,0:0:0:0:
256,194,166356,1,8,0:0:0:0:
256,194,166619,1,8,0:0:0:0:
256,194,166685,1,8,0:0:0:0:
256,194,166751,1,0,0:0:0:0:
256,194,166882,1,8,0:0:0:0:
256,194,167014,1,0,0:0:0:0:
256,194,167080,1,0,0:0:0:0:
256,194,167146,1,8,0:0:0:0:
256,194,167211,1,0,0:0:0:0:
256,194,167277,1,0,0:0:0:0:
256,194,167409,1,8,0:0:0:0:
256,194,167475,1,0,0:0:0:0:
256,194,167540,1,0,0:0:0:0:
256,194,167606,1,0,0:0:0:0:
256,194,167672,1,8,0:0:0:0:
256,194,167803,1,0,0:0:0:0:
256,194,167935,1,8,0:0:0:0:
256,194,168198,1,8,0:0:0:0:
256,194,168264,1,8,0:0:0:0:
256,194,168330,1,0,0:0:0:0:
256,194,168396,1,0,0:0:0:0:
256,194,168461,1,8,0:0:0:0:
256,194,168593,1,0,0:0:0:0:
256,194,168725,1,8,0:0:0:0:
256,194,168790,1,0,0:0:0:0:
256,194,168857,1,0,0:0:0:0:
256,194,168922,1,0,0:0:0:0:
256,194,168988,1,8,0:0:0:0:
256,194,169119,1,0,0:0:0:0:
256,194,169185,1,0,0:0:0:0:
256,194,169251,1,8,0:0:0:0:
256,194,169514,1,8,0:0:0:0:
256,194,169580,1,8,0:0:0:0:
256,194,169646,1,0,0:0:0:0:
256,194,169711,1,0,0:0:0:0:
256,194,169777,1,8,0:0:0:0:
256,194,169909,1,0,0:0:0:0:
256,194,169975,1,0,0:0:0:0:
256,194,170040,1,8,0:0:0:0:
256,194,170172,1,0,0:0:0:0:
256,194,170303,1,8,0:0:0:0:
256,194,170369,1,0,0:0:0:0:
256,194,170435,1,0,0:0:0:0:
256,194,170501,1,0,0:0:0:0:
256,194,170567,1,8,0:0:0:0:
256,194,170698,1,0,0:0:0:0:
256,194,170830,1,8,0:0:0:0:
256,194,171093,1,8,0:0:0:0:
256,194,171159,1,8,0:0:0:0:
256,194,171225,1,0,0:0:0:0:
256,194,171290,1,0,0:0:0:0:
256,194,171356,1,8,0:0:0:0:
256,194,171488,1,0,0:0:0:0:
256,194,171619,1,8,0:0:0:0:
256,194,171751,1,0,0:0:0:0:
256,194,171817,1,0,0:0:0:0:
256,194,171882,1,8,0:0:0:0:
256,194,172014,1,0,0:0:0:0:
256,194,172146,1,8,0:0:0:0:
256,194,172277,1,0,0:0:0:0:
256,194,172409,1,8,0:0:0:0:
256,194,172540,1,8,0:0:0:0:
256,194,172672,1,0,0:0:0:0:
256,194,172803,1,0,0:0:0:0:
256,194,172935,1,8,0:0:0:0:
256,194,173001,1,0,0:0:0:0:
256,194,173067,1,0,0:0:0:0:
256,194,173132,1,0,0:0:0:0:
256,194,173198,1,8,0:0:0:0:
256,194,173461,1,8,0:0:0:0:
256,194,173527,1,8,0:0:0:0:
256,194,173593,1,0,0:0:0:0:
256,194,173659,1,0,0:0:0:0:
256,194,173724,1,8,0:0:0:0:
256,194,173856,1,0,0:0:0:0:
256,194,173922,1,0,0:0:0:0:
256,194,173988,1,8,0:0:0:0:
256,194,174119,1,0,0:0:0:0:
256,194,174251,1,8,0:0:0:0:
256,194,174317,1,0,0:0:0:0:
256,194,174383,1,0,0:0:0:0:
256,194,174449,1,0,0:0:0:0:
256,194,174515,1,8,0:0:0:0:
256,194,174646,1,0,0:0:0:0:
256,194,174777,1,8,0:0:0:0:
256,194,175040,1,8,0:0:0:0:
256,194,175106,1,8,0:0:0:0:
256,194,175172,1,0,0:0:0:0:
256,194,175303,1,8,0:0:0:0:
256,194,175435,1,0,0:0:0:0:
256,194,175501,1,0,0:0:0:0:
256,194,175567,1,8,0:0:0:0:
256,194,175632,1,0,0:0:0:0:
256,194,175698,1,0,0:0:0:0:
256,194,175830,1,8,0:0:0:0:
256,194,175896,1,0,0:0:0:0:
256,194,175961,1,0,0:0:0:0:
256,194,176027,1,0,0:0:0:0:
256,194,176093,1,8,0:0:0:0:
256,194,176224,1,0,0:0:0:0:
256,194,176356,1,8,0:0:0:0:
256,194,176619,1,8,0:0:0:0:
256,194,176685,1,0,0:0:0:0:
256,194,176751,1,0,0:0:0:0:
256,194,176816,1,0,0:0:0:0:
256,194,176882,1,8,0:0:0:0:
256,194,177014,1,0,0:0:0:0:
256,194,177080,1,0,0:0:0:0:
256,194,177145,1,8,0:0:0:0:
256,194,177278,1,0,0:0:0:0:
256,194,177343,1,0,0:0:0:0:
256,194,177409,1,8,0:0:0:0:
256,194,177474,1,8,0:0:0:0:
256,194,177540,1,0,0:0:0:0:
256,194,177672,1,8,0:0:0:0:
256,194,177935,1,8,0:0:0:0:
256,194,178001,1,0,0:0:0:0:
256,194,178067,1,0,0:0:0:0:
256,194,178132,1,0,0:0:0:0:
256,194,178198,1,8,0:0:0:0:
256,194,178330,1,0,0:0:0:0:
256,194,178395,1,0,0:0:0:0:
256,194,178461,1,8,0:0:0:0:
256,194,178527,1,8,0:0:0:0:
256,194,178593,1,0,0:0:0:0:
256,194,178724,1,8,0:0:0:0:
256,194,178856,1,0,0:0:0:0:
256,194,178922,1,0,0:0:0:0:
256,194,178988,1,8,0:0:0:0:
256,194,179053,1,0,0:0:0:0:
256,194,179119,1,0,0:0:0:0:
256,194,179251,1,8,0:0:0:0:
256,194,179514,1,8,0:0:0:0:
256,194,179580,1,8,0:0:0:0:
256,194,179646,1,0,0:0:0:0:
256,194,179711,1,0,0:0:0:0:
256,194,179777,1,8,0:0:0:0:
256,194,179909,1,0,0:0:0:0:
256,194,180040,1,8,0:0:0:0:
256,194,180172,1,0,0:0:0:0:
256,194,180238,1,0,0:0:0:0:
256,194,180303,1,8,0:0:0:0:
256,194,180435,1,0,0:0:0:0:
256,194,180567,1,8,0:0:0:0:
256,194,180654,1,8,0:0:0:0:
256,194,180742,1,0,0:0:0:0:
256,194,180830,1,8,0:0:0:0:
256,194,181005,1,0,0:0:0:0:
256,194,181093,1,8,0:0:0:0:
256,194,181181,1,0,0:0:0:0:
256,194,181268,1,0,0:0:0:0:
256,194,181356,1,8,0:0:0:0:
256,194,181531,1,0,0:0:0:0:
256,194,181619,1,8,0:0:0:0:
256,194,182145,1,8,0:0:0:0:
256,194,182233,1,8,0:0:0:0:
256,194,182320,1,0,0:0:0:0:
256,194,182408,1,8,0:0:0:0:
256,194,182496,1,0,0:0:0:0:
256,194,182583,1,0,0:0:0:0:
256,194,182671,1,8,0:0:0:0:
256,194,182934,1,8,0:0:0:0:
256,194,183022,1,0,0:0:0:0:
256,194,183110,1,0,0:0:0:0:
256,194,183197,1,8,0:0:0:0:
256,194,183373,1,0,0:0:0:0:
256,194,183461,1,8,0:0:0:0:
256,194,183548,1,0,0:0:0:0:
256,194,183636,1,0,0:0:0:0:
256,194,183724,1,8,0:0:0:0:
256,194,183987,1,8,0:0:0:0:
256,194,184075,1,8,0:0:0:0:
256,194,184162,1,0,0:0:0:0:
256,194,184251,1,8,0:0:0:0:
256,194,184338,1,0,0:0:0:0:
256,194,184426,1,0,0:0:0:0:
256,194,184514,1,8,0:0:0:0:
256,194,184776,1,8,0:0:0:0:
256,194,184842,1,8,0:0:0:0:
256,194,184908,1,0,0:0:0:0:
256,194,184974,1,0,0:0:0:0:
256,194,185040,1,8,0:0:0:0:
256,194,185171,1,0,0:0:0:0:
256,194,185237,1,0,0:0:0:0:
256,194,185303,1,8,0:0:0:0:
256,194,185434,1,0,0:0:0:0:
256,194,185566,1,8,0:0:0:0:
256,194,185632,1,0,0:0:0:0:
256,194,185697,1,0,0:0:0:0:
256,194,185763,1,0,0:0:0:0:
256,194,185829,1,8,0:0:0:0:
256,194,186092,1,8,0:0:0:0:
256,194,186180,1,0,0:0:0:0:
256,194,186267,1,0,0:0:0:0:
256,194,186355,1,8,0:0:0:0:
256,194,186443,1,8,0:0:0:0:
256,194,186530,1,0,0:0:0:0:
256,194,186618,1,8,0:0:0:0:
256,194,186881,1,8,0:0:0:0:
256,194,186969,1,0,0:0:0:0:
256,194,187057,1,0,0:0:0:0:
256,194,187144,1,8,0:0:0:0:
256,194,187320,1,0,0:0:0:0:
256,194,187408,1,8,0:0:0:0:
256,194,187495,1,0,0:0:0:0:
256,194,187583,1,0,0:0:0:0:
256,194,187671,1,8,0:0:0:0:
256,194,187847,1,0,0:0:0:0:
256,194,187934,1,8,0:0:0:0:
256,194,188197,1,8,0:0:0:0:
256,194,188285,1,8,0:0:0:0:
256,194,188373,1,0,0:0:0:0:
256,194,188461,1,8,0:0:0:0:
256,194,188548,1,0,0:0:0:0:
256,194,188636,1,0,0:0:0:0:
256,194,188724,1,8,0:0:0:0:
256,194,188987,1,8,0:0:0:0:
256,194,189053,1,8,0:0:0:0:
256,194,189119,1,0,0:0:0:0:
256,194,189185,1,0,0:0:0:0:
256,194,189251,1,8,0:0:0:0:
256,194,189382,1,0,0:0:0:0:
256,194,189514,1,8,0:0:0:0:
256,194,189580,1,8,0:0:0:0:
256,194,189645,1,8,0:0:0:0:
256,194,189777,1,0,0:0:0:0:
256,194,189843,1,0,0:0:0:0:
256,194,189908,1,0,0:0:0:0:
256,194,189974,1,0,0:0:0:0:
256,194,190040,1,8,0:0:0:0:
256,194,190303,1,8,0:0:0:0:
256,194,190391,1,8,0:0:0:0:
256,194,190478,1,0,0:0:0:0:
256,194,190566,1,0,0:0:0:0:
256,194,190654,1,0,0:0:0:0:
256,194,190741,1,0,0:0:0:0:
256,194,190829,1,8,0:0:0:0:
256,194,191092,1,8,0:0:0:0:
256,194,191181,1,8,0:0:0:0:
256,194,191268,1,0,0:0:0:0:
256,194,191355,1,8,0:0:0:0:
256,194,191531,1,0,0:0:0:0:
256,194,191619,1,8,0:0:0:0:
256,194,191707,1,8,0:0:0:0:
256,194,191795,1,0,0:0:0:0:
256,194,191882,1,8,0:0:0:0:
256,194,192058,1,0,0:0:0:0:
256,194,192145,1,8,0:0:0:0:
256,194,192408,1,8,0:0:0:0:
256,194,192496,1,8,0:0:0:0:
256,194,192584,1,0,0:0:0:0:
256,194,192672,1,8,0:0:0:0:
256,194,192759,1,0,0:0:0:0:
256,194,192847,1,0,0:0:0:0:
256,194,192935,1,8,0:0:0:0:
256,194,193197,1,8,0:0:0:0:
256,194,193263,1,8,0:0:0:0:
256,194,193329,1,0,0:0:0:0:
256,194,193395,1,0,0:0:0:0:
256,194,193461,1,8,0:0:0:0:
256,194,193592,1,0,0:0:0:0:
256,194,193724,1,8,0:0:0:0:
256,194,193790,1,0,0:0:0:0:
256,194,193855,1,8,0:0:0:0:
256,194,193987,1,0,0:0:0:0:
256,194,194053,1,0,0:0:0:0:
256,194,194118,1,8,0:0:0:0:
256,194,194184,1,8,0:0:0:0:
256,194,194250,1,0,0:0:0:0:
256,194,194513,1,8,0:0:0:0:
256,194,194601,1,8,0:0:0:0:
256,194,194688,1,0,0:0:0:0:
256,194,194776,1,8,0:0:0:0:
256,194,194864,1,0,0:0:0:0:
256,194,194951,1,0,0:0:0:0:
256,194,195039,1,8,0:0:0:0:
256,194,195302,1,8,0:0:0:0:
256,194,195390,1,0,0:0:0:0:
256,194,195478,1,0,0:0:0:0:
256,194,195567,1,8,0:0:0:0:
256,194,195741,1,0,0:0:0:0:
256,194,195829,1,8,0:0:0:0:
256,194,195916,1,0,0:0:0:0:
256,194,196004,1,0,0:0:0:0:
256,194,196092,1,8,0:0:0:0:
256,194,196268,1,0,0:0:0:0:
256,194,196355,1,8,0:0:0:0:
256,194,196618,1,8,0:0:0:0:
256,194,196706,1,8,0:0:0:0:
256,194,196794,1,0,0:0:0:0:
256,194,196882,1,8,0:0:0:0:
256,194,196969,1,0,0:0:0:0:
256,194,197057,1,0,0:0:0:0:
256,194,197145,1,8,0:0:0:0:
256,194,197409,1,8,0:0:0:0:
256,194,197475,1,0,0:0:0:0:
256,194,197541,1,0,0:0:0:0:
256,194,197607,1,0,0:0:0:0:
256,194,197673,1,8,0:0:0:0:
256,194,197804,1,0,0:0:0:0:
256,194,197870,1,0,0:0:0:0:
256,194,197936,1,8,0:0:0:0:
256,194,198067,1,0,0:0:0:0:
256,194,198199,1,8,0:0:0:0:
256,194,198265,1,0,0:0:0:0:
256,194,198330,1,0,0:0:0:0:
256,194,198396,1,0,0:0:0:0:
256,194,198461,1,8,0:0:0:0:
256,194,198725,1,8,0:0:0:0:
256,194,198813,1,8,0:0:0:0:
256,194,198900,1,0,0:0:0:0:
256,194,198988,1,8,0:0:0:0:
256,194,199076,1,0,0:0:0:0:
256,194,199163,1,0,0:0:0:0:
256,194,199251,1,8,0:0:0:0:
256,194,199514,1,8,0:0:0:0:
256,194,199602,1,8,0:0:0:0:
256,194,199690,1,0,0:0:0:0:
256,194,199777,1,8,0:0:0:0:
256,194,199953,1,0,0:0:0:0:
256,194,200041,1,8,0:0:0:0:
256,194,200128,1,8,0:0:0:0:
256,194,200216,1,0,0:0:0:0:
256,194,200304,1,8,0:0:0:0:
256,194,200480,1,0,0:0:0:0:
256,194,200567,1,8,0:0:0:0:
256,194,200830,1,8,0:0:0:0:
256,194,200918,1,8,0:0:0:0:
256,194,201006,1,0,0:0:0:0:
256,194,201093,1,0,0:0:0:0:
256,194,201181,1,0,0:0:0:0:
256,194,201269,1,0,0:0:0:0:
256,194,201357,1,8,0:0:0:0:
256,194,201620,1,8,0:0:0:0:
256,194,201686,1,8,0:0:0:0:
256,194,201752,1,0,0:0:0:0:
256,194,201818,1,0,0:0:0:0:
256,194,201882,1,8,0:0:0:0:
256,194,202015,1,0,0:0:0:0:
256,194,202145,1,8,0:0:0:0:
256,194,202211,1,8,0:0:0:0:
256,194,202278,1,0,0:0:0:0:
256,194,202410,1,8,0:0:0:0:
256,194,202474,1,0,0:0:0:0:
256,194,202541,1,0,0:0:0:0:
256,194,202607,1,0,0:0:0:0:
256,194,202673,1,8,0:0:0:0:
256,194,202936,1,8,0:0:0:0:
256,194,203024,1,8,0:0:0:0:
256,194,203111,1,0,0:0:0:0:
256,194,203199,1,0,0:0:0:0:
256,194,203287,1,0,0:0:0:0:
256,194,203374,1,0,0:0:0:0:
256,194,203462,1,8,0:0:0:0:
256,194,203725,1,8,0:0:0:0:
256,194,203813,1,0,0:0:0:0:
256,194,203901,1,0,0:0:0:0:
256,194,203988,1,8,0:0:0:0:
256,194,204164,1,0,0:0:0:0:
256,194,204251,1,8,0:0:0:0:
256,194,204338,1,0,0:0:0:0:
256,194,204426,1,8,0:0:0:0:
256,194,204514,1,0,0:0:0:0:
256,194,204689,1,0,0:0:0:0:
256,194,204778,1,8,0:0:0:0:
256,194,205041,1,8,0:0:0:0:
256,194,205129,1,8,0:0:0:0:
256,194,205217,1,0,0:0:0:0:
256,194,205303,1,8,0:0:0:0:
256,194,205392,1,0,0:0:0:0:
256,194,205480,1,0,0:0:0:0:
256,194,205568,1,8,0:0:0:0:
256,194,205830,1,8,0:0:0:0:
256,194,205896,1,8,0:0:0:0:
256,194,205962,1,0,0:0:0:0:
256,194,206028,1,0,0:0:0:0:
256,194,206094,1,8,0:0:0:0:
256,194,206225,1,0,0:0:0:0:
256,194,206291,1,0,0:0:0:0:
256,194,206357,1,8,0:0:0:0:
256,194,206488,1,0,0:0:0:0:
256,194,206620,1,8,0:0:0:0:
256,194,206686,1,8,0:0:0:0:
256,194,206751,1,8,0:0:0:0:
256,194,206817,1,8,0:0:0:0:
256,194,206882,1,0,0:0:0:0:
256,194,207146,1,8,0:0:0:0:
256,194,207234,1,8,0:0:0:0:
256,194,207321,1,0,0:0:0:0:
256,194,207409,1,8,0:0:0:0:
256,194,207497,1,0,0:0:0:0:
256,194,207584,1,0,0:0:0:0:
256,194,207672,1,8,0:0:0:0:
256,194,207935,1,8,0:0:0:0:
256,194,208023,1,0,0:0:0:0:
256,194,208111,1,0,0:0:0:0:
256,194,208198,1,8,0:0:0:0:
256,194,208374,1,0,0:0:0:0:
256,194,208462,1,8,0:0:0:0:
256,194,208549,1,0,0:0:0:0:
256,194,208637,1,0,0:0:0:0:
256,194,208725,1,8,0:0:0:0:
256,194,208901,1,0,0:0:0:0:
256,194,208988,1,8,0:0:0:0:
256,194,209251,1,8,0:0:0:0:
256,194,209339,1,8,0:0:0:0:
256,194,209427,1,0,0:0:0:0:
256,194,209514,1,8,0:0:0:0:
256,194,209602,1,0,0:0:0:0:
256,194,209690,1,0,0:0:0:0:
256,194,209778,1,8,0:0:0:0:
256,194,210040,1,8,0:0:0:0:
256,194,210106,1,8,0:0:0:0:
256,194,210172,1,0,0:0:0:0:
256,194,210238,1,0,0:0:0:0:
256,194,210304,1,8,0:0:0:0:
256,194,210435,1,0,0:0:0:0:
256,194,210501,1,0,0:0:0:0:
256,194,210567,1,8,0:0:0:0:
256,194,210698,1,0,0:0:0:0:
256,194,210830,1,8,0:0:0:0:
256,194,210896,1,8,0:0:0:0:
256,194,210961,1,0,0:0:0:0:
256,194,211027,1,0,0:0:0:0:
256,194,211093,1,8,0:0:0:0:
256,194,211356,1,8,0:0:0:0:
256,194,211444,1,8,0:0:0:0:
256,194,211531,1,0,0:0:0:0:
256,194,211619,1,0,0:0:0:0:
256,194,211707,1,0,0:0:0:0:
256,194,211794,1,0,0:0:0:0:
256,194,211882,1,8,0:0:0:0:
256,194,212145,1,8,0:0:0:0:
256,194,212233,1,0,0:0:0:0:
256,194,212321,1,0,0:0:0:0:
256,194,212408,1,8,0:0:0:0:
256,194,212584,1,0,0:0:0:0:
256,194,212672,1,8,0:0:0:0:
256,194,212759,1,0,0:0:0:0:
256,194,212847,1,0,0:0:0:0:
256,194,212935,1,8,0:0:0:0:
256,194,213110,1,0,0:0:0:0:
256,194,213198,1,8,0:0:0:0:
256,194,213461,1,8,0:0:0:0:
256,194,213549,1,8,0:0:0:0:
256,194,213637,1,0,0:0:0:0:
256,194,213724,1,8,0:0:0:0:
256,194,213812,1,0,0:0:0:0:
256,194,213900,1,0,0:0:0:0:
256,194,213988,1,8,0:0:0:0:
256,194,214251,1,8,0:0:0:0:
256,194,214382,1,0,0:0:0:0:
256,194,214448,1,0,0:0:0:0:
256,194,214514,1,8,0:0:0:0:
256,194,214645,1,8,0:0:0:0:
256,194,214777,1,0,0:0:0:0:
256,194,214843,1,0,0:0:0:0:
256,194,214909,1,8,0:0:0:0:
256,194,214974,1,8,0:0:0:0:
256,194,215040,1,0,0:0:0:0:
256,194,215172,1,8,0:0:0:0:
256,194,215303,1,4,0:0:0:0:
