osu file format v14

[General]
AudioFilename: 02_22_kocham_cie.ogg
AudioLeadIn: 0
PreviewTime: 131742
Countdown: 0
SampleSet: Soft
StackLeniency: 0.9
Mode: 0
LetterboxInBreaks: 0
WidescreenStoryboard: 1

[Editor]
DistanceSpacing: 0.9
BeatDivisor: 4
GridSize: 16
TimelineZoom: 5.400003

[Metadata]
Title:Faint Heart
TitleUnicode:Faint Heart
Artist:The Birthday Party
ArtistUnicode:The Birthday Party
Creator:app
Version:audi's Insane
Source:
Tags:the boys next door hee haw noise avant-garde musique concrète concrete postpunk post punk rock post-punk nick cave english squishi audinor zglock nik nikolomara allein aishiteiru-
BeatmapID:3926451
BeatmapSetID:1900177

[Difficulty]
HPDrainRate:5
CircleSize:4.2
OverallDifficulty:8
ApproachRate:8.7
SliderMultiplier:1.7
SliderTickRate:1

[Events]
//Background and Video events
0,0,"photo_019.jpg",0,0
//Break Periods
2,46737,50704
2,100533,103228
//Storyboard Layer 0 (Background)
//Storyboard Layer 1 (Fail)
//Storyboard Layer 2 (Pass)
//Storyboard Layer 3 (Foreground)
//Storyboard Layer 4 (Overlay)
//Storyboard Sound Samples

[TimingPoints]
9483,293.542074363992,4,2,1,65,1,0
9923,293.398533007335,4,2,1,65,1,0
10216,286.259541984733,4,2,1,70,1,0
10645,289.855072463768,4,2,1,70,1,0
10789,289.855072463768,4,2,1,70,1,0
11514,309.278350515464,4,2,1,70,1,0
11823,295.566502463054,4,2,1,70,1,0
12266,303.030303030303,4,2,1,70,1,0
12872,288.461538461538,4,2,1,70,1,0
13160,295.566502463054,4,2,1,70,1,0
13898,326.086956521739,4,2,1,70,1,0
14224,270.27027027027,4,2,1,70,1,0
14359,314.13612565445,4,2,1,70,1,0
14673,294.840294840295,4,2,1,70,1,0
14673,-76.9230769230769,4,2,1,70,0,0
15852,442.477876106195,4,2,1,70,1,0
16294,295.420974889217,4,2,1,65,1,0
16737,341.102899374645,4,2,1,65,1,0
16737,-76.9230769230769,4,2,1,65,0,0
16992,-76.9230769230769,4,2,1,5,0,0
17078,263.157894736842,4,2,1,70,1,0
17341,298.507462686567,4,2,1,70,1,0
17639,309.278350515464,4,2,1,70,1,0
17948,297.397769516729,4,2,1,70,1,0
18245,280.373831775701,4,2,1,70,1,0
18525,318.13361611877,4,2,1,70,1,0
18684,297.397769516729,4,2,1,70,1,0
19130,297.397769516729,4,2,1,70,1,0
19278,335.195530726257,4,2,1,70,1,0
19445,295.420974889217,4,2,1,70,1,0
20331,297.029702970297,4,2,1,70,1,0
20925,276.243093922652,4,2,1,70,1,0
21063,333.333333333333,4,2,1,70,1,0
21396,277.777777777778,4,2,1,70,1,0
21534,303.490136570561,4,2,1,70,1,0
21837,295.566502463054,4,2,1,70,1,0
21837,-66.6666666666667,4,2,1,70,0,0
23019,324.324324324324,4,2,1,70,1,0
23505,423.131170662905,4,2,1,65,1,0
23928,318.13361611877,4,2,1,65,1,0
23928,-50,4,2,1,70,0,0
24246,294.117647058824,4,2,1,70,1,0
25863,340.909090909091,4,2,1,70,1,0
26033,306.122448979592,4,2,1,70,1,0
26033,-83.3333333333333,4,2,1,70,0,0
26339,-100,4,2,1,70,0,0
26645,306.122448979592,4,2,1,70,1,0
26645,-66.6666666666667,4,2,1,70,0,0
27563,280.767430978007,4,2,1,70,1,0
27703,303.030303030303,4,2,1,70,1,0
28006,295.566502463054,4,2,1,65,1,0
28153,295.566502463054,4,2,1,65,1,0
28153,-100,4,2,1,65,0,0
28300,323.014804845222,4,2,1,65,1,0
28623,280.373831775701,4,2,1,65,1,0
28903,359.281437125749,4,2,1,65,1,0
29082,303.413400758534,4,2,1,70,1,0
29082,-83.3333333333333,4,2,1,70,0,0
30447,301.507537688442,4,2,1,70,1,0
30447,-83.3333333333333,4,2,1,70,0,0
30597,301.507537688442,4,2,1,70,1,0
30898,-83.3333333333333,4,2,1,70,0,0
31351,346.820809248555,4,2,1,70,1,0
31524,297.029702970297,4,2,1,70,1,0
31524,-66.6666666666667,4,2,1,70,0,0
32563,366.300366300366,4,2,1,70,1,0
32746,337.078651685393,4,2,1,70,1,0
33083,363.967242948135,4,2,1,65,1,0
33629,303.030303030303,4,2,1,70,1,0
33629,-50,4,2,1,70,0,0
33932,300,4,2,1,70,1,0
33932,-83.3333333333333,4,2,1,70,0,0
35582,315.789473684211,4,2,1,70,1,0
35582,-74.0740740740741,4,2,1,70,0,0
35897,295.566502463054,4,2,1,70,1,0
36044,327.153762268266,4,2,1,70,1,0
36371,303.030303030303,4,2,1,70,1,0
36371,-66.6666666666667,4,2,1,70,0,0
37886,-66.6666666666667,4,2,1,65,0,0
38037,-100,4,2,1,65,0,0
38188,-100,4,2,1,70,0,0
38340,-100,4,2,1,65,0,0
38492,314.13612565445,4,2,1,65,1,0
38806,303.030303030303,4,2,1,65,1,0
38806,-83.3333333333333,4,2,1,70,0,0
40472,329.67032967033,4,2,1,70,1,0
40801,300,4,2,1,70,1,0
40951,300,4,2,1,70,1,0
40951,-83.3333333333333,4,2,1,70,0,0
41251,303.030303030303,4,2,1,70,1,0
41251,-55.5555555555556,4,2,1,70,0,0
42160,307.692307692308,4,2,1,70,1,0
42160,-83.3333333333333,4,2,1,70,0,0
43390,-55.5555555555556,4,2,1,70,0,0
44160,282.220131702728,4,2,1,70,1,0
44301,307.692307692308,4,2,1,70,1,0
44301,-83.3333333333333,4,2,1,70,0,0
45531,-55.5555555555556,4,2,1,70,0,0
46301,319.148936170213,4,2,1,70,1,0
46460,311.364815775817,4,2,1,65,1,0
46536,-100,4,2,1,33,0,0
47394,301.507537688442,4,2,1,65,1,0
47695,301.507537688442,4,2,1,65,1,0
49203,306.122448979592,4,2,1,65,1,0
50121,306.122448979592,4,2,1,65,1,0
50580,338.983050847458,4,2,1,65,1,0
50918,246.913580246914,4,2,1,65,1,0
51041,307.692307692308,4,2,1,65,1,0
51349,300.375469336671,4,2,1,70,1,0
51349,-71.4285714285714,4,2,1,70,0,0
52400,317.460317460317,4,2,1,70,1,0
52559,300,4,2,1,70,1,0
53159,187.5,4,2,1,65,1,0
53206,248.85939444214,4,2,1,65,1,0
53454,315.789473684211,4,2,1,70,1,0
53454,-50,4,2,1,70,0,0
53769,307.692307692308,4,2,1,70,1,0
53769,-83.3333333333333,4,2,1,70,0,0
56230,-66.6666666666667,4,2,1,70,0,0
56538,292.682926829268,4,2,1,70,1,0
56538,-62.5,4,2,1,70,0,0
57416,301.507537688442,4,2,1,70,1,0
57717,277.520814061055,4,2,1,70,1,0
57855,356.083086053412,4,2,1,70,1,0
58033,293.757649938801,4,2,1,70,1,0
58620,309.278350515464,4,2,1,70,1,0
58620,-80,4,2,1,70,0,0
59083,-66.6666666666667,4,2,1,70,0,0
60011,289.156626506024,4,2,1,70,1,0
60300,317.628374801482,4,2,1,70,1,0
60456,-76.9230769230769,4,2,1,70,0,0
61094,297.029702970297,4,2,1,70,1,0
61094,-60.6060606060606,4,2,1,70,0,0
61985,308.483290488432,4,2,1,70,1,0
62294,315.789473684211,4,2,1,70,1,0
62767,309.757356737223,4,2,1,70,1,0
62921,309.757356737223,4,2,1,70,1,0
63231,303.030303030303,4,2,1,70,1,0
63534,292.682926829268,4,2,1,70,1,0
63534,-83.3333333333333,4,2,1,70,0,0
63973,307.692307692308,4,2,1,70,1,0
64126,307.692307692308,4,2,1,70,1,0
64126,-83.3333333333333,4,2,1,70,0,0
64741,307.692307692308,4,2,1,70,1,0
64741,-83.3333333333333,4,2,1,70,0,0
65973,298.507462686567,4,2,1,70,1,0
65973,-62.5,4,2,1,70,0,0
66570,303.030303030303,4,2,1,70,1,0
66570,-62.5,4,2,1,70,0,0
66873,306.122448979592,4,2,1,70,1,0
67332,283.018867924528,4,2,1,65,1,0
67473,306.122448979592,4,2,1,65,1,0
67626,318.471337579618,4,2,1,65,1,0
67944,266.903914590747,4,2,1,65,1,0
68077,320,4,2,1,65,1,0
68397,301.507537688442,4,2,1,65,1,0
68397,-83.3333333333333,4,2,1,70,0,0
69000,310.55900621118,4,2,1,70,1,0
69000,-83.3333333333333,4,2,1,70,0,0
69621,289.855072463768,4,2,1,70,1,0
70055,322.58064516129,4,2,1,70,1,0
70055,-83.3333333333333,4,2,1,70,0,0
70538,303.030303030303,4,2,1,70,1,0
70538,-83.3333333333333,4,2,1,70,0,0
70841,308.08729139923,4,2,1,70,1,0
70841,-58.8235294117647,4,2,1,70,0,0
71611,268.336314847943,4,2,1,70,1,0
71745,310.880829015544,4,2,1,70,1,0
71745,-83.3333333333333,4,2,1,70,0,0
72988,-58.8235294117647,4,2,1,70,0,0
73299,297.029702970297,4,2,1,70,1,0
73299,-58.8235294117647,4,2,1,70,0,0
73744,323.275862068966,4,2,1,70,1,0
73905,294.117647058824,4,2,1,70,1,0
73905,-83.3333333333333,4,2,1,70,0,0
74199,310.880829015544,4,2,1,70,1,0
74820,-83.3333333333333,4,2,1,70,0,0
75131,309.278350515464,4,2,1,70,1,0
75131,-55.5555555555556,4,2,1,70,0,0
75440,283.018867924528,4,2,1,70,1,0
75440,-55.5555555555556,4,2,1,70,0,0
75723,327.510917030568,4,2,1,70,1,0
75723,-55.5555555555556,4,2,1,70,0,0
76050,300,4,2,1,70,1,0
76125,-100,4,2,1,35,0,0
76350,322.58064516129,4,2,1,70,1,0
76672,338.218714768884,4,2,1,70,1,0
76841,235.294117647059,4,2,1,60,1,0
76958,234.375,4,2,1,60,1,0
76958,-100,4,2,1,60,0,0
77309,297.029702970297,4,2,1,60,1,0
77606,319.659030367608,4,2,1,60,1,0
77925,-100,4,2,1,60,0,1
78085,420.462508759636,4,2,1,55,1,1
78295,257.510729613734,4,2,1,55,1,1
78552,298.656047784968,4,2,1,55,1,1
79447,314.13612565445,4,2,1,50,1,1
80546,304.568527918782,4,2,1,40,1,0
80622,-100,4,2,1,30,0,0
80660,336.134453781513,4,2,1,30,1,0
80996,338.983050847458,4,2,1,30,1,0
81334,293.542074363992,4,2,1,30,1,0
81921,276.115968706857,4,2,1,30,1,0
82059,384.615384615385,4,2,1,30,1,0
82251,327.868852459016,4,2,1,30,1,0
82414,345.224395857307,4,2,1,30,1,0
82414,-76.9230769230769,4,2,1,30,0,0
82759,310.880829015544,4,2,1,30,1,0
83069,310.077519379845,4,2,1,30,1,0
83379,352.941176470588,4,2,1,30,1,0
83996,400,4,2,1,30,1,0
84396,377.358490566038,4,2,1,30,1,0
84679,414.651002073255,4,2,1,30,1,0
85093,315.789473684211,4,2,1,30,1,0
85724,304.568527918782,4,2,1,30,1,0
86180,-133.333333333333,4,2,1,30,0,0
86485,324.324324324324,4,2,1,30,1,0
86809,368.098159509202,4,2,1,30,1,0
86901,287.081339712919,4,2,1,30,1,0
87618,326.530612244898,4,2,1,40,1,0
88271,337.078651685393,4,2,1,30,1,0
88776,393.44262295082,4,2,1,30,1,0
88972,352.941176470588,4,2,1,30,1,0
88972,-101.010101010101,4,2,1,30,0,0
89016,386.473429951691,4,2,1,30,1,0
89402,275.229357798165,4,2,1,30,1,0
89470,398.671096345515,4,2,1,30,1,0
89669,422.684043677351,4,2,1,30,1,0
89880,276.81660899654,4,2,1,30,1,0
90295,329.670329670329,4,2,1,30,1,0
90789,256.739409499359,4,2,1,25,1,0
91238,264.31718061674,4,2,1,30,1,0
91238,-66.6666666666667,4,2,1,30,0,0
91502,306.122448979592,4,2,1,30,1,0
91502,-333.333333333333,4,2,1,30,0,0
92114,303.030303030303,4,2,1,40,1,0
92720,275.229357798165,4,2,1,40,1,0
92995,279.06976744186,4,2,1,40,1,0
93274,276.497695852535,4,2,1,50,1,0
93458,252.100840336134,4,2,1,40,1,0
93542,279.06976744186,4,2,1,40,1,0
93635,276.752767527675,4,2,1,40,1,0
93635,-200,4,2,1,40,0,0
94050,250,4,2,1,40,1,0
94050,-100,4,2,1,40,0,0
94550,456.968773800457,4,2,1,40,1,0
94778,282.352941176471,4,2,1,30,1,0
94989,243.90243902439,4,2,1,20,1,0
95232,410.116199589884,4,2,1,15,1,0
95642,449.101796407186,4,2,1,30,1,0
95866,318.809776833156,4,2,1,30,1,0
96105,444.444444444444,4,2,1,15,1,0
96142,-100,4,2,1,30,0,0
96327,-100,4,2,1,15,0,0
96364,-100,4,2,1,30,0,0
96549,296.296296296296,4,2,1,30,1,0
96549,-200,4,2,1,30,0,0
96845,307.692307692308,4,2,1,30,1,0
96845,-66.6666666666667,4,2,1,30,0,0
97255,-66.6666666666667,4,2,1,20,0,0
97461,-66.6666666666667,4,2,1,25,0,0
97691,315.789473684211,4,2,1,30,1,0
98164,332.042058660764,4,2,1,30,1,0
98413,480,4,2,1,30,1,0
98653,-100,4,2,1,25,0,0
100093,240,4,2,1,30,1,0
100333,282.752120640905,4,2,1,30,1,0
100615,303.183425972714,4,2,1,30,1,0
100842,476.190476190476,4,2,1,30,1,0
101556,491.803278688525,4,2,1,15,1,0
101801,480,4,2,1,15,1,0
102041,465.116279069767,4,2,1,13,1,0
102971,465.116279069767,4,2,1,13,1,0
103668,316.622691292876,4,2,1,15,1,0
103826,282.352941176471,4,2,1,40,1,0
103873,218.181818181818,4,2,1,50,1,1
103982,307.692307692308,4,2,1,45,1,1
104366,307.692307692308,4,2,1,45,1,1
104827,319.148936170213,4,2,1,45,1,1
104986,338.983050847458,4,2,1,45,1,1
105070,253.164556962025,4,2,1,45,1,1
105133,337.078651685393,4,2,1,45,1,1
105301,319.148936170213,4,2,1,45,1,1
105620,281.69014084507,4,2,1,45,1,1
105690,382.165605095541,4,2,1,45,1,1
105785,329.67032967033,4,2,1,45,1,1
105867,255.31914893617,4,2,1,45,1,1
105994,330.396475770925,4,2,1,45,1,1
106365,380.469245402663,4,2,1,50,1,1
106555,300,4,2,1,45,1,1
106555,-133.333333333333,4,2,1,45,0,1
106855,-133.333333333333,4,2,1,45,0,0
107155,-133.333333333333,4,2,1,40,0,0
107530,352.941176470588,4,2,1,30,1,0
107882,361.663652802893,4,2,1,30,1,0
108334,352.941176470588,4,2,1,30,1,0
108686,-100,4,2,1,30,0,0
108744,-100,4,2,1,35,0,0
108804,301.053687907677,4,2,1,40,1,0
109105,300,4,2,1,30,1,0
109105,-250,4,2,1,30,0,0
109180,-250,4,2,2,5,0,0
110305,297.029702970297,4,2,1,30,1,0
111196,337.078651685393,4,2,1,30,1,0
111280,333.333333333333,4,2,1,30,1,0
111613,468.75,4,2,1,30,1,0
111730,281.69014084507,4,2,1,30,1,0
112011,216.138328530259,4,2,1,30,1,0
112119,375,4,2,1,30,1,0
113056,317.460317460317,4,2,1,30,1,0
113135,275.229357798165,4,2,1,30,1,0
113410,156.657963446475,4,2,1,30,1,0
113449,436.046511627907,4,2,1,30,1,0
113667,368.098159509202,4,2,1,30,1,0
113667,-88.8888888888889,4,2,1,30,0,0
114035,263.157894736842,4,2,1,30,1,0
114232,-100,4,2,1,5,0,0
114298,315.789473684211,4,2,1,30,1,0
114298,-98.0392156862745,4,2,1,30,0,0
114534,342.857142857143,4,2,1,30,1,0
114791,345.821325648415,4,2,1,30,1,0
114964,432.432432432432,4,2,1,30,1,0
115396,472.44094488189,4,2,1,30,1,0
115868,413.793103448276,4,2,1,30,1,0
116488,472.44094488189,4,2,1,30,1,0
117669,454.89006823351,4,2,1,20,1,0
118351,432.900432900433,4,2,1,20,1,0
118567,472.44094488189,4,2,1,20,1,0
119275,512.820512820513,4,2,1,20,1,0
119531,350.877192982456,4,2,1,30,1,0
119794,428.571428571429,4,2,1,30,1,0
119794,-66.6666666666667,4,2,1,30,0,0
120008,304.568527918782,4,2,1,30,1,0
120845,412.087912087912,4,2,1,30,1,0
120948,333.333333333333,4,2,1,30,1,0
121114,397.350993377483,4,2,1,30,1,0
121213,333.333333333333,4,2,1,30,1,0
121296,252.312867956266,4,2,1,30,1,0
121359,310.23784901758,4,2,1,30,1,0
121669,266.666666666667,4,2,1,30,1,0
122069,392.156862745098,4,2,1,30,1,0
122167,306.122448979592,4,2,1,30,1,0
122779,-97.0873786407767,4,2,1,30,0,0
123085,235.525024533857,4,2,1,30,1,0
123320,316.122233930453,4,2,1,30,1,0
123320,-55.5555555555556,4,2,1,30,0,0
123873,-50,4,2,1,30,0,0
123952,361.44578313253,4,2,1,30,1,0
124313,230.769230769231,4,2,1,30,1,0
124428,352.941176470588,4,2,1,30,1,0
124957,314.13612565445,4,2,1,30,1,0
125428,408.163265306122,4,2,1,30,1,0
125632,451.127819548872,4,2,1,40,1,0
125632,-50,4,2,1,40,0,0
125857,408.163265306122,4,2,1,40,1,0
126469,372.43947858473,4,2,1,40,1,0
126562,508.474576271186,4,2,1,30,1,0
127197,435.413642960813,4,2,1,30,1,0
127632,376.411543287327,4,2,1,30,1,0
127632,-88.6524822695036,4,2,1,30,0,0
127679,375,4,2,1,30,1,0
128429,300,4,2,1,35,1,0
128579,-100,4,2,1,40,0,0
129329,355.029585798817,4,2,1,30,1,0
130217,508.474576271186,4,2,1,30,1,0
132250,244.897959183673,4,2,1,20,1,0
132556,231.660231660232,4,2,1,25,1,0
132787,-100,4,2,1,30,0,0
133019,279.06976744186,4,2,1,30,1,0
133158,400,4,2,1,30,1,0
133208,273.972602739726,4,2,1,30,1,0
133756,327.868852459016,4,2,1,30,1,0
133920,352.941176470588,4,2,1,30,1,0
134096,483.870967741935,4,2,1,30,1,0
134579,400,4,2,1,30,1,0
135179,258.620689655172,4,2,1,20,1,0
135308,352.941176470588,4,2,1,30,1,0
135837,-100,4,2,1,20,0,0
135881,-100,4,2,1,30,0,0
136455,400,4,2,1,30,1,0
136505,-100,4,2,1,30,0,0
137055,355.029585798817,4,2,1,30,1,0
137232,279.06976744186,4,2,1,30,1,0
137511,279.06976744186,4,2,1,30,1,0
137511,-133.333333333333,4,2,1,30,0,0
137790,306.122448979592,4,2,1,30,1,0
138096,283.687943262411,4,2,1,30,1,0
138379,-133.333333333333,4,2,1,30,0,0
138805,451.127819548872,4,2,1,30,1,0
138805,-133.333333333333,4,2,1,30,0,0
139256,375,4,2,1,30,1,0
139631,338.983050847458,4,2,1,30,1,0
139969,300,4,2,1,30,1,0
140269,243.90243902439,4,2,1,30,1,0
140512,224.719101123595,4,2,1,30,1,0
140736,214.285714285714,4,2,1,30,1,0
140950,215.827338129496,4,2,1,30,1,0
141381,307.692307692308,4,2,1,30,1,0
141688,451.127819548872,4,2,1,30,1,0
142138,454.545454545455,4,2,1,30,1,0
142365,387.096774193548,4,2,1,30,1,0
142558,268.456375838926,4,2,1,30,1,0
142692,410.958904109589,4,2,1,30,1,0
142897,331.491712707182,4,2,1,30,1,0
143394,285.035629453682,4,2,1,30,1,0
143679,292.682926829268,4,2,1,65,1,0
143971,335.195530726257,4,2,1,65,1,0
144138,284.36018957346,4,2,1,70,1,0
144138,-83.3333333333333,4,2,1,70,0,0
144991,304.568527918782,4,2,1,70,1,0
145295,270.27027027027,4,2,1,70,1,0
145565,336.134453781513,4,2,1,70,1,0
145733,292.682926829268,4,2,1,70,1,0
145733,-83.3333333333333,4,2,1,70,0,0
146318,316.122233930453,4,2,1,70,1,0
146476,294.117647058824,4,2,1,70,1,0
146476,-80.6451612903226,4,2,1,70,0,0
146623,276.497695852535,4,2,1,70,1,0
146761,309.119010819165,4,2,1,70,1,0
147070,277.777777777778,4,2,1,70,1,0
147347,300,4,2,1,70,1,0
147647,307.692307692308,4,2,1,70,1,0
147801,275.229357798165,4,2,1,70,1,0
148076,300,4,2,1,70,1,0
148076,-83.3333333333333,4,2,1,70,0,0
148676,335.195530726257,4,2,1,70,1,0
148843,280.373831775701,4,2,1,70,1,0
149123,298.507462686567,4,2,1,70,1,0
149123,-83.3333333333333,4,2,1,70,0,0
149720,294.117647058824,4,2,1,70,1,0
149720,-83.3333333333333,4,2,1,70,0,0
150308,279.06976744186,4,2,1,70,1,0
150447,300,4,2,1,70,1,0
150447,-83.3333333333333,4,2,1,70,0,0
150897,300,4,2,1,70,1,0
150897,-83.3333333333333,4,2,1,70,0,0
151197,270.27027027027,4,2,1,70,1,0
151332,344.827586206897,4,2,1,70,1,0
151504,300,4,2,1,70,1,0
151504,-83.3333333333333,4,2,1,70,0,0
151954,263.157894736842,4,2,1,70,1,0
152085,285.442435775452,4,2,1,70,1,0
152085,-83.3333333333333,4,2,1,70,0,0
152370,285.714285714286,4,2,1,70,1,0
152370,-66.6666666666667,4,2,1,70,0,0
153441,384.615384615385,4,2,1,70,1,0
153537,300,4,2,1,70,1,1
153537,-76.9230769230769,4,2,1,70,0,1
153762,-76.9230769230769,4,2,1,70,0,0
154737,304.568527918782,4,2,1,70,1,0
154737,-80,4,2,1,70,0,0
155041,295.420974889217,4,2,1,70,1,0
155187,-76.9230769230769,4,2,1,70,0,0
155927,297.029702970297,4,2,1,70,1,0
155927,-62.5,4,2,1,70,0,0
157040,331.12582781457,4,2,1,70,1,0
157123,294.117647058824,4,2,1,70,1,0
158299,304.568527918782,4,2,1,70,1,0
158299,-76.9230769230769,4,2,1,70,0,0
159212,294.117647058824,4,2,1,70,1,0
159212,-76.9230769230769,4,2,1,70,0,0
159947,324.324324324324,4,2,1,70,1,0
160109,-76.9230769230769,4,2,1,70,0,0
160271,292.397660818713,4,2,1,70,1,0
160414,-76.9230769230769,4,2,1,70,0,0
160709,300,4,2,1,70,1,0
160709,-58.8235294117647,4,2,1,70,0,0
161759,359.281437125748,4,2,1,70,1,0
161938,480,4,2,1,70,1,0
162178,298.879202988792,4,2,1,70,1,0
162178,-250,4,2,1,70,0,0
162626,436.046511627907,4,2,1,70,1,0
162844,332.225913621262,4,2,1,70,1,0
163176,275.229357798165,4,2,1,70,1,0
163176,-76.9230769230769,4,2,1,70,0,0
163451,300,4,2,1,70,1,0
163451,-76.9230769230769,4,2,1,70,0,0
164351,300,4,2,1,70,1,0
164351,-76.9230769230769,4,2,1,70,0,0
164801,306.591722023505,4,2,1,70,1,0
164801,-76.9230769230769,4,2,1,70,0,0
165567,293.040293040293,4,2,1,70,1,0
165567,-55.5555555555556,4,2,1,70,0,0
166592,340.909090909091,4,2,1,70,1,0
166762,288.461538461538,4,2,1,70,1,0
167050,-100,4,2,1,65,0,0
167194,312.5,4,2,1,65,1,0
167506,300.751879699248,4,2,1,65,1,0
167653,-100,4,2,1,65,0,0
167957,298.953662182362,4,2,1,70,1,0
167957,-76.9230769230769,4,2,1,70,0,0
169601,320.855614973262,4,2,1,70,1,0
169601,-76.9230769230769,4,2,1,70,0,0
170082,-100,4,2,1,70,0,0
170242,488.599348534202,4,2,1,70,1,0
170364,309.278350515464,4,2,1,70,1,0
170364,-66.6666666666667,4,2,1,70,0,0
171291,309.278350515464,4,2,1,70,1,0
172064,298.507462686567,4,2,1,70,1,0
172213,312.5,4,2,1,70,1,0
172525,304.568527918782,4,2,1,70,1,0
172525,-62.5,4,2,1,70,0,0
173438,303.79746835443,4,2,1,70,1,0
174653,-50,4,2,1,70,0,0
175676,333.333333333333,4,2,1,70,1,1
175676,-58.8235294117647,4,2,1,70,0,1
176342,-47.6190476190476,4,2,1,5,0,0

[Colours]
Combo1 : 122,117,80
Combo2 : 142,43,43
Combo3 : 93,93,93
Combo4 : 83,64,55

[HitObjects]
55,21,9483,6,0,L|59:83,1,42.5,8|0,0:0|2:0,2:0:0:0:
131,122,9629,1,8,0:0:0:0:
131,122,9776,1,8,0:0:0:0:
20,288,9923,6,0,B|66:298|96:276|96:276|102:329|143:355,1,170.580833333333,6|10,1:2|0:0,0:0:0:0:
139,352,10501,1,2,1:2:0:0:
200,242,10645,1,2,1:2:0:0:
282,299,10789,2,0,P|289:227|289:174,1,85,10|0,0:0|0:0,0:0:0:0:
390,380,11079,6,0,L|439:371,1,42.5,2|0,1:2|2:0,2:0:0:0:
467,361,11224,1,2,0:0:0:0:
419,197,11369,1,10,0:0:0:0:
378,285,11514,2,0,B|427:293|427:293|466:274,1,85,2|0,1:2|2:0,0:0:0:0:
486,105,11823,1,2,1:2:0:0:
409,45,11970,2,0,P|362:52|318:82,1,85,10|2,0:0|0:0,2:0:0:0:
153,38,12266,6,0,B|114:120|206:106|158:222,2,170,2|10|2,1:2|0:0|1:2,0:0:0:0:
192,26,12944,1,0,0:0:0:0:
192,26,13016,1,0,1:2:0:0:
48,90,13160,2,0,P|106:110|164:135,1,85,10|0,0:0|0:0,0:0:0:0:
248,220,13455,5,2,1:2:0:0:
216,299,13603,2,0,P|215:357|216:368,1,42.5,2|0,0:0|2:0,2:0:0:0:
234,380,13751,1,10,0:0:0:0:
344,290,13898,2,0,P|413:308|449:329,1,85,2|0,1:2|2:0,0:0:0:0:
466,181,14224,5,2,1:2:0:0:
381,197,14359,1,10,0:0:0:0:
376,182,14516,1,2,0:0:0:0:
504,61,14673,6,0,P|413:10|273:64,3,221,12|12|12|12,1:2|1:2|1:2|1:2,0:0:0:0:
160,295,15852,5,8,0:0:0:0:
160,295,16737,2,0,B|129:256|129:256|152:127,1,165.75,10|0,0:0|0:0,0:0:0:0:
135,120,17078,2,0,P|190:150|224:157,1,85,6|0,1:2|2:0,0:0:0:0:
428,41,17341,2,0,P|342:-1|286:62,1,170,10|2,0:0|1:2,0:0:0:0:
343,156,17793,1,2,1:2:0:0:
408,205,17948,2,0,P|382:246|344:219,1,85,10|0,0:0|0:0,0:0:0:0:
279,344,18245,5,2,1:2:0:0:
196,363,18385,2,0,L|192:317,1,42.5,2|0,0:0|2:0,2:0:0:0:
188,281,18525,1,10,0:0:0:0:
52,319,18684,6,0,P|70:214|144:208,1,170,2|2,1:2|1:2,0:0:0:0:
203,118,19130,1,10,0:0:0:0:
114,68,19278,1,2,0:0:0:0:
268,187,19445,6,0,B|306:207|306:207|342:177|395:165,1,127.5,2|0,1:2|2:0,2:0:0:0:
401,182,19740,2,0,P|403:243|408:293,1,85,10|0,0:0|0:0,0:0:0:0:
474,73,20035,6,0,L|408:64,1,42.5,2|0,1:2|2:0,0:0:0:0:
374,13,20182,1,2,1:2:0:0:
292,93,20331,2,0,P|242:102|181:124,1,85,10|0,0:0|0:0,0:0:0:0:
65,156,20628,6,0,B|42:193|42:193|57:256,1,85,2|2,1:2|0:0,2:0:0:0:
98,207,20850,1,0,2:0:0:0:
98,207,20925,1,10,0:0:0:0:
22,349,21063,2,0,P|91:335|142:338,1,85,2|0,1:2|2:0,0:0:0:0:
243,382,21396,6,0,L|256:329,1,42.5,2|0,1:2|2:0,0:0:0:0:
344,275,21534,1,10,0:0:0:0:
267,221,21685,1,2,0:0:0:0:
414,368,21837,6,0,B|416:296|473:264|473:264|416:206|444:90,3,255,12|12|12|12,1:2|1:2|1:2|1:2,0:0:0:0:
128,220,23019,5,10,0:0:0:0:
128,220,23928,6,0,L|116:292,1,42.5,8|8,0:0|0:0,0:0:0:0:
215,198,24246,6,0,P|146:134|58:163,1,170,6|10,1:2|0:0,0:0:0:0:
242,302,24687,1,2,0:0:0:0:
185,360,24834,2,0,P|242:382|314:336,1,127.5,2|0,1:2|2:0,0:0:0:0:
326,349,25128,2,0,P|394:372|427:374,1,85,10|2,0:0|0:0,2:0:0:0:
475,218,25422,6,0,P|428:160|357:186,1,127.5,2|2,1:2|0:0,0:0:0:0:
358,182,25716,1,8,2:0:0:0:
289,117,25863,1,2,1:2:0:0:
189,192,26033,6,0,B|136:242|89:205|41:289,1,153,2|0,0:0|2:0,0:0:0:0:
48,272,26339,2,0,P|29:199|15:162,1,85,10|0,0:0|0:0,0:0:0:0:
176,323,26645,6,0,B|406:373|406:373|479:375,3,255,14|14|14|12,1:2|1:2|1:2|1:2,0:0:0:0:
356,63,27854,1,0,1:0:0:0:
287,108,28153,5,8,0:0:0:0:
282,101,28300,2,0,P|273:171|273:220,1,85,0|0,1:0|2:0,0:0:0:0:
370,162,28623,5,2,1:2:0:0:
238,273,28763,1,10,0:0:0:0:
174,172,28903,1,2,0:0:0:0:
280,303,29082,6,0,B|330:329|361:303|431:303|464:386,1,204,2|8,1:2|0:0,0:0:0:0:
189,174,29537,6,0,B|141:204|148:244|113:304|25:291,1,204,2|0,0:0|1:0,0:0:0:0:
355,163,29992,6,0,P|371:109|402:154,1,102,10|0,0:0|0:0,0:0:0:0:
246,13,30296,5,0,1:0:0:0:
246,13,30447,2,0,B|180:78|146:5|139:118|21:106,1,204,2|2,0:0|1:2,2:0:0:0:
255,234,30898,2,0,P|271:294|271:363,1,102,0|0,0:0|1:0,2:0:0:0:
171,367,31200,1,10,0:0:0:0:
124,280,31351,1,2,1:2:0:0:
322,125,31524,6,0,P|360:255|367:392,3,255,14|14|12|12,1:2|1:2|1:2|1:2,0:0:0:0:
6,189,32746,5,8,0:0:0:0:
96,157,33629,6,0,L|100:221,1,42.5,8|8,0:0|0:0,0:0:0:0:
33,88,33932,6,0,P|102:66|192:134,1,153,6|0,1:2|2:0,0:0:0:0:
183,119,34232,2,0,P|241:97|299:100,1,102,10|2,0:0|0:0,2:0:0:0:
425,214,34532,2,0,B|351:221|351:221|295:236|295:236|217:243,1,204,2|10,1:2|0:0,0:0:0:0:
223,242,34982,1,0,0:0:0:0:
118,344,35132,6,0,P|46:357|-9:354,1,102,2|2,1:2|0:0,2:0:0:0:
169,138,35432,1,10,0:0:0:0:
334,332,35582,2,0,B|344:250|431:187|432:186|373:110|385:77,1,229.500000875473,2|0,1:2|1:0,0:0:0:0:
327,52,36044,1,8,0:0:0:0:
245,23,36207,1,0,0:0:0:0:
83,94,36371,6,0,B|56:207|273:199|191:346,3,255,12|14|12|14,1:2|1:2|1:2|1:2,0:0:0:0:
465,104,37583,5,0,1:0:0:0:
380,138,37886,5,8,0:0:0:0:
443,195,38037,2,0,P|442:288|437:313,1,85,0|0,1:0|2:0,0:0:0:0:
358,165,38340,1,0,1:0:0:0:
273,138,38492,2,0,P|210:125|143:168,1,127.5,10|0,0:0|2:0,2:0:0:0:
160,160,38806,2,0,B|115:156|83:140|83:140|129:303,1,204,2|8,1:2|0:0,0:0:0:0:
224,349,39260,1,0,2:0:0:0:
146,379,39412,2,0,P|81:379|33:368,1,102,2|0,1:2|1:0,2:0:0:0:
262,269,39715,1,10,0:0:0:0:
356,368,39866,2,0,B|347:296|451:280|405:168,1,204,2|0,1:2|2:0,2:0:0:0:
340,106,40321,5,8,0:0:0:0:
237,163,40472,2,0,P|178:176|126:178,1,85,0|0,1:0|2:0,0:0:0:0:
183,90,40801,1,0,1:0:0:0:
53,108,40951,2,0,B|37:142|22:153|22:153|6:187|32:256,1,153,8|0,0:0|0:0,0:0:0:0:
27,262,41251,6,0,P|195:280|236:287,1,153,14|0,1:2|1:0,0:0:0:0:
305,54,41554,6,0,P|205:190|178:222,1,153,14|0,1:2|1:0,0:0:0:0:
348,384,41857,6,0,P|279:229|265:190,1,153,14|2,1:2|1:2,0:0:0:0:
225,236,42160,6,0,B|301:279|311:193|380:173|453:228,1,204,6|8,1:2|0:0,0:0:0:0:
505,309,42621,2,0,P|497:210|503:84,1,204,0|2,0:0|1:2,2:0:0:0:
436,22,43083,1,10,0:0:0:0:
380,88,43236,1,0,0:0:0:0:
284,24,43390,6,0,B|245:15|216:22|216:22|208:23|208:23|205:27|205:27|182:39|149:113,1,153,14|0,1:2|1:0,0:0:0:0:
227,299,43698,6,0,B|254:269|262:241|262:241|265:233|265:233|263:229|263:229|265:203|217:137,1,153,14|0,1:2|1:0,0:0:0:0:
4,123,44006,6,0,B|51:181|51:181|148:195,1,153,14|2,1:2|1:2,0:0:0:0:
146,182,44230,1,0,2:0:0:0:
167,153,44301,6,0,P|113:217|100:369,1,204,6|8,1:2|0:0,0:0:0:0:
165,362,44762,2,0,B|244:316|293:397|387:331,1,204,0|0,0:0|1:0,0:0:0:0:
440,302,45224,2,0,P|452:216|463:179,1,102,10|0,0:0|2:0,0:0:0:0:
418,62,45531,6,0,B|375:91|346:78|346:78|337:117|263:137,1,153,14|0,1:2|1:0,0:0:0:0:
57,43,45839,6,0,B|103:65|106:97|106:97|145:85|199:139,1,153,14|0,1:2|1:0,0:0:0:0:
216,364,46147,6,0,L|228:192,1,153,14|0,1:2|1:0,0:0:0:0:
246,15,46460,6,0,L|241:67,1,42.5,6|0,1:2|0:0,0:0:0:0:
74,58,51349,6,0,L|63:196,1,119,12|0,1:2|1:0,0:0:0:0:
160,137,51649,6,0,L|171:275,1,119,12|0,1:2|1:0,0:0:0:0:
265,121,51949,6,0,L|254:259,1,119,12|0,1:2|1:0,0:0:0:0:
351,200,52250,6,0,L|362:338,1,119,12|0,1:2|1:0,0:0:0:0:
443,268,52559,5,10,0:0:0:0:
105,344,53454,6,0,L|77:376,1,42.5,8|8,0:0|0:0,0:0:0:0:
36,272,53769,6,0,P|132:267|220:384,1,204,6|10,1:2|0:0,0:0:0:0:
48,183,54230,1,2,0:0:0:0:
57,107,54384,2,0,P|104:62|181:108,1,153,2|0,1:2|2:0,0:0:0:0:
180,108,54692,2,0,P|235:93|299:97,1,102,8|0,0:0|2:0,0:0:0:0:
423,333,54999,6,0,B|406:244|324:261|317:149,1,204,2|8,1:2|0:0,0:0:0:0:
405,123,55461,2,0,P|396:186|384:211,1,51,2|0,1:2|2:0,0:0:0:0:
238,286,55615,2,0,P|234:211|249:175,1,102,0|0,0:0|1:0,2:0:0:0:
297,352,55922,1,8,0:0:0:0:
202,377,56076,1,0,0:0:0:0:
62,318,56230,6,0,B|70:230|70:230|97:206|97:206|105:95,1,191.25,14|0,1:2|2:0,0:0:0:0:
87,113,56538,6,0,B|176:75|234:152|368:55,2,272,14|14|14,1:2|1:2|1:2,0:0:0:0:
395,269,57416,5,0,1:2:0:0:
456,203,57717,5,8,0:0:0:0:
456,203,57855,1,0,1:0:0:0:
366,180,58033,2,0,P|318:194|261:212,1,85,0|2,0:0|1:2,2:0:0:0:
272,328,58325,2,0,P|283:279|296:221,1,85,10|2,0:0|0:0,2:0:0:0:
176,116,58620,6,0,B|117:176|66:119|62:215|5:244,1,212.5,2|8,1:2|0:0,0:0:0:0:
185,14,59083,6,0,B|209:46|255:33|251:106|339:103,1,127.5,2|0,0:0|1:0,0:0:0:0:
68,169,59393,6,0,B|83:132|49:98|114:65|68:-8,1,127.5,0|8,1:0|0:0,2:0:0:0:
253,206,59702,1,0,2:0:0:0:
168,267,59857,6,0,P|160:334|162:352,1,63.75,2|0,1:2|0:0,0:0:0:0:
206,308,60011,1,0,1:0:0:0:
264,362,60155,1,8,0:0:0:0:
347,275,60300,1,2,1:2:0:0:
373,294,60458,6,0,B|378:248|378:248|394:232|394:232|398:177,1,110.5,0|0,2:0|1:0,2:0:0:0:
222,21,60776,2,0,B|217:67|217:67|201:83|201:83|197:138,1,110.5,10|0,0:0|0:0,0:0:0:0:
298,103,61094,6,0,B|251:225|136:78|141:209|26:251,3,280.5,14|14|12|14,1:2|1:2|1:2|1:2,0:0:0:0:
407,364,62294,5,10,0:0:0:0:
426,266,63231,5,8,0:0:0:0:
148,376,63534,6,0,B|160:296|241:274|226:168,1,204,6|10,1:2|0:0,0:0:0:0:
67,84,63973,1,2,0:0:0:0:
11,165,64126,2,0,B|64:138|83:204|112:123|167:140,1,153,2|0,1:2|2:0,0:0:0:0:
165,130,64434,2,0,P|197:71|225:34,1,102,8|0,0:0|0:0,0:0:0:0:
405,67,64742,5,2,1:2:0:0:
341,127,64894,2,0,B|363:143|391:147|391:147|358:190|374:275,1,153,0|0,2:0|2:0,2:0:0:0:
377,253,65202,2,0,B|251:248|289:403|185:366,1,204,2|0,1:2|1:0,0:0:0:0:
62,331,65663,1,10,0:0:0:0:
62,331,65973,6,0,B|54:234|54:234|90:161|90:161|82:44,1,272,14|14,1:2|1:2,0:0:0:0:
397,39,66570,6,0,B|405:136|405:136|369:209|369:209|377:326,1,272,12|12,1:2|1:2,0:0:0:0:
377,300,67179,6,0,P|296:303|261:319,1,85,0|0,1:0|1:0,2:0:0:0:
214,372,67473,1,8,0:0:0:0:
149,280,67626,2,0,B|132:202|195:196|176:101,1,170,0|0,1:0|1:0,2:0:0:0:
5,81,68077,2,0,P|66:112|107:114,1,85,10|0,0:0|2:0,2:0:0:0:
236,37,68397,6,0,B|285:57|330:44|330:44|321:109|325:175,1,204,2|8,1:2|0:0,0:0:0:0:
431,274,68849,2,0,L|376:281,1,51,0|0,2:0|2:0,2:0:0:0:
256,353,69000,2,0,P|335:363|420:380,1,152.999995330811,2|0,1:2|2:0,2:0:0:0:
416,381,69310,1,10,0:0:0:0:
416,381,69465,1,2,0:0:0:0:
430,187,69621,5,2,1:2:0:0:
411,267,69765,1,0,2:0:0:0:
316,243,69910,1,8,0:0:0:0:
328,157,70055,2,0,B|390:71|390:71|488:93,1,204,0|0,1:0|1:0,0:0:0:0:
255,94,70538,2,0,P|178:99|119:113,1,101.999996887207,8|0,0:0|0:0,2:0:0:0:
70,26,70841,6,0,B|41:54|34:99|34:99|68:209,1,144.5,14|0,1:2|1:0,0:0:0:0:
297,320,71149,6,0,B|287:280|251:252|251:252|139:226,1,144.5,14|0,1:2|1:0,0:0:0:0:
12,384,71457,6,0,L|91:251,1,144.5,14|2,1:2|1:2,0:0:0:0:
185,77,71745,6,0,P|284:62|406:90,2,204,6|8|0,1:2|0:0|1:0,0:0:0:0:
340,160,72522,1,0,1:1:0:0:
429,156,72677,2,0,P|448:241|449:291,1,102,10|0,0:0|0:0,0:0:0:0:
251,368,72988,6,0,B|286:344|299:317|299:317|336:317|386:341,1,144.5,14|0,1:2|1:0,0:0:0:0:
213,131,73299,6,0,B|174:112|144:114|144:114|126:82|123:28,1,144.5,14|0,1:2|1:0,0:0:0:0:
41,265,73596,6,0,B|44:307|61:332|61:332|42:364|-2:393,1,144.5,14|2,1:2|1:2,0:0:0:0:
181,244,73905,6,0,P|270:232|317:99,1,204,6|8,1:2|0:0,0:0:0:0:
296,66,74354,1,0,0:0:0:0:
428,128,74509,5,0,1:0:0:0:
462,205,74665,1,0,1:0:0:0:
412,265,74820,2,0,P|406:338|408:377,1,102,10|0,0:0|0:0,2:0:0:0:
313,58,75131,6,0,B|283:30|246:25|246:25|220:65|115:51,1,153,14|0,1:2|1:0,0:0:0:0:
135,311,75440,6,0,B|174:299|197:269|197:269|175:226|240:143,1,153,14|2,1:2|1:2,2:0:0:0:
0,22,75723,6,0,B|-9:61|4:96|4:96|52:99|92:196,1,152.999995330811,14|0,1:2|1:0,0:0:0:0:
151,132,76050,6,0,P|151:108|146:79,1,42.5,6|0,1:2|2:0,2:0:0:0:
15,312,76511,6,0,P|15:273|24:209,1,85,0|0,1:0|1:0,2:0:0:0:
85,371,76841,1,0,1:0:0:0:
85,371,76958,1,8,0:0:0:0:
211,279,77309,6,0,P|276:291|321:298,1,85,0|0,1:0|2:0,2:0:0:0:
382,270,77606,1,8,0:0:0:0:
205,137,77925,6,0,B|207:114|207:114|226:137,1,42.5,2|0,2:0|2:0,2:0:0:0:
74,319,78295,2,0,B|53:310|53:310|90:302,1,42.5,8|0,0:0|2:0,2:0:0:0:
385,165,78850,6,0,B|401:149|401:149|400:185,2,42.5,2|0|8,2:0|2:0|0:0,2:0:0:0:
288,363,79447,1,0,1:0:0:0:
181,82,80546,6,0,L|176:133,1,42.5,10|8,0:0|0:0,0:0:0:0:
172,122,80660,6,0,P|254:142|370:30,1,255,0|0,1:0|2:0,2:0:0:0:
455,123,81334,2,0,L|450:174,1,42.5,0|0,1:0|2:0,0:0:0:0:
343,198,81990,2,0,B|337:222|337:222|348:249,1,42.5,0|2,1:0|0:0,2:0:0:0:
351,182,82414,6,0,P|319:142|205:124,1,165.749992412568,0|0,1:0|2:0,2:0:0:0:
195,129,82759,2,0,L|198:182,1,42.5,2|0,0:0|2:0,0:0:0:0:
307,368,83069,6,0,P|314:311|306:262,1,85,2|2,0:0|0:0,0:0:0:0:
290,384,83379,6,0,P|283:327|291:278,1,85,2|2,0:0|1:2,0:0:0:0:
317,227,83996,6,0,B|251:217|209:190|209:190|198:230|177:254,1,170,0|0,1:0|0:0,2:0:0:0:
47,292,84679,2,0,P|21:271|63:265,1,85,2|2,1:2|2:0,0:0:0:0:
46,166,85093,2,0,P|120:143|239:85,1,170,2|0,0:0|2:0,0:0:0:0:
213,23,85566,2,0,P|159:38|117:75,1,85.5383333333333,2|2,0:0|0:0,2:0:0:0:
281,175,85876,2,0,P|295:120|283:65,1,85,2|2,0:0|0:0,2:0:0:0:
198,202,86180,6,0,L|202:282,1,63.7500000000002,2|2,0:0|0:0,0:0:0:0:
359,314,86485,6,0,B|339:319|339:319|370:294,1,42.5,2|0,1:2|2:0,2:0:0:0:
251,323,86647,2,0,P|253:370|219:384,1,85.0000000000002,0|0,2:0|2:0,2:0:0:0:
211,382,86901,2,0,B|142:334|66:402|-28:131|146:75,1,425,2|2,1:2|1:2,0:0:0:0:
148,68,88271,6,2,L|339:103,1,170,2|2,0:1|0:1,0:1:0:0:
317,90,88776,2,0,L|327:148,1,42.5,0|2,2:0|0:1,2:0:0:0:
386,241,88972,2,0,B|402:216|432:198|432:198|392:202|340:233,1,159.375006079674,2|0,1:0|2:0,0:0:0:0:
278,327,89402,6,0,L|232:339,1,42.5,2|0,0:1|2:0,0:0:0:0:
209,344,89669,2,0,B|166:306|192:290|191:274,1,63.75,0|0,1:0|2:0,2:0:0:0:
205,258,89880,1,0,1:0:0:0:
87,122,90295,6,0,B|61:121|61:121|76:146,1,42.5,0|0,1:0|2:0,2:0:0:0:
248,57,90789,5,0,0:0:0:0:
204,129,91045,2,0,P|259:143|299:122,1,85,2|0,0:0|2:0,2:0:0:0:
313,116,91238,6,2,B|319:203|435:171|431:282,1,191.250007295609,4|0,0:0|2:0,0:1:0:0:
451,280,91502,2,0,P|443:300|456:332,1,51.0000000000001,0|0,0:0|2:0,2:0:0:0:
341,371,92114,6,0,L|275:363,1,56.6666666666667,8|8,0:0|0:0,2:0:0:0:
283,336,92316,6,0,L|217:328,1,56.6666666666667,8|4,3:0|3:0,2:0:0:0:
249,346,92518,6,0,L|183:338,1,56.6666666666667,8|10,0:0|0:0,2:0:0:0:
103,301,92720,6,0,P|107:250|79:217,1,56.6666666666667,8|8,0:0|0:0,2:0:0:0:
123,202,92903,6,0,P|119:151|147:118,1,57.2843333333334,4|8,3:0|0:0,2:0:0:0:
246,111,93088,5,8,0:0:0:0:
246,111,93181,5,4,3:0:0:0:
246,111,93274,6,0,L|275:193,1,56.6666666666667,8|8,3:0|0:0,2:0:0:0:
343,199,93458,5,4,3:0:0:0:
343,199,93542,5,8,0:0:0:0:
362,221,93635,6,0,L|357:313,1,85,12|2,0:0|2:0,2:0:0:0:
343,333,94050,2,0,P|302:332|226:383,2,127.5,0|0|0,0:0|0:0|0:0,2:0:0:0:
42,175,94989,5,0,0:0:0:0:
27,167,95232,2,0,B|77:157|96:229|201:163,1,170,0|0,0:0|1:0,2:0:0:0:
289,69,95866,1,0,1:0:0:0:
377,150,96105,6,0,L|374:174,1,14.1666666666667,0|0,0:0|2:0,2:0:0:0:
397,158,96327,6,0,L|394:182,1,14.1666666666667,0|0,0:0|2:0,2:0:0:0:
334,253,96549,6,0,P|363:280|369:253,1,63.7500000000002,0|0,1:0|2:0,2:0:0:0:
324,247,96845,2,0,B|232:262|152:263|152:263|203:286|273:337,1,255,2|0,0:0|2:0,0:0:0:0:
242,348,97255,1,0,0:0:0:0:
42,349,97461,1,0,1:0:0:0:
42,349,97691,6,0,P|47:262|89:70,1,255,2|0,1:2|1:0,0:0:0:0:
184,17,98412,1,2,0:0:0:0:
276,47,98653,6,0,L|272:166,3,85,0|0|0|0,0:0|0:0|0:0|0:0,2:0:0:0:
219,201,99613,1,0,0:0:0:0:
242,244,99853,1,2,0:0:0:0:
168,348,100093,5,0,1:0:0:0:
334,376,100333,1,2,1:2:0:0:
378,52,103873,5,4,1:2:0:0:
296,25,103982,6,0,L|302:95,1,42.5,8|8,0:3|0:3,2:0:0:0:
239,72,104135,2,0,L|266:119,1,42.5,6|8,0:3|0:0,2:0:0:0:
217,145,104289,2,0,L|291:183,1,42.5,8|6,0:0|1:2,2:0:0:0:
245,216,104442,2,0,L|308:205,1,42.5,8|10,3:0|0:3,2:0:0:0:
283,274,104596,2,0,L|251:342,1,42.5,4|10,0:3|0:0,2:0:0:0:
339,314,104750,2,0,L|377:364,1,42.5,8|6,0:0|1:2,2:0:0:0:
405,268,104906,2,0,L|352:291,1,42.5,8|10,3:0|0:3,2:0:0:0:
365,213,105070,2,0,L|338:174,1,42.5,4|10,3:0|0:0,2:0:0:0:
304,173,105217,2,0,L|222:191,1,42.5,8|6,0:0|1:2,2:0:0:0:
229,191,105380,2,0,L|147:173,1,42.5,8|10,0:3|0:3,2:0:0:0:
200,126,105540,2,0,L|142:93,1,42.5,6|10,3:0|0:0,2:0:0:0:
240,73,105690,2,0,B|286:96,1,42.5,10|6,0:0|1:2,2:0:0:0:
319,46,105867,5,2,0:1:0:0:
436,90,105994,2,0,B|427:87|427:87|431:100,1,21.25,6|0,1:0|0:0,0:0:0:0:
283,169,106159,2,0,L|316:175,1,21.25,6|0,1:0|2:0,0:0:0:0:
169,67,106365,2,2,L|102:59,1,42.5,2|8,1:0|0:0,0:1:0:0:
92,86,106555,6,2,B|26:200|148:189|115:329,1,255.000000000001,12|2,1:2|0:0,0:1:0:0:
56,302,108686,2,0,L|50:266,2,28.3333333333333,0|0|8,1:0|1:0|0:0,2:0:0:0:
77,327,109105,6,0,P|155:293|340:298,1,272,12|2,1:2|0:0,0:0:0:0:
443,356,111280,6,0,L|452:321,1,21.25,2|0,1:2|2:0,2:0:0:0:
398,266,112011,6,0,L|407:231,1,21.25,2|0,1:2|2:0,2:0:0:0:
175,321,113449,6,0,L|212:316,1,21.25,0|0,1:0|2:0,2:0:0:0:
289,339,113667,2,0,B|183:368|260:190|1:276,1,293.749913333333,0|0,1:0|0:0,2:0:0:0:
8,253,114298,2,0,B|-20:201|16:121,1,130.050000793762,0|2,1:0|0:0,2:0:0:0:
0,54,114791,6,2,B|131:33|150:40|-43:93|-121:126|109:80|223:87|-19:174|106:174|144:140,1,297.5,0|0,0:0|0:0,0:1:0:0:
241,204,115632,1,0,0:0:0:0:
230,89,115868,6,0,B|212:100|212:100|185:95,1,42.5,0|0,1:0|0:0,2:0:0:0:
277,83,116074,2,0,B|259:72|259:72|232:77,1,42.5,0|0,0:0|0:0,2:0:0:0:
323,90,116281,2,0,B|305:101|305:101|278:96,1,42.5,0|2,0:0|0:0,2:0:0:0:
361,75,116488,6,0,P|270:193|260:386,1,340,0|0,1:0|0:0,2:0:0:0:
344,277,117669,2,0,L|436:276,3,85
366,244,118567,2,0,L|458:243,3,85
419,157,119531,6,0,P|403:149|383:164,1,42.5,4|8,1:2|0:0,0:0:0:0:
259,176,119794,6,0,L|274:96,1,63.75,14|0,0:0|2:0,0:0:0:0:
92,219,120008,2,2,B|112:244|112:244|138:237,5,42.5,12|8|8|8|8|8,1:2|0:0|0:0|0:0|3:0|0:0,0:1:0:0:
139,280,120464,2,0,B|159:255|159:255|185:262,5,42.5,12|4|8|8|8|8,1:2|3:0|0:0|3:0|0:0|0:0,0:0:0:0:
177,263,120948,6,0,L|183:332,2,42.5,4|0|2,1:0|2:0|1:2,0:0:0:0:
205,329,121213,2,0,L|256:321,1,42.5,6|8,1:2|1:2,0:0:0:0:
261,348,121359,6,0,L|246:312,1,21.25,10|2,0:0|0:0,0:0:0:0:
438,157,121669,2,0,B|420:182|406:185|367:118|451:75,1,127.5,4|8,1:2|0:0,0:0:0:0:
178,23,122167,6,0,B|286:-9|286:-9|272:39,1,141.666666666667,12|4,1:2|3:0,0:0:0:0:
190,139,122600,5,4,3:0:0:0:
273,212,122779,6,0,B|283:233|323:268|179:375|74:260|181:195|96:192,1,276.25,4|0,3:0|2:0,0:0:0:0:
98,206,123320,6,0,B|176:208|69:273|174:388|335:286|307:248|275:244|279:215|308:189,1,305.999990661621,6|0,1:2|0:0,0:0:0:0:
469,240,123873,6,0,L|422:252,2,42.5,0|0|4,2:0|2:0|1:2,2:0:0:0:
426,91,124132,2,0,B|436:112|436:112|417:108,1,42.5,10|0,0:0|2:0,0:0:0:0:
381,120,124313,6,0,L|346:125,1,21.25,4|0,1:2|2:0,2:0:0:0:
309,67,124428,2,0,B|272:26|272:26|246:189|246:189|205:117|205:117|182:240|182:240|171:208,1,456.875,2|0,0:0|2:0,0:0:0:0:
156,244,125428,2,0,L|147:301,1,42.5,8|8,0:0|0:0,2:0:0:0:
341,363,125632,6,0,L|432:340,1,85,6|0,1:2|2:0,0:0:0:0:
171,363,126060,2,0,L|80:340,1,85,6|0,1:2|2:0,0:0:0:0:
373,170,126562,1,4,0:0:0:0:
373,170,126816,6,0,L|370:212,1,42.5,0|0,0:0|2:0,0:0:0:0:
435,158,127559,6,0,B|429:152|427:164|419:157|419:160,1,14.1666666666667,2|0,2:0|2:0,2:0:0:0:
465,137,127632,2,0,B|403:111|390:241|309:136|216:210|139:68|325:9,1,406.215007685953,2|0,0:0|1:0,0:0:0:0:
376,35,128579,1,10,0:0:0:0:
256,192,128654,12,0,130217,2:0:0:0:
231,50,131996,6,0,L|197:44,1,21.25,0|0,2:0|2:0,2:0:0:0:
253,45,132250,2,0,L|252:66,1,21.25,2|0,1:2|2:0,2:0:0:0:
103,195,132787,6,0,B|135:78|224:172,1,170,0|0,1:0|1:0,2:0:0:0:
337,217,133208,6,0,P|351:275|360:315,2,85,2|2|2,1:2|1:2|1:2,0:0:0:0:
392,323,133619,2,0,P|298:355|281:365,1,85,2|0,1:2|0:0,0:0:0:0:
102,299,134096,6,0,B|113:305|113:305|111:322,1,21.25,0|0,1:0|2:0,2:0:0:0:
17,229,134337,6,0,B|6:235|6:235|-7:225,1,21.25,0|0,1:0|2:0,2:0:0:0:
121,184,134579,6,0,B|153:143|179:24|244:-31|285:56,1,255,0|2,2:0|0:0,2:0:0:0:
269,80,135308,6,0,B|268:96|268:96|260:81,1,21.25,4|0,1:2|2:0,0:0:0:0:
400,41,135572,6,0,L|428:31,1,21.25,0|0,2:0|2:0,2:0:0:0:
358,203,135837,2,0,L|351:177,3,21.25,2|0|0|0,0:0|2:0|2:0|2:0,2:0:0:0:
473,379,136455,2,0,L|482:347,1,21.25,2|0,0:0|2:0,0:0:0:0:
276,326,136855,5,2,1:2:0:0:
229,332,137055,1,0,1:0:0:0:
142,373,137232,5,2,0:0:0:0:
78,309,137511,2,0,P|79:269|87:223,2,63.7500000000002,2|2|2,0:0|0:0|0:0,2:0:0:0:
42,97,138096,6,0,P|87:87|141:86,1,85,2|2,1:2|2:0,2:0:0:0:
143,69,138379,2,0,P|183:60|231:59,1,63.7500000000002,2|2,2:0|2:0,2:0:0:0:
308,99,138805,6,0,L|297:267,1,127.5,0|0,1:2|1:2,2:0:0:0:
378,320,139631,1,2,1:2:0:0:
281,359,139969,1,0,1:2:0:0:
205,300,140269,2,0,L|150:306,1,42.5,0|0,1:2|2:0,2:0:0:0:
76,350,140512,2,0,L|24:365,1,42.5,2|0,1:2|2:0,2:0:0:0:
16,289,140736,2,0,L|37:238,1,42.5,0|0,1:2|2:0,2:0:0:0:
101,202,140950,2,0,L|84:153,1,42.5,2|0,1:2|2:0,2:0:0:0:
38,122,141165,2,0,L|45:74,1,42.5,0|0,1:2|2:0,2:0:0:0:
74,58,141381,2,0,L|116:77,1,42.5,0|0,1:2|2:0,2:0:0:0:
193,207,141688,6,0,P|205:80|268:59,1,169.623166666667,2|0,1:2|1:2,2:0:0:0:
351,113,142365,2,0,L|345:69,1,42.5,0|0,1:0|2:0,2:0:0:0:
291,180,142692,2,0,L|352:205,1,42.5,0|0,1:2|2:0,2:0:0:0:
361,232,142897,6,0,P|375:290|376:319,2,85,2|2|2,0:0|0:0|0:0,0:0:0:0:
419,211,143394,1,2,0:0:0:0:
248,381,143679,5,8,0:0:0:0:
168,374,143825,1,8,0:0:0:0:
123,279,143971,1,8,0:0:0:0:
196,192,144138,2,0,B|186:268|69:268|62:375,1,204,6|10,1:2|0:0,0:0:0:0:
191,3,144706,5,2,1:2:0:0:
117,119,144848,2,0,P|131:67|138:52,1,50.9999984436036,2|0,1:2|2:0,2:0:0:0:
282,56,144991,2,0,P|242:79|164:94,1,85,10|0,0:0|0:0,0:0:0:0:
303,194,145295,5,2,1:2:0:0:
374,231,145430,2,0,P|450:244|488:249,1,85,2|10,0:0|0:0,2:0:0:0:
277,308,145733,2,0,B|192:282|207:368|76:360,1,204,2|2,1:2|1:2,0:0:0:0:
20,280,146172,1,10,0:0:0:0:
84,222,146318,1,2,0:0:0:0:
15,156,146476,6,0,P|32:80|153:40,1,203.641633774414,2|10,1:2|0:0,2:0:0:0:
140,36,146915,2,0,P|131:81|123:137,1,85,0|2,0:0|1:2,0:0:0:0:
96,146,147139,1,0,0:0:0:0:
96,146,147208,1,2,1:2:0:0:
223,185,147347,2,0,P|232:123|241:78,1,85,10|0,0:0|2:0,0:0:0:0:
330,221,147647,5,2,1:2:0:0:
272,285,147801,2,0,L|217:278,1,42.5,2|0,0:0|2:0,2:0:0:0:
201,273,147938,1,10,0:0:0:0:
322,381,148076,2,0,B|388:370|411:326|411:326|402:272|434:225,1,204,2|2,1:2|1:2,0:0:0:0:
478,166,148526,1,10,0:0:0:0:
440,99,148676,1,2,0:0:0:0:
345,27,148843,5,2,1:2:0:0:
270,82,148983,1,0,1:0:0:0:
192,22,149123,2,0,B|126:27|73:62|112:172,1,204,10|2,0:0|1:2,0:0:0:0:
222,268,149570,1,2,1:2:0:0:
170,334,149720,2,0,P|108:319|63:305,1,102,8|0,0:0|0:0,0:0:0:0:
244,188,150014,5,2,1:2:0:0:
329,248,150161,2,0,L|385:239,1,51,0|0,0:0|2:0,2:0:0:0:
395,238,150308,1,10,0:0:0:0:
448,349,150447,6,0,B|388:257|497:233|432:135,1,204,2|0,1:2|1:2,0:0:0:0:
378,89,150897,2,0,P|295:76|247:84,1,102,10|0,0:0|0:0,0:0:0:0:
159,132,151197,5,2,1:2:0:0:
78,152,151332,1,0,1:0:0:0:
28,80,151504,2,0,P|101:142|97:264,1,203.999993774414,10|2,0:0|1:2,0:0:0:0:
97,281,151954,1,2,1:2:0:0:
263,381,152085,2,0,P|316:357|435:384,1,153.715695330811,10|8,0:0|0:0,0:0:0:0:
441,380,152370,6,0,L|446:311,1,63.75,4|8,1:3|0:0,2:0:0:0:
447,295,152513,2,0,L|451:225,1,63.75,8|8,0:0|0:0,2:0:0:0:
453,212,152656,2,0,L|457:142,1,63.75,8|8,1:3|0:0,2:0:0:0:
460,125,152799,2,0,L|413:72,1,63.75,8|8,0:0|0:0,2:0:0:0:
385,67,152941,2,0,L|314:63,1,63.75,8|8,1:3|0:0,2:0:0:0:
288,60,153084,2,0,L|217:56,1,63.75,8|8,0:0|0:0,2:0:0:0:
196,56,153227,2,0,L|125:52,1,63.75,4|8,1:3|0:0,2:0:0:0:
109,51,153370,2,0,L|38:47,1,63.75,8|8,0:0|0:0,2:0:0:0:
16,45,153537,6,0,B|-32:135|101:160|103:278,1,221,6|8,1:2|0:0,0:0:0:0:
76,264,153987,1,2,0:0:0:0:
281,378,154137,6,0,B|371:367|371:367|406:265,1,165.75,2|0,1:2|2:0,2:0:0:0:
391,286,154437,2,0,P|410:359|439:380,1,110.5,8|0,0:0|2:0,0:0:0:0:
490,159,154737,6,0,B|463:139|420:114|375:143,1,106.25,2|0,1:2|0:0,2:0:0:0:
262,212,155041,1,8,0:0:0:0:
270,244,155114,1,0,0:0:0:0:
252,271,155188,2,0,B|265:172|218:45|131:121,1,221,2|2,1:2|1:2,0:0:0:0:
94,152,155631,1,8,0:0:0:0:
94,152,155779,1,0,0:0:0:0:
43,20,155927,6,0,B|143:29|191:2|191:2|220:28|319:35,3,272,14|12|14|14,1:2|1:2|1:2|1:2,0:0:0:0:
419,326,157123,5,2,1:2:0:0:
359,255,157417,1,10,0:0:0:0:
359,255,157564,2,0,P|290:248|192:281,1,170,2|2,1:0|1:2,2:0:0:0:
136,340,158005,2,0,P|76:323|31:299,1,85,8|0,0:0|2:0,0:0:0:0:
5,200,158299,6,0,B|-3:114|80:68|185:132,1,221,2|8,1:2|0:0,0:0:0:0:
254,108,158755,2,0,P|240:34|232:24,1,55.25,2|0,0:0|2:0,0:0:0:0:
278,123,158908,2,0,P|353:110|415:26,1,165.75,0|0,1:0|1:0,2:0:0:0:
422,41,159212,2,0,P|425:132|460:237,1,165.75,10|0,0:0|0:0,0:0:0:0:
458,216,159506,6,0,P|438:277|444:307,1,55.25,0|2,1:0|0:0,0:0:0:0:
436,349,159653,2,0,B|395:304|367:396|270:298|215:335,1,220.999989883423,2|2,0:0|1:2,0:0:0:0:
80,377,160109,2,0,B|77:344|165:310|124:267|95:271,1,110.499994941712,0|0,2:0|1:0,2:0:0:0:
109,258,160344,1,0,0:0:0:0:
111,234,160417,2,0,B|57:190|169:129|157:19|131:50,1,165.75,10|0,0:0|2:0,2:0:0:0:
132,64,160709,6,0,B|251:113|251:113|259:101|259:101|271:112|271:112|422:28,3,289,12|12|12|14,1:2|1:2|1:2|1:2,0:0:0:0:
443,358,161938,5,8,0:0:0:0:
380,283,162178,2,0,L|247:302,1,126.285714285714,2|0,0:0|2:0,0:0:0:0:
235,318,162844,2,0,B|215:275|268:265|296:218|258:170,1,127.5,8|0,0:0|2:0,0:0:0:0:
271,185,163176,6,0,B|215:177|156:238|79:186|76:100,1,221,6|10,1:2|0:0,0:0:0:0:
111,49,163601,1,2,0:0:0:0:
257,2,163751,2,0,B|351:16|309:86|430:138|455:36,1,221,2|8,1:2|0:0,0:0:0:0:
441,67,164201,1,0,0:0:0:0:
373,174,164351,5,2,1:2:0:0:
373,174,164501,2,0,B|359:195|341:216|341:216|352:278|376:370,1,165.75,2|0,0:0|2:0,0:0:0:0:
368,338,164801,2,0,B|280:253|232:350|166:271,1,221,2|0,1:2|1:0,0:0:0:0:
91,360,165260,2,0,P|41:368|57:319,1,110.5,8|0,0:0|0:0,0:0:0:0:
249,189,165567,6,0,L|-37:-13,3,306,14|14|14|14,1:2|1:2|1:2|1:2,0:0:0:0:
444,84,166762,5,2,1:2:0:0:
463,167,167050,1,8,0:0:0:0:
463,167,167194,2,0,P|364:145|317:83,1,170,0|2,1:0|1:2,2:0:0:0:
236,117,167656,2,0,B|215:136|191:147|217:177|212:216,1,85,8|0,0:0|2:0,2:0:0:0:
296,366,167957,6,0,P|219:290|107:319,2,221,6|8|2,1:2|0:0|1:2,0:0:0:0:
279,384,168704,1,0,2:0:0:0:
377,294,168853,2,0,P|386:225|382:169,1,110.5,8|2,0:0|0:0,2:0:0:0:
363,46,169152,5,0,1:0:0:0:
282,72,169301,2,0,L|226:61,1,55.25,0|0,2:0|2:0,2:0:0:0:
213,60,169451,1,8,0:0:0:0:
46,174,169601,2,0,B|154:135|195:225|282:158,1,221,0|0,1:0|1:0,0:0:0:0:
289,252,170082,2,0,P|273:321|269:365,1,85,8|0,0:0|0:0,0:0:0:0:
399,281,170364,6,0,B|452:269|445:194|456:129,1,127.5,14|0,1:2|1:0,0:0:0:0:
292,54,170673,6,0,B|255:14|194:58|132:81,1,127.5,14|0,1:2|1:0,2:0:0:0:
119,272,170982,6,0,B|103:324|172:355|222:397,1,127.5,14|2,1:2|1:2,2:0:0:0:
232,153,171291,6,0,P|136:143|70:179,2,170,6|8|0,1:2|0:0|1:0,0:0:0:0:
291,222,172064,1,2,1:2:0:0:
321,239,172213,2,0,P|386:235|444:232,1,85,8|0,0:0|2:0,0:0:0:0:
399,24,172525,6,0,B|358:20|321:43|292:75|260:58,1,136,14|0,1:2|1:0,0:0:0:0:
164,356,172829,6,0,B|188:322|187:279|173:238|204:219,1,136,14|0,1:2|1:0,0:0:0:0:
0,0,173134,6,0,B|17:38|55:58|98:67|99:103,1,136,14|2,1:2|1:2,0:0:0:0:
128,123,173362,1,2,2:0:0:0:
163,132,173438,2,0,P|101:189|62:303,1,170,6|8,1:2|0:0,0:0:0:0:
70,363,173893,2,0,B|136:338|188:378|267:336,1,170,0|0,0:0|1:0,2:0:0:0:
285,370,174348,1,10,0:0:0:0:
353,320,174500,1,0,2:0:0:0:
479,382,174653,6,0,B|496:323|459:265|405:226|452:188,1,170,14|0,1:2|1:0,0:0:0:0:
115,73,174957,6,0,B|158:117|226:114|287:87|297:147,1,170,14|0,1:2|1:0,0:0:0:0:
450,0,175260,6,0,L|356:166,1,170,14|0,1:2|1:0,0:0:0:0:
26,263,175676,6,2,B|106:379|350:400|208:300|208:300|280:239|71:241|129:250|61:283|17:337,1,578.000011024475,6|0,0:0|2:0,0:1:0:0:
