osu file format v14

[General]
AudioFilename: 02_22_kocham_cie.ogg
AudioLeadIn: 0
PreviewTime: 131742
Countdown: 0
SampleSet: Soft
StackLeniency: 0.9
Mode: 0
LetterboxInBreaks: 0
WidescreenStoryboard: 0

[Editor]
DistanceSpacing: 1.9
BeatDivisor: 4
GridSize: 16
TimelineZoom: 3.599999

[Metadata]
Title:Faint Heart
TitleUnicode:Faint Heart
Artist:The Birthday Party
ArtistUnicode:The Birthday Party
Creator:app
Version:Exorcism
Source:
Tags:the boys next door hee haw noise avant-garde musique concrète concrete postpunk post punk rock post-punk nick cave english squishi audinor zglock nik nikolomara allein aishiteiru-
BeatmapID:3916813
BeatmapSetID:1900177

[Difficulty]
HPDrainRate:6.2
CircleSize:4.2
OverallDifficulty:9.4
ApproachRate:9.7
SliderMultiplier:1.6
SliderTickRate:0.5

[Events]
//Background and Video events
0,0,"photo_019.jpg",0,0
//Break Periods
//Storyboard Layer 0 (Background)
//Storyboard Layer 1 (Fail)
//Storyboard Layer 2 (Pass)
//Storyboard Layer 3 (Foreground)
//Storyboard Layer 4 (Overlay)
//Storyboard Sound Samples

[TimingPoints]
9483,293.542074363992,4,2,1,65,1,0
9923,293.398533007335,4,2,1,65,1,0
10142,-100,4,2,1,5,0,0
10216,286.259541984733,4,2,1,70,1,0
10216,-80,4,2,1,70,0,0
10645,289.855072463768,4,2,1,70,1,0
10789,289.855072463768,4,2,1,70,1,0
10789,-80,4,2,1,70,0,0
11514,309.278350515464,4,2,1,70,1,0
11514,-80,4,2,1,70,0,0
11823,295.566502463054,4,2,1,70,1,0
12266,303.030303030303,4,2,1,70,1,0
12266,-80,4,2,1,70,0,0
12872,288.461538461538,4,2,1,70,1,0
13160,295.566502463054,4,2,1,70,1,0
13160,-80,4,2,1,70,0,0
13898,326.086956521739,4,2,1,70,1,0
13898,-80,4,2,1,70,0,0
14224,270.27027027027,4,2,1,70,1,0
14359,314.13612565445,4,2,1,70,1,0
14359,-80,4,2,1,70,0,0
14673,294.840294840295,4,2,1,70,1,0
14673,-50,4,2,1,70,0,0
15852,442.477876106195,4,2,1,70,1,0
16294,295.420974889217,4,2,1,65,1,0
16294,-133.333333333333,4,2,1,65,0,0
16737,341.102899374645,4,2,1,65,1,0
16737,-80,4,2,1,65,0,0
16992,-80,4,2,1,5,0,0
17078,263.157894736842,4,2,1,70,1,0
17275,-100,4,2,1,5,0,0
17341,298.507462686567,4,2,1,70,1,0
17341,-80,4,2,1,70,0,0
17639,309.278350515464,4,2,1,70,1,0
17948,297.397769516729,4,2,1,70,1,0
17948,-80,4,2,1,70,0,0
18245,280.373831775701,4,2,1,70,1,0
18525,318.13361611877,4,2,1,70,1,0
18684,297.397769516729,4,2,1,70,1,0
18684,-80,4,2,1,70,0,0
19130,297.397769516729,4,2,1,70,1,0
19130,-80,4,2,1,70,0,0
19278,335.195530726257,4,2,1,70,1,0
19445,295.420974889217,4,2,1,70,1,0
19740,-80,4,2,1,70,0,0
20331,297.029702970297,4,2,1,70,1,0
20331,-80,4,2,1,70,0,0
20925,276.243093922652,4,2,1,70,1,0
21063,333.333333333333,4,2,1,70,1,0
21063,-80,4,2,1,70,0,0
21313,-80,4,2,1,5,0,0
21396,277.777777777778,4,2,1,70,1,0
21396,-80,4,2,1,70,0,0
21534,303.490136570561,4,2,1,70,1,0
21837,295.566502463054,4,2,1,70,1,0
21837,-50,4,2,1,70,0,0
22945,-50,4,2,1,5,0,0
23019,324.324324324324,4,2,1,70,1,0
23181,-133.333333333333,4,2,1,65,0,0
23505,423.131170662905,4,2,1,65,1,0
23505,-200,4,2,1,65,0,0
23875,-200,4,2,1,5,0,0
23928,318.13361611877,4,2,1,65,1,0
23928,-50,4,2,1,70,0,0
24246,294.117647058824,4,2,1,70,1,0
24246,-71.4285714285714,4,2,1,70,0,0
25863,340.909090909091,4,2,1,70,1,0
26033,306.122448979592,4,2,1,70,1,0
26033,-71.4285714285714,4,2,1,70,0,0
26645,306.122448979592,4,2,1,70,1,0
26645,-50,4,2,1,70,0,0
27563,280.767430978007,4,2,1,70,1,0
27703,303.030303030303,4,2,1,70,1,0
27854,-100,4,2,1,70,0,0
28006,295.566502463054,4,2,1,65,1,0
28153,295.566502463054,4,2,1,65,1,0
28300,323.014804845222,4,2,1,65,1,0
28623,280.373831775701,4,2,1,65,1,0
28903,359.281437125749,4,2,1,65,1,0
29082,303.413400758534,4,2,1,70,1,0
29082,-71.4285714285714,4,2,1,70,0,0
30447,301.507537688442,4,2,1,70,1,0
30597,301.507537688442,4,2,1,70,1,0
30597,-71.4285714285714,4,2,1,70,0,0
31351,346.820809248555,4,2,1,70,1,0
31524,297.029702970297,4,2,1,70,1,0
31524,-50,4,2,1,70,0,0
32563,366.300366300366,4,2,1,70,1,0
32746,337.078651685393,4,2,1,70,1,0
33083,363.967242948135,4,2,1,65,1,0
33629,303.030303030303,4,2,1,70,1,0
33629,-50,4,2,1,70,0,0
33932,300,4,2,1,70,1,0
33932,-71.4285714285714,4,2,1,70,0,0
35582,315.789473684211,4,2,1,70,1,0
35582,-60.6060606060606,4,2,1,70,0,0
35897,295.566502463054,4,2,1,70,1,0
36044,327.153762268266,4,2,1,70,1,0
36044,-71.4285714285714,4,2,1,70,0,0
36371,303.030303030303,4,2,1,70,1,0
36371,-50,4,2,1,70,0,0
37583,-100,4,2,1,70,0,0
37886,-100,4,2,1,65,0,0
38037,-133.333333333333,4,2,1,65,0,0
38492,314.13612565445,4,2,1,65,1,0
38806,303.030303030303,4,2,1,65,1,0
38806,-60.6060606060606,4,2,1,70,0,0
40018,-71.4285714285714,4,2,1,70,0,0
40472,329.67032967033,4,2,1,70,1,0
40472,-71.4285714285714,4,2,1,70,0,0
40801,300,4,2,1,70,1,0
40951,300,4,2,1,70,1,0
40951,-71.4285714285714,4,2,1,70,0,0
41251,303.030303030303,4,2,1,70,1,0
41251,-50,4,2,1,70,0,0
42160,307.692307692308,4,2,1,70,1,0
42160,-50,4,2,1,70,0,0
44160,282.220131702728,4,2,1,70,1,0
44301,307.692307692308,4,2,1,70,1,0
44301,-50,4,2,1,70,0,0
44762,-60.6060606060606,4,2,1,70,0,0
45531,-50,4,2,1,70,0,0
46301,319.148936170213,4,2,1,70,1,0
46460,311.364815775817,4,2,1,65,1,0
46460,-71.4285714285714,4,2,1,65,0,0
46498,-71.4285714285714,4,2,1,33,0,0
46771,-80,4,2,1,65,0,0
47394,301.507537688442,4,2,1,65,1,0
47394,-80,4,2,1,65,0,0
47695,301.507537688442,4,2,1,65,1,0
47695,-80,4,2,1,65,0,0
49203,306.122448979592,4,2,1,65,1,0
49203,-80,4,2,1,65,0,0
50121,306.122448979592,4,2,1,65,1,0
50580,338.983050847458,4,2,1,65,1,0
50580,-66.6666666666667,4,2,1,65,0,0
50918,246.913580246914,4,2,1,65,1,0
51041,307.692307692308,4,2,1,65,1,0
51041,-80,4,2,1,65,0,0
51349,300.375469336671,4,2,1,70,1,0
51349,-50,4,2,1,70,0,0
52400,317.460317460317,4,2,1,70,1,0
52559,300,4,2,1,70,1,0
52559,-100,4,2,1,65,0,0
53159,187.5,4,2,1,65,1,0
53206,248.85939444214,4,2,1,65,1,0
53206,-133.333333333333,4,2,1,65,0,0
53391,-133.333333333333,4,2,1,5,0,0
53454,315.789473684211,4,2,1,70,1,0
53454,-50,4,2,1,70,0,0
53769,307.692307692308,4,2,1,70,1,0
53769,-71.4285714285714,4,2,1,70,0,0
54922,-71.4285714285714,4,2,1,5,0,0
54999,-71.4285714285714,4,2,1,70,0,0
56230,-50,4,2,1,70,0,0
56538,292.682926829268,4,2,1,70,1,0
56538,-50,4,2,1,70,0,0
57416,301.507537688442,4,2,1,70,1,0
57416,-50,4,2,1,70,0,0
57717,277.520814061055,4,2,1,70,1,0
57855,356.083086053412,4,2,1,70,1,0
57855,-60.6060606060606,4,2,1,70,0,0
58033,293.757649938801,4,2,1,70,1,0
58620,309.278350515464,4,2,1,70,1,0
58620,-71.4285714285714,4,2,1,70,0,0
60011,289.156626506024,4,2,1,70,1,0
60011,-71.4285714285714,4,2,1,70,0,0
60300,317.628374801482,4,2,1,70,1,0
60300,-71.4285714285714,4,2,1,70,0,0
61094,297.029702970297,4,2,1,70,1,0
61094,-50,4,2,1,70,0,0
61985,308.483290488432,4,2,1,70,1,0
62294,315.789473684211,4,2,1,70,1,0
62294,-133.333333333333,4,2,1,70,0,0
62767,309.757356737223,4,2,1,70,1,0
62921,309.757356737223,4,2,1,70,1,0
62921,-133.333333333333,4,2,1,70,0,0
63231,303.030303030303,4,2,1,70,1,0
63231,-50,4,2,1,70,0,0
63534,292.682926829268,4,2,1,70,1,0
63534,-71.4285714285714,4,2,1,70,0,0
63973,307.692307692308,4,2,1,70,1,0
64126,307.692307692308,4,2,1,70,1,0
64126,-71.4285714285714,4,2,1,70,0,0
64741,307.692307692308,4,2,1,70,1,0
64741,-71.4285714285714,4,2,1,70,0,0
65973,298.507462686567,4,2,1,70,1,0
65973,-50,4,2,1,70,0,0
66570,303.030303030303,4,2,1,70,1,0
66570,-50,4,2,1,70,0,0
66873,306.122448979592,4,2,1,70,1,0
66873,-50,4,2,1,70,0,0
67332,283.018867924528,4,2,1,65,1,0
67332,-50,4,2,1,65,0,0
67473,306.122448979592,4,2,1,65,1,0
67626,318.471337579618,4,2,1,65,1,0
67944,266.903914590747,4,2,1,65,1,0
68077,320,4,2,1,65,1,0
68397,301.507537688442,4,2,1,65,1,0
68397,-71.4285714285714,4,2,1,70,0,0
68623,-71.4285714285714,4,2,1,5,0,0
68698,-71.4285714285714,4,2,1,70,0,0
69000,310.55900621118,4,2,1,70,1,0
69310,-71.4285714285714,4,2,1,70,0,0
69621,289.855072463768,4,2,1,70,1,0
69621,-71.4285714285714,4,2,1,70,0,0
70055,322.58064516129,4,2,1,70,1,0
70055,-71.4285714285714,4,2,1,70,0,0
70538,303.030303030303,4,2,1,70,1,0
70841,308.08729139923,4,2,1,70,1,0
70841,-50,4,2,1,70,0,0
71611,268.336314847943,4,2,1,70,1,0
71745,310.880829015544,4,2,1,70,1,0
71745,-60.6060606060606,4,2,1,70,0,0
72988,-50,4,2,1,70,0,0
73299,297.029702970297,4,2,1,70,1,0
73299,-50,4,2,1,70,0,0
73744,323.275862068966,4,2,1,70,1,0
73905,294.117647058824,4,2,1,70,1,0
73905,-60.6060606060606,4,2,1,70,0,0
74199,310.880829015544,4,2,1,70,1,0
74199,-60.6060606060606,4,2,1,70,0,0
75131,309.278350515464,4,2,1,70,1,0
75131,-50,4,2,1,70,0,0
75440,283.018867924528,4,2,1,70,1,0
75440,-50,4,2,1,70,0,0
75723,327.510917030568,4,2,1,70,1,0
75723,-50,4,2,1,70,0,0
76050,300,4,2,1,70,1,0
76350,322.58064516129,4,2,1,70,1,0
76672,338.218714768884,4,2,1,70,1,0
76672,-100,4,2,1,60,0,0
76841,235.294117647059,4,2,1,60,1,0
76958,234.375,4,2,1,60,1,0
77309,297.029702970297,4,2,1,60,1,0
77606,319.659030367608,4,2,1,60,1,0
77925,-100,4,2,1,60,0,1
78085,420.462508759636,4,2,1,55,1,1
78295,257.510729613734,4,2,1,55,1,1
78552,298.656047784968,4,2,1,55,1,1
79447,314.13612565445,4,2,1,50,1,0
80546,304.568527918782,4,2,1,40,1,0
80622,-100,4,2,1,30,0,0
80660,336.134453781513,4,2,1,30,1,0
80996,338.983050847458,4,2,1,30,1,0
80996,-133.333333333333,4,2,1,30,0,0
81334,293.542074363992,4,2,1,30,1,0
81334,-200,4,2,1,30,0,0
81921,276.115968706857,4,2,1,30,1,0
82059,384.615384615385,4,2,1,30,1,0
82059,-200,4,2,1,30,0,0
82251,327.868852459016,4,2,1,30,1,0
82414,345.224395857307,4,2,1,30,1,0
82759,310.880829015544,4,2,1,30,1,0
82759,-200,4,2,1,30,0,0
83069,310.077519379845,4,2,1,30,1,0
83069,-133.333333333333,4,2,1,30,0,0
83379,352.941176470588,4,2,1,30,1,0
83996,400,4,2,1,30,1,0
84396,377.358490566038,4,2,1,30,1,0
84679,414.651002073255,4,2,1,30,1,0
85041,-133.333333333333,4,2,1,5,0,0
85093,315.789473684211,4,2,1,30,1,0
85724,304.568527918782,4,2,1,30,1,0
85724,-200,4,2,1,30,0,0
86485,324.324324324324,4,2,1,30,1,0
86809,368.098159509202,4,2,1,30,1,0
86901,287.081339712919,4,2,1,30,1,0
87618,326.530612244898,4,2,1,40,1,0
87618,-100,4,2,1,40,0,0
88271,337.078651685393,4,2,1,30,1,0
88271,-133.333333333333,4,2,1,30,0,0
88776,393.44262295082,4,2,1,30,1,0
88972,352.941176470588,4,2,1,30,1,0
88972,-133.333333333333,4,2,1,30,0,0
89016,386.473429951691,4,2,1,30,1,0
89402,275.229357798165,4,2,1,30,1,0
89470,398.671096345515,4,2,1,30,1,0
89669,422.684043677351,4,2,1,30,1,0
89880,276.81660899654,4,2,1,30,1,0
90295,329.670329670329,4,2,1,30,1,0
90789,256.739409499359,4,2,1,25,1,0
91238,264.31718061674,4,2,1,30,1,0
91238,-50,4,2,1,30,0,0
91502,306.122448979592,4,2,1,30,1,0
92114,303.030303030303,4,2,1,40,1,0
92619,-66.6666666666667,4,2,1,40,0,0
92669,-66.6666666666667,4,2,1,5,0,0
92720,275.229357798165,4,2,1,40,1,0
92995,279.06976744186,4,2,1,40,1,0
93274,276.497695852535,4,2,1,50,1,0
93366,-66.6666666666667,4,2,1,50,0,0
93412,-66.6666666666667,4,2,1,5,0,0
93458,252.100840336134,4,2,1,40,1,0
93458,-66.6666666666667,4,2,1,40,0,0
93542,279.06976744186,4,2,1,40,1,0
93635,276.752767527675,4,2,1,40,1,0
94050,250,4,2,1,40,1,0
94550,456.968773800457,4,2,1,40,1,0
94778,282.352941176471,4,2,1,30,1,0
94989,243.90243902439,4,2,1,20,1,0
95232,410.116199589884,4,2,1,15,1,0
95437,-100,4,2,1,30,0,0
95642,449.101796407186,4,2,1,30,1,0
95866,318.809776833156,4,2,1,30,1,0
96105,444.444444444444,4,2,1,15,1,0
96549,296.296296296296,4,2,1,30,1,0
96845,307.692307692308,4,2,1,30,1,0
96845,-80,4,2,1,30,0,0
97203,-80,4,2,1,20,0,0
97460,-80,4,2,1,25,0,0
97691,315.789473684211,4,2,1,30,1,0
98164,332.042058660764,4,2,1,30,1,0
98413,480,4,2,1,30,1,0
98653,-100,4,2,1,25,0,0
100093,240,4,2,1,30,1,0
100333,282.752120640905,4,2,1,30,1,0
100615,303.183425972714,4,2,1,30,1,0
100615,-200,4,2,1,30,0,0
100766,-200,4,2,1,5,0,0
100842,476.190476190476,4,2,1,30,1,0
101556,491.803278688525,4,2,1,15,1,0
101801,480,4,2,1,15,1,0
102041,465.116279069767,4,2,1,13,1,0
102971,465.116279069767,4,2,1,13,1,0
103436,-100,4,2,1,15,0,0
103668,316.622691292876,4,2,1,15,1,0
103826,282.352941176471,4,2,1,40,1,0
103826,-50,4,2,1,40,0,0
103873,218.181818181818,4,2,1,50,1,1
103982,307.692307692308,4,2,1,45,1,1
104135,-100,4,2,1,45,0,1
104366,307.692307692308,4,2,1,45,1,1
104827,319.148936170213,4,2,1,45,1,1
104986,338.983050847458,4,2,1,45,1,1
105070,253.164556962025,4,2,1,45,1,1
105133,337.078651685393,4,2,1,45,1,1
105301,319.148936170213,4,2,1,45,1,1
105620,281.69014084507,4,2,1,45,1,1
105690,382.165605095541,4,2,1,45,1,1
105785,329.67032967033,4,2,1,45,1,1
105867,255.31914893617,4,2,1,45,1,1
105867,-50,4,2,1,50,0,1
105994,330.396475770925,4,2,1,45,1,0
105994,-50,4,2,1,45,0,1
106365,380.469245402663,4,2,1,50,1,0
106365,-50,4,2,1,50,0,1
106555,300,4,2,1,45,1,0
106555,-60.6060606060606,4,2,1,45,0,1
106855,-60.6060606060606,4,2,1,45,0,0
107005,-60.6060606060606,4,2,1,40,0,0
107155,-60.6060606060606,4,2,1,40,0,0
107530,352.941176470588,4,2,1,30,1,0
107530,-60.6060606060606,4,2,1,30,0,0
107882,361.663652802893,4,2,1,30,1,0
108334,352.941176470588,4,2,1,30,1,0
108334,-133.333333333333,4,2,1,30,0,0
108745,-133.333333333333,4,2,1,35,0,0
108804,301.053687907677,4,2,1,40,1,0
109105,300,4,2,1,30,1,0
109180,-100,4,2,2,5,0,0
110305,297.029702970297,4,2,1,30,1,0
110305,-100,4,2,1,30,0,0
111196,337.078651685393,4,2,1,30,1,0
111280,333.333333333333,4,2,1,30,1,0
111613,468.75,4,2,1,30,1,0
111730,281.69014084507,4,2,1,30,1,0
112011,216.138328530259,4,2,1,30,1,0
112119,375,4,2,1,30,1,0
113056,317.460317460317,4,2,1,30,1,0
113135,275.229357798165,4,2,1,30,1,0
113135,-133.333333333333,4,2,1,30,0,0
113410,156.657963446475,4,2,1,30,1,0
113449,436.046511627907,4,2,1,30,1,0
113667,368.098159509202,4,2,1,30,1,0
114035,263.157894736842,4,2,1,30,1,0
114232,-100,4,2,1,5,0,0
114298,315.789473684211,4,2,1,30,1,0
114534,342.857142857143,4,2,1,30,1,0
114791,345.821325648415,4,2,1,30,1,0
114791,-100,4,2,1,30,0,0
114964,432.432432432432,4,2,1,30,1,0
115396,472.44094488189,4,2,1,30,1,0
115868,413.793103448276,4,2,1,30,1,0
116488,472.44094488189,4,2,1,30,1,0
117669,454.89006823351,4,2,1,20,1,0
118351,432.900432900433,4,2,1,20,1,0
118567,472.44094488189,4,2,1,20,1,0
119275,512.820512820513,4,2,1,20,1,0
119531,350.877192982456,4,2,1,30,1,0
119794,428.571428571429,4,2,1,30,1,0
119794,-50,4,2,1,30,0,0
120008,304.568527918782,4,2,1,30,1,0
120845,412.087912087912,4,2,1,30,1,0
120948,333.333333333333,4,2,1,30,1,0
121114,397.350993377483,4,2,1,30,1,0
121213,333.333333333333,4,2,1,30,1,0
121296,252.312867956266,4,2,1,30,1,0
121359,310.23784901758,4,2,1,30,1,0
121669,266.666666666667,4,2,1,30,1,0
122069,392.156862745098,4,2,1,30,1,0
122167,306.122448979592,4,2,1,30,1,0
123085,235.525024533857,4,2,1,30,1,0
123320,316.122233930453,4,2,1,30,1,0
123952,361.44578313253,4,2,1,30,1,0
124313,230.769230769231,4,2,1,30,1,0
124428,352.941176470588,4,2,1,30,1,0
124957,314.13612565445,4,2,1,30,1,0
125428,408.163265306122,4,2,1,30,1,0
125632,451.127819548872,4,2,1,40,1,0
125632,-48.1811611659841,4,2,1,40,0,0
125857,408.163265306122,4,2,1,40,1,0
125857,-50,4,2,1,40,0,0
126469,372.43947858473,4,2,1,40,1,0
126562,508.474576271186,4,2,1,30,1,0
127197,435.413642960813,4,2,1,30,1,0
127632,376.411543287327,4,2,1,30,1,0
127679,375,4,2,1,30,1,0
128429,300,4,2,1,35,1,0
128579,-100,4,2,1,40,0,0
129329,355.029585798817,4,2,1,30,1,0
129506,-100,4,2,1,35,0,0
130217,508.474576271186,4,2,1,30,1,0
132250,244.897959183673,4,2,1,20,1,0
132556,231.660231660232,4,2,1,25,1,0
132787,-100,4,2,1,30,0,0
132845,-100,4,2,1,25,0,0
132903,-100,4,2,1,30,0,0
133019,279.06976744186,4,2,1,30,1,0
133158,400,4,2,1,30,1,0
133208,273.972602739726,4,2,1,30,1,0
133208,-200,4,2,1,30,0,0
133619,-100,4,2,1,30,0,0
133756,327.868852459016,4,2,1,30,1,0
133920,352.941176470588,4,2,1,30,1,0
134096,483.870967741935,4,2,1,30,1,0
134579,400,4,2,1,30,1,0
134679,-100,4,2,1,20,0,0
135179,258.620689655172,4,2,1,20,1,0
135179,-50,4,2,1,20,0,0
135308,352.941176470588,4,2,1,30,1,0
135837,-100,4,2,1,20,0,0
136455,400,4,2,1,30,1,0
136455,-100,4,2,1,20,0,0
136855,-100,4,2,1,30,0,0
137055,355.029585798817,4,2,1,30,1,0
137232,279.06976744186,4,2,1,30,1,0
137511,279.06976744186,4,2,1,30,1,0
137790,306.122448979592,4,2,1,30,1,0
138096,283.687943262411,4,2,1,30,1,0
138805,451.127819548872,4,2,1,30,1,0
139256,375,4,2,1,30,1,0
139631,338.983050847458,4,2,1,30,1,0
139969,300,4,2,1,30,1,0
140269,243.90243902439,4,2,1,30,1,0
140512,224.719101123595,4,2,1,30,1,0
140736,214.285714285714,4,2,1,30,1,0
140950,215.827338129496,4,2,1,30,1,0
141381,307.692307692308,4,2,1,30,1,0
141688,451.127819548872,4,2,1,30,1,0
142138,454.545454545455,4,2,1,30,1,0
142365,387.096774193548,4,2,1,30,1,0
142558,268.456375838926,4,2,1,30,1,0
142692,410.958904109589,4,2,1,30,1,0
142897,331.491712707182,4,2,1,30,1,0
142897,-133.333333333333,4,2,1,30,0,0
143394,285.035629453682,4,2,1,30,1,0
143679,292.682926829268,4,2,1,65,1,0
143971,335.195530726257,4,2,1,65,1,0
144138,284.36018957346,4,2,1,70,1,0
144138,-71.4285714285714,4,2,1,70,0,0
144991,304.568527918782,4,2,1,70,1,0
144991,-71.4285714285714,4,2,1,70,0,0
145295,270.27027027027,4,2,1,70,1,0
145565,336.134453781513,4,2,1,70,1,0
145733,292.682926829268,4,2,1,70,1,0
145733,-71.4285714285714,4,2,1,70,0,0
146318,316.122233930453,4,2,1,70,1,0
146476,294.117647058824,4,2,1,70,1,0
146623,276.497695852535,4,2,1,70,1,0
146761,309.119010819165,4,2,1,70,1,0
146761,-71.4285714285714,4,2,1,70,0,0
147070,277.777777777778,4,2,1,70,1,0
147070,-71.4285714285714,4,2,1,70,0,0
147347,300,4,2,1,70,1,0
147347,-71.4285714285714,4,2,1,70,0,0
147647,307.692307692308,4,2,1,70,1,0
147801,275.229357798165,4,2,1,70,1,0
148076,300,4,2,1,70,1,0
148076,-71.4285714285714,4,2,1,70,0,0
148676,335.195530726257,4,2,1,70,1,0
148843,280.373831775701,4,2,1,70,1,0
148843,-71.4285714285714,4,2,1,70,0,0
149123,298.507462686567,4,2,1,70,1,0
149123,-71.4285714285714,4,2,1,70,0,0
149720,294.117647058824,4,2,1,70,1,0
149720,-71.4285714285714,4,2,1,70,0,0
150308,279.06976744186,4,2,1,70,1,0
150447,300,4,2,1,70,1,0
150447,-71.4285714285714,4,2,1,70,0,0
150897,300,4,2,1,70,1,0
150897,-71.4285714285714,4,2,1,70,0,0
151197,270.27027027027,4,2,1,70,1,0
151197,-71.4285714285714,4,2,1,70,0,0
151332,344.827586206897,4,2,1,70,1,0
151504,300,4,2,1,70,1,0
151504,-71.4285714285714,4,2,1,70,0,0
151954,263.157894736842,4,2,1,70,1,0
151954,-71.4285714285714,4,2,1,70,0,0
152085,285.442435775452,4,2,1,70,1,0
152085,-71.4285714285714,4,2,1,70,0,0
152370,285.714285714286,4,2,1,70,1,0
153441,384.615384615385,4,2,1,70,1,0
153537,300,4,2,1,70,1,0
153537,-60.6060606060606,4,2,1,70,0,1
153762,-60.6060606060606,4,2,1,5,0,0
153837,-71.4285714285714,4,2,1,70,0,0
154737,304.568527918782,4,2,1,70,1,0
155041,295.420974889217,4,2,1,70,1,0
155041,-71.4285714285714,4,2,1,70,0,0
155927,297.029702970297,4,2,1,70,1,0
155927,-50,4,2,1,70,0,0
157040,331.12582781457,4,2,1,70,1,0
157123,294.117647058824,4,2,1,70,1,0
158225,-100,4,2,1,5,0,0
158299,304.568527918782,4,2,1,70,1,0
158299,-71.4285714285714,4,2,1,70,0,0
159212,294.117647058824,4,2,1,70,1,0
159212,-71.4285714285714,4,2,1,70,0,0
159947,324.324324324324,4,2,1,70,1,0
159947,-71.4285714285714,4,2,1,70,0,0
160271,292.397660818713,4,2,1,70,1,0
160709,300,4,2,1,70,1,0
160709,-50,4,2,1,70,0,0
161759,359.281437125748,4,2,1,70,1,0
161938,480,4,2,1,70,1,0
162178,298.879202988792,4,2,1,70,1,0
162178,-200,4,2,1,70,0,0
162626,436.046511627907,4,2,1,70,1,0
162844,332.225913621262,4,2,1,70,1,0
162844,-50,4,2,1,70,0,0
163176,275.229357798165,4,2,1,70,1,0
163176,-71.4285714285714,4,2,1,70,0,0
163451,300,4,2,1,70,1,0
163451,-71.4285714285714,4,2,1,70,0,0
164351,300,4,2,1,70,1,0
164351,-71.4285714285714,4,2,1,70,0,0
164801,306.591722023505,4,2,1,70,1,0
164801,-71.4285714285714,4,2,1,70,0,0
165567,293.040293040293,4,2,1,70,1,0
165567,-50,4,2,1,70,0,0
166592,340.909090909091,4,2,1,70,1,0
166762,288.461538461538,4,2,1,70,1,0
166906,-50,4,2,1,65,0,0
167194,312.5,4,2,1,65,1,0
167506,300.751879699248,4,2,1,65,1,0
167957,298.953662182362,4,2,1,70,1,0
167957,-71.4285714285714,4,2,1,70,0,0
168181,-71.4285714285714,4,2,1,5,0,0
168256,-71.4285714285714,4,2,1,70,0,0
169601,320.855614973262,4,2,1,70,1,0
169601,-71.4285714285714,4,2,1,70,0,0
170242,488.599348534202,4,2,1,70,1,0
170364,309.278350515464,4,2,1,70,1,0
170364,-50,4,2,1,70,0,0
171291,309.278350515464,4,2,1,70,1,0
171291,-60.6060606060606,4,2,1,70,0,0
171522,-60.6060606060606,4,2,1,5,0,0
171600,-60.6060606060606,4,2,1,70,0,0
172064,298.507462686567,4,2,1,70,1,0
172213,312.5,4,2,1,70,1,0
172213,-60.6060606060606,4,2,1,70,0,0
172448,-60.6060606060606,4,2,1,5,0,0
172525,304.568527918782,4,2,1,70,1,0
172525,-50,4,2,1,70,0,0
173438,303.79746835443,4,2,1,70,1,0
173438,-60.6060606060606,4,2,1,70,0,0
174577,-60.6060606060606,4,2,1,5,0,0
174653,-50,4,2,1,70,0,0
175564,-71.4285714285714,4,2,1,70,0,0
175676,333.333333333333,4,2,1,70,1,1
175676,-50,4,2,1,70,0,1
176342,-50,4,2,1,5,0,0

[Colours]
Combo1 : 122,117,80
Combo2 : 142,43,43
Combo3 : 93,93,93
Combo4 : 83,64,55

[HitObjects]
55,38,9483,5,8,0:0:0:0:
317,132,9629,1,8,0:0:0:0:
263,54,9776,1,8,0:0:0:0:
69,209,9923,6,0,P|45:264|33:322,1,120,6|0,1:2|0:0,0:0:0:0:
70,350,10216,2,0,B|23:275|129:244|70:130,1,200,10|2,0:0|1:2,0:0:0:0:
47,50,10645,1,2,1:2:0:0:
271,71,10789,2,0,P|258:102|239:189,1,100,10|0,0:0|0:0,0:0:0:0:
281,233,11007,1,8,0:0:0:0:
281,233,11079,1,2,1:2:0:0:
390,158,11224,1,2,0:0:0:0:
250,326,11369,1,10,0:0:0:0:
161,100,11514,6,0,P|131:185|138:320,1,200,2|2,1:2|1:2,0:0:0:0:
309,384,11970,1,10,0:0:0:0:
309,384,12118,1,2,0:0:0:0:
480,329,12266,6,0,P|483:278|451:229,1,100,2|0,1:2|1:0,0:0:0:0:
202,122,12569,2,0,P|236:194|371:196,1,200,10|2,0:0|1:2,0:0:0:0:
299,36,13016,1,0,1:2:0:0:
120,91,13160,2,0,B|81:124|81:124|95:184,1,100,10|0,0:0|0:0,0:0:0:0:
146,224,13381,1,8,0:0:0:0:
146,224,13455,1,2,1:2:0:0:
0,150,13603,1,2,0:0:0:0:
222,38,13751,1,10,0:0:0:0:
403,225,13898,6,0,B|467:135|351:124|423:23,1,200,2|2,1:2|1:2,0:0:0:0:
396,18,14359,2,0,P|369:75|374:123,1,100,10|2,0:0|0:0,0:0:0:0:
398,349,14673,6,0,B|354:349|315:378|315:378|241:328|155:313|155:313|132:342|88:341,3,320,12|12|12|12,1:2|1:2|1:2|1:2,0:0:0:0:
241,303,15704,5,0,1:0:0:0:
266,292,15778,1,0,1:0:0:0:
277,278,15852,1,8,0:0:0:0:
398,349,16294,6,0,P|387:306|378:294,2,48.0000018310548,2|2|2,0:0|0:0|0:0,0:0:0:0:
464,380,16737,6,0,P|487:321|491:225,1,150,10|0,0:0|0:0,0:0:0:0:
424,172,17078,6,0,P|353:188|310:225,1,120,6|0,1:2|0:0,0:0:0:0:
296,205,17341,2,0,B|198:198|214:288|114:298,1,200,10|2,0:0|1:2,0:0:0:0:
16,209,17793,1,2,1:2:0:0:
150,94,17948,2,0,P|209:105|258:118,1,100,10|0,0:0|0:0,0:0:0:0:
316,78,18171,1,8,0:0:0:0:
316,78,18245,1,2,1:2:0:0:
400,264,18385,1,2,0:0:0:0:
492,144,18525,1,10,0:0:0:0:
280,199,18684,6,0,P|232:217|204:357,1,200,2|2,1:2|1:2,0:0:0:0:
220,352,19130,2,0,P|180:292|121:267,1,100,10|2,0:0|0:0,0:0:0:0:
0,147,19445,5,2,1:2:0:0:
201,163,19592,1,0,1:0:0:0:
82,316,19740,2,0,L|97:178,1,100,10|0,0:0|0:0,0:0:0:0:
111,21,20035,1,2,1:2:0:0:
165,235,20183,1,2,1:2:0:0:
343,134,20331,2,0,B|365:98|365:98|343:21,1,100,10|0,0:0|0:0,0:0:0:0:
284,14,20553,1,8,0:0:0:0:
284,14,20628,1,2,1:2:0:0:
428,196,20776,1,2,0:0:0:0:
476,61,20925,1,10,0:0:0:0:
242,216,21063,6,0,P|191:252|81:280,1,150,2|0,1:2|0:0,0:0:0:0:
50,235,21396,2,0,P|21:191|28:147,1,100,2|10,1:2|0:0,0:0:0:0:
147,75,21685,1,2,0:0:0:0:
385,362,21837,6,0,P|412:290|431:199,1,160,12|0,1:2|1:0,0:0:0:0:
253,296,22132,6,0,P|254:234|281:111,1,160,12|0,1:2|1:0,0:0:0:0:
109,355,22428,6,0,P|94:284|53:197,1,160,12|0,1:2|1:0,0:0:0:0:
221,28,22723,6,0,B|260:26|281:71|326:45|326:45|308:32|233:43|187:82,1,240,12|0,1:2|0:0,0:0:0:0:
262,127,23019,5,10,0:0:0:0:
262,127,23181,2,0,P|257:167|252:210,1,60.0000022888184,2|2,0:0|0:0,0:0:0:0:
339,271,23505,6,2,B|347:237|323:238|331:197,1,70,2|0,0:0|0:0,0:1:0:0:
342,131,23928,6,0,L|394:119,1,40,8|8,0:0|0:0,0:0:0:0:
238,333,24246,6,0,L|7:314,1,223.999993164063,6|10,1:2|0:0,0:0:0:0:
342,131,24687,1,2,0:0:0:0:
396,377,24834,2,0,B|433:334|433:334|401:274,1,111.999996582031,2|0,1:2|1:0,0:0:0:0:
127,132,25128,1,10,0:0:0:0:
238,333,25275,1,2,0:0:0:0:
337,33,25422,5,2,1:2:0:0:
396,377,25643,1,2,0:0:0:0:
396,377,25716,1,8,0:0:0:0:
463,126,25863,1,2,1:2:0:0:
216,77,26033,2,0,P|157:112|95:112,1,111.999996582031,2|2,0:0|1:2,0:0:0:0:
384,194,26339,2,0,P|427:230|451:313,1,111.999996582031,10|0,0:0|0:0,0:0:0:0:
31,314,26645,6,0,B|86:343|122:260|174:269|174:269|188:320|218:367|302:381,3,320,14|14|14|12,1:2|1:2|1:2|1:2,0:0:0:0:
176,253,27703,5,0,1:0:0:0:
168,245,27778,1,0,1:0:0:0:
169,232,27854,2,0,P|158:210|154:138,1,80,0|0,1:0|0:0,0:0:0:0:
219,47,28153,1,8,0:0:0:0:
47,34,28301,6,0,P|106:64|214:88,1,160,0|2,1:0|1:2,0:0:0:0:
256,42,28763,5,10,0:0:0:0:
358,86,28903,5,2,0:0:0:0:
499,10,29082,6,0,P|478:66|460:133,1,111.999996582031,2|0,1:2|1:0,0:0:0:0:
430,344,29386,1,8,0:0:0:0:
321,128,29537,6,0,L|257:182,1,55.9999982910157,2|0,0:0|0:0,0:0:0:0:
377,197,29688,2,0,L|439:218,1,55.9999982910157,0|0,1:0|0:0,0:0:0:0:
333,255,29841,1,0,1:0:0:0:
333,255,29917,1,2,0:0:0:0:
333,255,29992,2,0,P|246:275|207:283,1,111.999996582031,10|0,0:0|0:0,0:0:0:0:
0,187,30295,6,0,B|52:195|41:225|121:243,1,111.999996582031,0|2,1:0|0:0,0:0:0:0:
408,104,30597,2,0,P|403:73|383:44,1,55.9999982910157,8|0,0:0|0:0,0:0:0:0:
390,52,30748,2,0,P|366:59|320:130,1,111.999996582031,2|0,1:2|0:0,0:0:0:0:
501,289,31050,2,0,B|487:243|487:243|491:228|491:228|476:182,2,111.999996582031,0|10|2,1:0|0:0|1:2,0:0:0:0:
96,76,31524,6,0,B|60:64|60:64|158:179,1,160,14|0,1:2|1:0,0:0:0:0:
32,306,31821,6,0,B|-1:322|-1:322|49:339,2,80,14|0|0,1:2|0:0|1:0,0:0:0:0:
419,313,32118,6,0,B|344:345|344:345|298:281,1,160,12|2,1:2|1:2,0:0:0:0:
285,270,32340,1,0,0:0:0:0:
303,261,32415,2,0,L|291:373,2,80,12|0|0,1:2|0:0|1:0,0:0:0:0:
393,61,32746,5,8,0:0:0:0:
393,61,33083,2,0,P|388:92|386:125,2,40,2|2|0,0:0|0:0|0:0,0:0:0:0:
70,63,33629,6,0,L|126:50,1,40,8|8,0:0|0:0,0:0:0:0:
0,139,33932,6,0,P|85:162|78:314,1,223.999993164063,6|10,1:2|0:0,0:0:0:0:
20,162,34382,1,2,0:0:0:0:
204,195,34532,2,0,B|245:210|248:250|308:270,1,111.999996582031,2|0,1:2|1:0,0:0:0:0:
474,83,34832,2,0,P|434:132|434:203,1,111.999996582031,10|0,0:0|0:0,0:0:0:0:
426,336,35132,5,2,1:2:0:0:
508,155,35282,1,2,0:0:0:0:
296,64,35432,1,10,0:0:0:0:
351,286,35582,2,0,B|206:266|254:380|88:370,1,264.0000025177,2|0,1:2|1:0,0:0:0:0:
16,306,36044,2,0,P|0:259|10:175,1,111.999996582031,8|0,0:0|0:0,0:0:0:0:
434,39,36371,6,0,B|439:70|439:70|416:118|411:151|411:151|441:173|431:187|466:212|466:212|457:260|435:285|435:285|449:358,3,320,12|14|12|14,1:2|1:2|1:2|1:2,0:0:0:0:
470,170,37431,5,0,1:0:0:0:
481,158,37507,1,0,1:0:0:0:
487,144,37583,2,0,P|425:138|342:217,1,160,0|8,1:0|0:0,0:0:0:0:
360,211,38037,2,0,P|396:177|382:90,1,120.000004577637,0|0,1:0|1:0,0:0:0:0:
268,42,38492,5,10,0:0:0:0:
112,9,38806,6,0,L|182:29,1,66.0000006294251,2|0,1:2|0:0,0:0:0:0:
151,58,38957,2,0,L|241:47,1,66.0000006294251,0|0,1:0|0:0,0:0:0:0:
11,13,39109,6,0,B|39:56|90:2|248:117,1,264.0000025177,8|2,0:0|1:2,0:0:0:0:
473,47,39563,2,0,L|405:92,1,66.0000006294251,0|0,1:0|0:0,0:0:0:0:
510,88,39715,2,0,B|484:91|484:91|357:48,1,132.00000125885,10|2,0:0|1:2,0:0:0:0:
113,350,40018,6,0,P|195:322|218:180,1,223.999993164063,0|8,1:0|0:0,0:0:0:0:
0,6,40472,2,0,B|-15:56|43:143|175:139,1,223.999993164063,0|0,1:0|1:0,0:0:0:0:
435,323,40951,2,0,L|472:262,1,55.9999982910157,8|0,0:0|0:0,0:0:0:0:
364,259,41101,2,0,L|383:187,1,55.9999982910157
250,299,41251,6,0,P|256:170|283:97,1,160,14|0,1:2|1:0,0:0:0:0:
120,354,41554,6,0,P|41:347|-4:266,1,160,14|0,1:2|1:0,0:0:0:0:
239,44,41857,6,0,P|318:51|363:132,1,160,14|2,1:2|1:2,0:0:0:0:
8,112,42160,6,0,B|148:124|105:280|254:299,1,320,6|8,1:2|0:0,0:0:0:0:
417,248,42621,1,0,0:0:0:0:
417,248,42775,1,0,1:0:0:0:
366,348,42929,5,2,1:2:0:0:
252,170,43083,1,10,0:0:0:0:
441,71,43236,1,0,0:0:0:0:
119,140,43390,6,0,B|46:143|46:143|141:110,1,160,14|0,1:2|1:0,0:0:0:0:
332,273,43698,6,0,B|348:357|348:357|310:292,1,160,14|0,1:2|1:0,0:0:0:0:
310,56,44006,6,0,B|377:2|377:2|335:63,1,160,14|2,1:2|1:2,0:0:0:0:
57,346,44301,6,0,B|163:230|163:230|356:297,1,320,6|8,1:2|0:0,0:0:0:0:
374,235,44685,1,0,0:0:0:0:
374,235,44762,2,0,P|389:266|389:320,1,66.0000006294251
466,282,44916,2,0,P|459:340|430:364,1,66.0000006294251,0|0,1:0|0:0,0:0:0:0:
256,349,45070,1,0,1:0:0:0:
332,153,45224,6,0,P|367:93|487:30,1,198.000001888275,10|0,0:0|0:0,0:0:0:0:
485,53,45531,6,0,B|409:68|392:13|324:33,1,160,14|0,1:2|1:0,0:0:0:0:
341,239,45839,6,0,B|252:194|276:232|192:183,1,160,14|0,1:2|1:0,0:0:0:0:
173,308,46147,6,0,B|137:291|65:369|21:354,1,160,14|0,1:2|1:0,0:0:0:0:
215,58,46460,6,0,L|222:108,6,27.9999991455078,6|0|0|0|0|0|0,1:2|0:0|0:0|0:0|0:0|0:0|0:0,0:0:0:0:
281,123,46771,6,0,L|387:139,1,100,10|0,0:0|0:0,0:0:0:0:
494,18,47082,2,0,L|440:126,1,100,2|2,1:2|1:2,0:0:0:0:
512,384,47394,2,0,L|440:190,1,200,10|2,0:0|1:2,0:0:0:0:
226,246,47846,5,2,0:0:0:0:
306,323,47997,1,10,0:0:0:0:
100,360,48147,2,0,L|188:155,1,200,2|2,1:2|1:2,0:0:0:0:
30,31,48600,1,10,0:0:0:0:
67,227,48750,1,2,0:0:0:0:
246,101,48901,6,0,L|319:89,1,50,2|0,1:2|0:0,0:0:0:0:
370,295,49052,2,0,L|297:283,1,50,0|0,1:0|0:0,0:0:0:0:
394,22,49203,2,0,B|475:81|475:81|419:198,1,200,10|2,0:0|1:2,0:0:0:0:
217,27,49662,1,2,1:2:0:0:
141,228,49815,2,0,L|43:245,1,100,10|0,0:0|0:0,0:0:0:0:
354,374,50121,5,2,1:2:0:0:
216,211,50274,1,2,0:0:0:0:
431,171,50427,1,10,0:0:0:0:
147,334,50580,6,0,P|98:233|126:112,1,240.000009155274,2|2,1:2|1:2,0:0:0:0:
320,27,51041,2,0,P|288:75|240:72,1,100,10|2,0:0|0:0,0:0:0:0:
377,211,51349,6,0,B|393:262|393:262|391:327|418:371,1,160,12|0,1:2|1:0,0:0:0:0:
110,154,51649,6,0,B|81:222|80:271|80:271|69:314,1,160,12|0,1:2|1:0,0:0:0:0:
427,56,51949,6,0,B|427:83|427:83|447:135|451:182|451:182|468:216,1,160,12|0,1:2|1:0,0:0:0:0:
44,6,52250,6,0,B|25:23|25:23|5:86|19:141|19:141|3:166,1,160,12|0,1:2|1:0,0:0:0:0:
459,233,52559,6,0,B|456:241|456:241|466:268|476:274|482:299|482:299|478:318,3,80,10|2|2|2,0:0|0:0|0:0|0:0,0:0:0:0:
364,363,53206,6,2,B|359:322|394:325|386:268,1,90.0000034332277,2|0,0:0|0:0,0:1:0:0:
379,198,53454,6,0,L|330:189,1,40,8|8,0:0|0:0,0:0:0:0:
36,368,53769,6,0,P|91:366|121:213,1,223.999993164063,6|10,1:2|0:0,0:0:0:0:
8,17,54230,2,0,L|27:88,1,55.9999982910157,2|0,0:0|0:0,0:0:0:0:
66,143,54384,2,0,B|52:88|52:88|90:37,1,111.999996582031,2|0,1:2|1:0,0:0:0:0:
342,131,54692,2,0,B|290:275|290:275|306:323,1,167.999994873047,8|0,0:0|0:0,0:0:0:0:
231,228,54999,6,0,P|216:147|203:-18,1,223.999993164063,2|8,1:2|0:0,0:0:0:0:
481,261,55461,2,0,P|475:316|456:389,1,111.999996582031,2|0,1:2|0:0,0:0:0:0:
231,228,55769,1,0,1:0:0:0:
145,332,55922,2,0,L|1:357,1,111.999996582031,8|0,0:0|0:0,0:0:0:0:
29,57,56230,6,0,P|125:77|178:163,1,160,14|0,1:2|1:0,0:0:0:0:
406,187,56538,6,0,P|444:270|431:360,1,160,14|0,1:2|1:0,0:0:0:0:
21,213,56830,6,0,L|114:232,1,80,14|0,1:2|0:0,0:0:0:0:
21,213,56977,2,0,L|106:197,1,80,2|0,1:2|0:0,0:0:0:0:
180,248,57123,6,0,L|273:267,1,80,14|0,1:2|0:0,0:0:0:0:
180,183,57269,2,0,L|273:164,1,80,2|8,1:2|0:0,0:0:0:0:
335,287,57416,6,0,B|446:235|446:235|422:283,1,160,0|2,1:2|0:0,0:0:0:0:
338,152,57717,1,8,0:0:0:0:
146,342,57855,2,0,B|95:302|95:302|22:333,1,132.00000125885,0|0,1:0|0:0,0:0:0:0:
1,303,58179,5,2,1:2:0:0:
42,191,58326,5,10,0:0:0:0:
170,254,58473,5,2,0:0:0:0:
349,11,58620,5,2,1:2:0:0:
223,153,58774,1,0,1:0:0:0:
398,281,58929,1,8,0:0:0:0:
230,379,59083,5,2,0:0:0:0:
348,89,59238,1,0,1:0:0:0:
495,297,59393,1,0,1:0:0:0:
512,351,59470,1,2,1:2:0:0:
485,376,59547,2,0,B|468:351|468:351|501:199,1,167.999994873047,8|0,0:0|0:0,0:0:0:0:
497,216,59857,6,0,L|443:230,1,55.9999982910157,2|0,1:2|0:0,0:0:0:0:
387,16,60011,2,0,B|425:24|461:86|501:80,1,111.999996582031,0|8,1:0|0:0,0:0:0:0:
108,49,60300,6,0,P|205:86|210:207,1,223.999993164063,2|0,1:2|1:0,0:0:0:0:
38,286,60697,1,2,1:2:0:0:
7,310,60776,2,0,P|24:233|48:171,1,111.999996582031,10|0,0:0|0:0,0:0:0:0:
427,116,61094,6,0,B|408:157|363:152|363:152|304:109|304:139|243:93|243:93|243:163|207:208,3,320,14|14|12|14,1:2|1:2|1:2|1:2,0:0:0:0:
427,116,62139,5,0,1:0:0:0:
445,129,62216,1,0,1:0:0:0:
461,145,62294,2,0,P|467:179|473:213,3,60.0000022888184,10|2|2|2,0:0|0:0|0:0|0:0,0:0:0:0:
374,326,62921,6,0,P|374:285|347:255,1,60.0000022888184,2|2,0:0|0:0,0:0:0:0:
240,194,63231,6,0,L|251:144,1,40,8|8,0:0|0:0,0:0:0:0:
481,17,63534,6,0,P|391:46|344:185,1,223.999993164063,6|10,1:2|0:0,0:0:0:0:
462,215,63973,1,2,0:0:0:0:
362,34,64126,2,0,P|308:46|221:51,1,111.999996582031,2|0,1:2|1:0,0:0:0:0:
69,211,64434,2,0,P|124:216|179:228,1,111.999996582031,8|0,0:0|0:0,0:0:0:0:
29,17,64742,6,0,B|140:34|147:145|238:141,1,223.999993164063,2|8,1:2|0:0,0:0:0:0:
512,96,65202,2,0,P|407:163|336:246,1,223.999993164063,2|0,1:2|1:0,0:0:0:0:
242,41,65665,1,10,0:0:0:0:
463,226,65817,1,0,0:0:0:0:
122,102,65973,6,0,B|88:54|88:54|165:109|165:109|182:154,1,160,14|0,1:2|1:0,0:0:0:0:
322,303,66271,6,0,B|351:344|351:344|241:295,1,160,14|0,1:2|1:0,0:0:0:0:
368,25,66570,6,0,B|382:62|382:62|361:127|361:127|335:190,1,160,12|0,1:2|1:0,0:0:0:0:
113,384,66873,6,0,B|110:359|110:359|84:322|84:322|82:315|82:315|113:228,1,160,12|0,1:2|1:0,0:0:0:0:
214,88,67179,5,0,1:0:0:0:
214,88,67332,1,0,1:0:0:0:
115,111,67473,1,8,0:0:0:0:
49,70,67626,1,0,1:0:0:0:
472,168,67944,5,0,1:0:0:0:
472,168,68077,1,10,0:0:0:0:
472,168,68397,2,0,P|447:223|420:357,1,167.999994873047,2|0,1:2|0:0,0:0:0:0:
441,322,68698,2,0,P|376:202|427:83,1,223.999993164063,8|2,0:0|1:2,0:0:0:0:
485,16,69155,1,0,1:0:0:0:
197,211,69310,6,0,B|216:235|216:235|206:267,2,55.9999982910157,10|0|2,0:0|0:0|0:0,0:0:0:0:
56,77,69621,2,0,P|122:61|291:44,1,223.999993164063,2|8,1:2|0:0,0:0:0:0:
336,96,70055,2,0,P|415:116|404:264,1,223.999993164063,0|0,1:0|1:0,0:0:0:0:
249,334,70538,1,8,0:0:0:0:
311,74,70689,1,0,0:0:0:0:
37,356,70841,6,0,B|27:290|9:276|-6:183,1,160,14|0,1:2|1:0,0:0:0:0:
232,188,71149,6,0,B|219:137|264:95|227:32,1,160,14|0,1:2|1:0,0:0:0:0:
512,308,71457,6,0,B|461:263|449:279|387:208,1,160,14|2,1:2|1:2,0:0:0:0:
77,171,71745,6,0,P|136:290|237:380,1,264.0000025177,6|8,1:2|0:0,0:0:0:0:
406,278,72211,1,0,0:0:0:0:
476,168,72366,2,0,P|499:114|512:43,1,132.00000125885,0|0,1:0|1:1,0:0:0:0:
86,180,72677,2,0,P|63:242|60:322,1,132.00000125885,10|0,0:0|0:0,0:0:0:0:
76,16,72988,6,0,B|117:52|117:52|190:35|263:46,1,160,14|0,1:2|1:0,0:0:0:0:
460,211,73299,6,0,B|417:172|417:172|346:192|273:181,1,160,14|0,1:2|1:0,0:0:0:0:
0,315,73596,6,0,B|48:312|48:312|78:338|109:350|109:350|187:345,1,160,14|2,1:2|1:2,0:0:0:0:
470,130,73905,6,0,B|331:142|371:221|227:243,1,264.0000025177,6|8,1:2|0:0,0:0:0:0:
88,165,74354,1,0,0:0:0:0:
266,59,74509,2,0,B|356:128|311:199,3,132.00000125885,0|0|10|0,1:0|1:0|0:0|0:0,0:0:0:0:
30,324,75131,6,0,B|190:114|165:447|284:353,1,320,14|14,1:2|1:2,0:0:0:0:
479,218,75581,2,0,B|467:228|467:228|381:240,1,80,2|0,1:2|0:0,0:0:0:0:
491,273,75723,6,0,B|361:246|361:246|306:259,1,160,14|0,1:2|0:0,0:0:0:0:
393,77,76050,5,6,1:2:0:0:
393,77,76350,1,8,0:0:0:0:
393,77,76672,1,0,1:0:0:0:
393,77,76841,1,0,1:0:0:0:
393,77,76958,1,8,0:0:0:0:
393,77,77309,1,0,1:0:0:0:
393,77,77606,1,8,0:0:0:0:
424,108,78085,5,0,1:0:0:0:
424,108,78295,1,8,0:0:0:0:
424,108,78552,1,0,1:0:0:0:
430,114,78999,1,8,0:0:0:0:
435,120,79446,1,0,1:0:0:0:
414,256,80546,6,0,L|395:202,1,40,10|8,0:0|0:0,0:0:0:0:
379,202,80660,1,0,1:0:0:0:
379,202,80996,2,0,P|355:222|356:298,1,90.0000034332277,2|0,0:0|0:0,0:0:0:0:
384,342,81334,6,0,L|423:325,3,40,0|2|2|2,1:0|0:0|0:0|0:0,0:0:0:0:
499,341,81921,1,2,0:0:0:0:
499,341,81990,1,0,1:0:0:0:
499,341,82059,2,0,P|491:306|481:286,1,40,2|2,0:0|0:0,0:0:0:0:
432,254,82414,1,0,1:0:0:0:
432,254,82759,6,0,P|462:233|471:220,1,40,2|2,0:0|0:0,0:0:0:0:
288,277,83069,6,0,P|285:324|266:349,1,60.0000022888184,2|2,0:0|0:0,0:0:0:0:
327,134,83379,6,0,P|300:103|231:73,1,80,2|2,0:0|1:2,0:0:0:0:
16,19,83996,5,0,1:0:0:0:
38,37,84396,1,0,0:0:0:0:
38,37,84679,2,0,B|23:65|93:135|81:171,1,140,2|0,1:2|0:0,0:0:0:0:
23,242,85093,6,0,B|125:249|101:367|227:363,1,240,2|2,0:0|0:0,0:0:0:0:
236,352,85724,2,0,P|234:330|227:305,2,40,2|2|2,0:0|0:0|0:0,0:0:0:0:
301,382,86180,2,0,P|303:361|306:331,1,40,2|2,0:0|0:0,0:0:0:0:
289,269,86485,1,2,1:2:0:0:
477,282,86901,6,0,P|452:339|448:359,1,80,2|0,1:2|0:0,0:0:0:0:
482,376,87116,1,0,0:0:0:0:
482,376,87188,2,0,B|539:346|498:206|407:157,1,240,2|2,1:2|1:2,0:0:0:0:
31,19,88271,6,2,B|4:41|4:41|-4:62|-4:62|29:100|29:100|48:159|48:159|37:185,1,180.000006866455,2|2,0:1|0:1,0:1:0:0:
0,235,88972,2,0,L|10:246,1,15.0000005722046,2|0,1:0|0:0,0:0:0:0:
102,58,89402,2,0,L|121:117,1,40,2|0,0:1|0:0,0:0:0:0:
268,0,89669,5,0,1:0:0:0:
268,0,89880,1,0,1:0:0:0:
277,9,90295,1,0,1:0:0:0:
72,175,90789,5,0,0:0:0:0:
72,175,91045,1,2,0:0:0:0:
18,133,91238,2,2,B|19:223|-129:182|332:339|-9:233,1,320,4|0,0:0|0:0,0:1:0:0:
474,362,92114,5,8,0:0:0:0:
425,318,92215,5,8,0:0:0:0:
352,335,92316,5,8,3:0:0:0:
261,354,92417,5,4,3:0:0:0:
192,293,92518,5,8,0:0:0:0:
256,222,92619,6,0,P|250:198|229:172,1,40.000001525879,10|0,0:0|0:0,0:0:0:0:
327,260,92720,5,8,0:0:0:0:
412,216,92811,5,8,0:0:0:0:
416,143,92903,5,4,3:0:0:0:
364,102,92995,5,8,0:0:0:0:
308,121,93088,5,8,0:0:0:0:
343,142,93181,5,4,3:0:0:0:
393,100,93274,5,8,3:0:0:0:
357,34,93366,6,0,P|364:17|383:-7,1,40.000001525879,8|0,0:0|0:0,0:0:0:0:
277,28,93458,5,4,3:0:0:0:
208,94,93542,5,8,0:0:0:0:
245,173,93635,5,12,0:0:0:0:
33,326,94050,5,0,0:0:0:0:
33,326,94112,2,0,L|24:364,1,40,2|2,0:0|0:0,0:0:0:0:
109,322,94237,1,0,0:0:0:0:
109,322,94300,2,0,L|91:378,1,40,2|2,0:0|0:0,0:0:0:0:
187,352,94425,1,0,0:0:0:0:
187,352,94487,2,0,L|158:393,1,40,2|2,0:0|0:0,0:0:0:0:
451,212,94989,5,0,0:0:0:0:
451,212,95232,1,0,0:0:0:0:
484,222,95437,1,0,1:0:0:0:
484,222,95642,1,0,1:0:0:0:
484,222,95866,1,0,1:0:0:0:
426,251,96105,5,0,0:0:0:0:
426,251,96327,1,0,0:0:0:0:
489,282,96549,1,0,1:0:0:0:
312,301,96845,6,0,B|358:287|306:266|344:224|344:224|335:280|376:301|333:375,1,233.333333333333,2|0,0:0|0:0,0:0:0:0:
345,367,97255,1,0,0:0:0:0:
77,178,97460,5,0,1:0:0:0:
100,75,97691,2,0,B|125:80|169:50,1,40,2|0,1:2|0:0,0:0:0:0:
100,75,98164,1,0,1:0:0:0:
34,139,98413,6,0,P|21:151|20:166,1,20,2|0,0:0|0:0,0:0:0:0:
84,190,98653,1,0,0:0:0:0:
34,139,98893,1,0,0:0:0:0:
86,185,99133,1,0,0:0:0:0:
30,143,99373,1,0,0:0:0:0:
89,192,99613,1,0,0:0:0:0:
36,134,99853,5,2,0:0:0:0:
96,190,100093,5,0,1:0:0:0:
267,207,100333,5,2,1:2:0:0:
407,65,100615,6,2,B|400:50|400:50|420:22,1,40,0|0,0:0|0:0,0:1:0:0:
450,7,100842,2,2,B|459:40|355:134|337:181|337:181|361:163|387:166,1,240,0|0,0:0|0:0,0:1:0:0:
487,137,101801,5,0,0:0:0:0:
301,13,102041,5,0,0:0:0:0:
159,40,102273,5,0,0:0:0:0:
115,140,102506,5,0,0:0:0:0:
172,215,102738,5,0,0:0:0:0:
262,198,102971,5,0,0:0:0:0:
272,130,103203,6,0,P|280:173|293:227,2,80,0|2|2,0:0|0:0|0:0,0:0:0:0:
46,116,103826,6,0,P|71:124|98:126,1,53.3333333333333,8|4,0:0|1:2,0:0:0:0:
209,7,103982,5,8,0:3:0:0:
192,47,104058,1,8,0:3:0:0:
204,99,104135,1,6,0:3:0:0:
261,142,104212,1,8,0:0:0:0:
315,196,104289,1,8,0:0:0:0:
326,269,104366,2,0,P|317:305|297:329,1,40,6|8,1:2|3:0,0:0:0:0:
39,130,104519,5,10,0:3:0:0:
89,153,104596,1,4,0:3:0:0:
146,194,104673,1,10,0:0:0:0:
198,250,104750,1,8,0:0:0:0:
240,316,104827,2,0,L|176:327,1,40,6|8,1:2|3:0,0:0:0:0:
410,260,104986,5,10,0:3:0:0:
444,294,105070,1,4,3:0:0:0:
430,354,105133,1,10,0:0:0:0:
370,371,105217,1,8,0:0:0:0:
329,329,105301,2,0,P|328:305|338:279,1,40,6|8,1:2|0:3,0:0:0:0:
447,33,105460,5,10,0:3:0:0:
372,24,105540,1,6,3:0:0:0:
306,66,105620,1,10,0:0:0:0:
275,137,105690,1,10,0:0:0:0:
207,176,105785,1,6,1:2:0:0:
131,179,105867,6,0,B|102:174|81:146|62:137,1,80,2|0,0:1|0:0,0:0:0:0:
135,302,105994,6,0,P|104:297|80:355,1,80,6|0,1:0|0:0,0:0:0:0:
306,66,106159,6,0,B|342:81|360:82|386:109,1,80,6|0,1:0|0:0,0:0:0:0:
364,260,106324,5,8,0:0:0:0:
387,290,106365,2,2,P|333:332|321:328,1,80,2|8,1:0|0:0,0:1:0:0:
62,351,106555,6,2,B|149:371|229:145|333:355|450:313,1,396.00000377655,12|2,1:2|0:1,0:1:0:0:
512,0,107155,1,2,0:0:0:0:
90,285,107530,5,2,0:0:0:0:
18,297,107882,1,2,0:0:0:0:
295,27,108334,6,2,B|303:53|303:53|282:92|282:92|296:123,1,90.0000034332277,2|0,0:0|0:0,0:1:0:0:
342,162,108686,5,0,1:0:0:0:
363,171,108745,5,0,1:0:0:0:
404,158,108804,5,8,0:0:0:0:
468,357,109105,6,0,P|128:270|64:-5,1,640,12|2,1:2|0:0,0:0:0:0:
70,28,110453,1,2,0:0:0:0:
210,102,110750,5,2,0:0:0:0:
229,145,110899,1,2,0:0:0:0:
470,292,111196,5,2,0:0:0:0:
470,292,111280,1,2,1:2:0:0:
97,325,111613,5,2,0:0:0:0:
172,352,111730,1,2,0:0:0:0:
270,73,112011,5,2,1:2:0:0:
270,73,112119,2,2,B|384:116|431:172|288:262|373:98|433:297|195:192|384:116|280:152|370:42|437:138|497:133|441:194|391:149,1,400,2|0,0:0|0:0,0:1:0:0:
434,181,113135,2,0,B|406:256|383:307,1,120.000004577637,2|0,0:0|0:0,0:0:0:0:
455,320,113449,5,2,1:0:0:0:
506,370,113667,1,0,1:0:0:0:
215,216,114035,2,2,B|273:197|282:199|282:199|306:192|333:170,1,120,0|0,0:0|0:0,0:1:0:0:
390,132,114298,1,0,1:0:0:0:
74,50,114534,5,2,0:0:0:0:
39,21,114791,2,2,B|60:113|45:120|76:303,1,280,0|0,0:0|0:0,0:1:0:0:
102,285,115632,1,0,0:0:0:0:
22,346,115868,5,0,1:0:0:0:
22,346,115971,1,0,0:0:0:0:
66,373,116074,5,0,0:0:0:0:
66,373,116178,1,0,0:0:0:0:
122,331,116281,5,0,0:0:0:0:
122,331,116385,1,2,0:0:0:0:
194,358,116488,5,0,1:0:0:0:
194,358,116724,2,0,B|256:389|291:261|431:335,1,240
406,329,117669,2,0,P|364:301|353:343,3,80
169,239,118567,2,0,P|196:257|180:222,3,80
76,65,119531,6,0,P|90:80|130:93,2,40,4|8|8,1:2|0:0|0:0,0:0:0:0:
12,164,119794,2,0,B|2:156|2:156|7:125,1,40,14|0,0:0|0:0,0:0:0:0:
490,326,120008,6,2,L|487:374,5,40,12|8|8|8|8|8,1:2|0:0|0:0|0:0|3:0|0:0,0:1:0:0:
416,345,120464,2,0,L|413:393,5,40,12|4|8|8|8|8,1:2|3:0|0:0|3:0|0:0|0:0,0:0:0:0:
339,357,120948,6,0,P|325:320|363:286,1,80,4|2,1:0|1:2,0:0:0:0:
412,261,121213,2,0,L|460:272,1,40,6|8,1:2|1:2,0:0:0:0:
357,214,121359,2,0,L|338:220,1,20,10|2,0:0|0:0,0:0:0:0:
33,156,121669,6,0,P|97:181|126:241,1,120,4|8,1:2|0:0,0:0:0:0:
122,222,121935,2,0,L|209:196,1,80,8|8,0:0|0:0,0:0:0:0:
340,115,122167,6,0,L|401:140,3,40,12|8|8|8,1:2|0:0|0:0|0:0,0:0:0:0:
403,111,122473,2,0,L|438:155,1,40,8|8,3:0|3:0,0:0:0:0:
457,126,122626,2,0,L|470:168,1,40,8|8,0:0|0:0,0:0:0:0:
501,163,122779,2,0,L|493:211,1,40,4|4,3:0|3:0,0:0:0:0:
465,225,122932,1,8,1:2:0:0:
465,225,123008,1,8,3:0:0:0:
465,225,123085,1,4,3:0:0:0:
512,0,123320,6,0,B|479:76|423:-42|362:96,1,160,6|0,1:2|0:0,0:0:0:0:
195,175,123952,5,4,1:2:0:0:
67,109,124132,2,0,P|54:56|40:17,1,80,10|4,0:0|1:2,0:0:0:0:
146,92,124428,2,0,P|90:197|99:315,1,240,2|0,3:2|0:0,0:0:0:0:
99,315,125428,5,8,0:0:0:0:
126,333,125530,1,8,0:0:0:0:
184,310,125632,2,0,B|198:286|228:273|228:273|262:293|292:329|292:329|320:302,1,166.040004110716,6|4,1:2|1:2,0:0:0:0:
103,90,126061,6,0,B|75:125|82:166|82:166|115:169|93:210|183:265|198:222|229:250|229:250|258:237|312:177,1,320,6|0,1:2|0:0,0:0:0:0:
386,243,126562,5,4,0:0:0:0:
381,161,126816,2,0,P|404:194|415:232,1,80,0|0,3:0|0:0,0:0:0:0:
282,202,127197,2,0,B|361:201|331:247|339:286|423:270,1,160,0|2,3:0|0:0,0:0:0:0:
455,256,127679,5,0,1:0:0:0:
467,236,127772,1,0,1:0:0:0:
460,211,127866,1,0,1:0:0:0:
436,188,127960,1,0,1:0:0:0:
427,144,128054,5,8,0:3:0:0:
392,105,128147,1,8,0:3:0:0:
339,91,128241,1,4,0:3:0:0:
283,117,128335,1,4,0:3:0:0:
283,125,128429,1,0,1:0:0:0:
483,67,128579,5,10,0:0:0:0:
482,61,128654,1,8,0:0:0:0:
131,161,128879,1,0,1:0:0:0:
131,161,129329,5,0,1:0:0:0:
160,167,129417,1,0,1:0:0:0:
160,167,129506,1,8,0:0:0:0:
256,192,130725,5,2,0:0:0:0:
256,192,131233,1,2,0:0:0:0:
256,192,131742,1,2,0:0:0:0:
100,321,132250,6,0,B|93:332|93:332|98:381,3,40,2|0|0|0,1:2|1:0|1:0|1:0,0:0:0:0:
130,300,132494,1,0,1:0:0:0:
136,305,132556,1,0,1:0:0:0:
142,306,132613,1,2,1:2:0:0:
148,303,132671,1,0,1:2:0:0:
154,304,132729,1,2,1:2:0:0:
160,308,132787,1,0,1:0:0:0:
166,309,132845,1,0,1:0:0:0:
172,310,132903,1,2,1:2:0:0:
178,311,132961,1,0,1:0:0:0:
183,316,133019,1,0,1:0:0:0:
203,312,133088,1,0,1:0:0:0:
216,322,133158,1,0,1:0:0:0:
252,315,133208,6,0,P|260:302|258:266,2,40,2|2|2,1:2|1:2|1:2,0:0:0:0:
315,337,133619,2,0,B|356:351|338:370|399:385,1,80,2|0,1:2|0:0,0:0:0:0:
447,341,133920,1,2,0:0:0:0:
380,212,134096,5,0,1:0:0:0:
183,117,134337,5,0,1:0:0:0:
0,52,134679,6,0,P|-4:98|8:131,1,80,2|0,0:0|0:0,0:0:0:0:
384,162,135179,6,0,B|382:122|382:122|414:147,1,80,2|0,0:0|0:0,0:0:0:0:
416,185,135308,2,0,B|310:241|310:241|218:161,1,240,4|2,1:2|0:0,0:0:0:0:
198,137,136013,1,2,0:0:0:0:
191,161,136190,1,2,0:0:0:0:
111,141,136455,6,0,B|111:122|96:113|118:56,1,80,2|2,0:0|0:0,0:0:0:0:
33,240,136855,1,2,1:2:0:0:
33,240,137055,1,0,1:0:0:0:
85,287,137232,5,2,0:0:0:0:
133,270,137511,1,2,0:0:0:0:
133,270,137650,1,2,0:0:0:0:
133,270,137790,1,2,0:0:0:0:
68,168,138096,5,2,1:2:0:0:
222,343,138805,5,0,1:2:0:0:
435,261,139256,5,0,1:2:0:0:
363,0,139631,5,2,1:2:0:0:
148,74,139969,5,0,1:2:0:0:
178,257,140269,5,0,1:2:0:0:
328,302,140512,5,2,1:2:0:0:
433,209,140736,5,0,1:2:0:0:
342,101,140950,5,2,1:2:0:0:
253,155,141165,5,0,1:2:0:0:
309,226,141381,5,0,1:2:0:0:
459,105,141688,5,2,1:2:0:0:
277,4,142138,5,0,1:2:0:0:
160,127,142365,5,0,1:0:0:0:
287,275,142692,5,0,1:2:0:0:
396,261,142897,6,0,B|400:241|400:241|395:225|395:225|400:202,3,60.0000022888184,2|2|2|2,0:0|0:0|0:0|0:0,0:0:0:0:
434,9,143679,5,8,0:0:0:0:
233,75,143825,1,8,0:0:0:0:
478,197,143971,1,8,0:0:0:0:
204,162,144138,6,0,B|121:186|141:295|36:315,1,223.999993164063,6|10,1:2|0:0,0:0:0:0:
0,207,144564,1,0,0:0:0:0:
209,261,144706,2,0,P|252:272|322:297,1,111.999996582031,2|2,1:2|1:2,0:0:0:0:
511,117,144991,2,0,P|496:171|440:231,1,111.999996582031,10|0,0:0|0:0,0:0:0:0:
408,263,145219,1,8,0:0:0:0:
408,263,145295,1,2,1:2:0:0:
279,147,145430,1,2,0:0:0:0:
434,43,145565,1,10,0:0:0:0:
293,225,145733,6,0,P|236:263|76:325,1,223.999993164063,2|2,1:2|1:2,0:0:0:0:
0,78,146172,2,0,L|125:108,1,111.999996582031,10|2,0:0|0:0,0:0:0:0:
441,244,146476,5,2,1:2:0:0:
441,244,146623,1,0,1:0:0:0:
382,191,146761,2,0,P|386:140|433:81,1,111.999996582031,10|0,0:0|0:0,0:0:0:0:
121,36,147070,6,0,L|34:7,1,55.9999982910157,2|0,1:2|0:0,0:0:0:0:
148,54,147208,2,0,L|197:-4,1,55.9999982910157,2|0,1:2|0:0,0:0:0:0:
94,107,147347,2,0,P|115:174|155:336,1,223.999993164063,10|2,0:0|1:2,0:0:0:0:
284,170,147801,1,2,0:0:0:0:
63,116,147938,1,10,0:0:0:0:
247,308,148076,2,0,P|335:307|383:165,1,223.999993164063,2|2,1:2|1:2,0:0:0:0:
218,277,148526,2,0,P|242:347|253:405,1,111.999996582031,10|2,0:0|0:0,0:0:0:0:
468,72,148843,6,0,P|459:98|451:125,1,55.9999982910157,2|0,1:2|0:0,0:0:0:0:
400,41,148983,2,0,P|383:63|381:90,1,55.9999982910157,0|0,1:0|0:0,0:0:0:0:
330,12,149123,2,0,P|256:20|206:190,1,223.999993164063,10|2,0:0|1:2,0:0:0:0:
120,8,149570,1,2,1:2:0:0:
297,120,149720,2,0,B|341:168|302:248,1,111.999996582031,8|0,0:0|0:0,0:0:0:0:
269,286,149940,1,8,0:0:0:0:
269,286,150014,1,2,1:2:0:0:
445,206,150161,1,0,0:0:0:0:
336,375,150308,1,10,0:0:0:0:
173,144,150447,6,0,P|82:178|54:328,1,223.999993164063,2|0,1:2|1:2,0:0:0:0:
317,384,150897,2,0,P|296:291|291:236,1,111.999996582031,10|0,0:0|0:0,0:0:0:0:
471,45,151197,6,0,B|511:84|511:84|482:149,1,111.999996582031,2|0,1:2|1:0,0:0:0:0:
164,157,151504,2,0,B|124:118|124:118|153:53,1,111.999996582031,10|0,0:0|0:0,0:0:0:0:
453,258,151804,6,0,B|472:277|472:277|457:217,1,55.9999982910157,2|0,1:2|0:0,0:0:0:0:
245,300,151954,6,0,B|226:319|226:319|241:259,1,55.9999982910157,2|0,1:2|0:0,0:0:0:0:
361,367,152085,6,0,B|373:283|373:283|326:213,1,167.999994873047,10|8,0:0|0:0,0:0:0:0:
391,165,152370,1,4,1:3:0:0:
372,130,152441,1,8,0:0:0:0:
324,113,152513,1,8,0:0:0:0:
304,78,152584,1,8,0:0:0:0:
336,51,152656,5,8,1:3:0:0:
359,56,152727,1,8,0:0:0:0:
386,55,152799,1,8,0:0:0:0:
414,62,152870,1,8,0:0:0:0:
450,103,152941,5,8,1:3:0:0:
402,133,153013,1,8,0:0:0:0:
346,126,153084,1,8,0:0:0:0:
290,118,153156,1,8,0:0:0:0:
247,147,153227,5,4,1:3:0:0:
211,108,153299,1,8,0:0:0:0:
159,102,153370,1,8,0:0:0:0:
110,130,153441,1,8,0:0:0:0:
110,187,153537,6,0,B|111:274|162:298|169:397,1,198.000001888275,6|0,1:2|0:0,0:0:0:0:
108,335,153837,2,0,P|143:279|174:231,1,111.999996582031,8|2,0:0|0:0,0:0:0:0:
382,117,154137,1,2,1:2:0:0:
232,161,154287,1,0,1:0:0:0:
441,297,154437,2,0,P|477:230|478:73,1,223.999993164063,8|2,0:0|1:2,0:0:0:0:
225,48,154889,5,0,0:0:0:0:
59,279,155041,2,0,L|117:260,1,55.9999982910157,8|0,0:0|0:0,0:0:0:0:
6,231,155188,2,0,L|234:201,1,223.999993164063,2|2,1:2|1:2,0:0:0:0:
335,338,155631,2,0,L|451:358,1,111.999996582031,8|0,0:0|0:0,0:0:0:0:
82,50,155927,6,0,P|165:63|206:164,1,160,14|0,1:2|1:0,0:0:0:0:
430,334,156224,6,0,P|347:321|306:220,1,160,12|2,1:2|1:2,0:0:0:0:
387,122,156521,6,0,P|411:98|448:64,1,80,14|0,1:2|0:0,0:0:0:0:
341,134,156669,2,0,P|357:82|357:13,1,80,2|0,1:2|0:0,0:0:0:0:
125,262,156818,6,0,P|101:286|64:320,1,80,14|0,1:2|0:0,0:0:0:0:
171,250,156966,2,0,P|155:302|155:371,1,80,2|0,1:2|0:0,0:0:0:0:
256,192,157123,5,2,1:2:0:0:
256,192,157417,1,10,0:0:0:0:
256,192,157711,1,2,0:0:0:0:
256,192,157858,1,2,1:2:0:0:
256,192,158005,2,0,P|240:97|232:67,1,120,8|0,0:0|0:0,0:0:0:0:
140,28,158299,5,2,1:2:0:0:
337,141,158451,1,0,1:0:0:0:
153,257,158603,1,8,0:0:0:0:
356,279,158755,5,2,0:0:0:0:
140,132,158908,1,0,1:0:0:0:
198,372,159060,1,0,1:0:0:0:
241,344,159136,1,0,1:0:0:0:
279,373,159212,2,0,B|357:395|372:320|458:366,1,167.999994873047,10|0,0:0|0:0,0:0:0:0:
512,278,159506,6,0,P|479:268|437:265,1,55.9999982910157,0|2,1:0|0:0,0:0:0:0:
282,0,159653,2,0,P|271:66|228:112,1,111.999996582031,2|8,0:0|0:0,0:0:0:0:
9,332,159947,6,0,P|84:341|148:258,1,167.999994873047,2|0,1:2|0:0,0:0:0:0:
154,243,160271,1,0,1:0:0:0:
123,1,160417,1,10,0:0:0:0:
286,272,160563,1,0,0:0:0:0:
503,47,160709,6,0,B|521:96|515:137|515:137|479:140|478:245|453:253|453:253|427:304|474:365,3,320,12|12|12|14,1:2|1:2|1:2|1:2,0:0:0:0:
391,45,161759,5,0,1:0:0:0:
400,33,161848,1,0,1:0:0:0:
384,9,161938,1,8,0:0:0:0:
370,7,162178,6,0,B|329:14|339:41|287:44,1,90,2|0,0:0|0:0,0:0:0:0:
357,60,162626,1,0,1:0:0:0:
77,117,162844,6,0,B|96:111|96:111|112:122,1,40,8|8,0:0|0:0,0:0:0:0:
3,294,163176,6,0,L|239:273,1,223.999993164063,6|10,1:2|0:0,0:0:0:0:
395,321,163601,1,2,0:0:0:0:
476,180,163751,2,0,B|503:130|503:130|461:75,1,111.999996582031,2|0,1:2|1:0,0:0:0:0:
230,165,164051,2,0,B|203:215|203:215|245:270,1,111.999996582031,8|0,0:0|0:0,0:0:0:0:
19,0,164351,6,0,L|76:30,1,55.9999982910157,2|0,1:2|0:0,0:0:0:0:
252,74,164501,2,0,L|113:139,1,111.999996582031,2|8,0:0|0:0,0:0:0:0:
8,210,164801,2,0,B|110:220|75:315|203:335,1,223.999993164063,2|0,1:2|1:0,0:0:0:0:
475,133,165260,2,0,B|416:144|430:186|360:191,1,111.999996582031,8|0,0:0|0:0,0:0:0:0:
215,359,165567,6,0,B|248:378|248:378|266:346|266:346|304:319|304:319|385:312,1,160,14|0,1:2|1:0,0:0:0:0:
201,19,165860,6,0,B|168:0|168:0|157:33|157:33|105:38|105:38|42:72,1,160,14|2,1:2|1:2,0:0:0:0:
349,179,166153,6,0,B|382:198|382:198|421:156|421:156|460:154|460:154|480:125,1,160,14|0,1:2|1:0,0:0:0:0:
24,145,166446,6,0,B|17:167|17:167|26:204|26:204|72:238|72:238|85:303,1,160,14|0,1:2|1:0,0:0:0:0:
325,360,166762,5,2,1:2:0:0:
325,360,166906,1,0,0:0:0:0:
249,273,167050,1,8,0:0:0:0:
93,362,167194,1,0,1:0:0:0:
316,66,167506,5,2,1:2:0:0:
316,66,167656,1,8,0:0:0:0:
316,66,167957,6,0,P|353:129|446:137,1,167.999994873047,6|0,1:2|0:0,0:0:0:0:
458,122,168256,2,0,L|310:160,1,111.999996582031,8|0,0:0|0:0,0:0:0:0:
30,218,168555,2,0,B|121:233|101:331|226:340,1,223.999993164063,2|8,1:2|0:0,0:0:0:0:
457,285,169004,1,2,0:0:0:0:
435,362,169153,6,0,P|415:272|392:126,1,223.999993164063,0|8,1:0|0:0,0:0:0:0:
152,6,169601,2,0,P|134:116|110:226,1,223.999993164063,0|0,1:0|1:0,0:0:0:0:
261,309,170082,2,0,P|311:305|348:240,1,111.999996582031,8|0,0:0|0:0,0:0:0:0:
22,59,170364,6,0,P|168:60|262:240,2,320,14|14|14,1:2|1:2|1:2,0:0:0:0:
344,36,171137,5,2,0:0:0:0:
393,6,171214,1,2,0:0:0:0:
466,15,171291,2,0,P|490:113|513:241,1,198.000001888275,6|0,1:2|0:0,0:0:0:0:
486,219,171600,2,0,P|477:253|501:300,1,66.0000006294251,8|0,0:0|0:0,0:0:0:0:
429,171,171754,2,0,P|404:213|409:262,1,66.0000006294251
377,87,171909,2,0,B|313:56|240:136,1,132.00000125885,0|2,1:0|1:2,0:0:0:0:
53,345,172213,6,0,P|119:356|197:251,1,198.000001888275,8|0,0:0|0:0,0:0:0:0:
174,248,172525,6,0,P|163:308|226:280,1,160,14|0,1:2|1:0,0:0:0:0:
16,61,172829,6,0,P|26:107|137:122,1,160,14|0,1:2|1:0,0:0:0:0:
359,30,173134,6,0,P|382:107|424:212,1,160,14|2,1:2|1:2,0:0:0:0:
235,370,173438,6,0,P|199:267|119:92,1,264.0000025177,6|8,1:2|0:0,0:0:0:0:
4,56,173893,1,0,0:0:0:0:
77,192,174045,2,0,P|147:241|133:300,1,132.00000125885,0|0,1:0|1:0,0:0:0:0:
399,79,174349,2,0,P|283:82|256:187,1,198.000001888275,10|0,0:0|0:0,0:0:0:0:
297,204,174653,6,0,B|307:255|359:263|359:263|355:200|303:200,1,160,14|0,1:2|1:0,0:0:0:0:
145,279,174956,6,0,B|30:325|69:369|-9:370,1,160,14|0,1:2|1:0,0:0:0:0:
361,29,175260,6,0,B|486:62|475:129|441:203,1,160,14|0,1:2|1:0,0:0:0:0:
113,116,175564,6,0,P|73:128|44:127,1,55.9999982910157,2|0,0:0|0:0,0:0:0:0:
33,100,175676,2,0,B|238:127|307:237|343:368|-1:301|197:82|44:2,1,640,6|0,0:0|0:0,0:1:0:0:
