osu file format v14

[General]
AudioFilename: 02_22_kocham_cie.ogg
AudioLeadIn: 0
PreviewTime: 131742
Countdown: 0
SampleSet: Soft
StackLeniency: 0.9
Mode: 0
LetterboxInBreaks: 0
WidescreenStoryboard: 1

[Editor]
Bookmarks: 9483,17077,24246,33932,42160,46536,53769,63534,71745,76050,92114,94988,103873,109105,132250,144138,153537,163176,171291
DistanceSpacing: 1
BeatDivisor: 4
GridSize: 16
TimelineZoom: 4.200004

[Metadata]
Title:Faint Heart
TitleUnicode:Faint Heart
Artist:The Birthday Party
ArtistUnicode:The Birthday Party
Creator:app
Version:Collab Normal
Source:
Tags:the boys next door hee haw noise avant-garde musique concrète concrete postpunk post punk rock post-punk nick cave english squishi audinor zglock nik nikolomara allein aishiteiru-
BeatmapID:3950072
BeatmapSetID:1900177

[Difficulty]
HPDrainRate:3
CircleSize:3
OverallDifficulty:4
ApproachRate:5.2
SliderMultiplier:1
SliderTickRate:1

[Events]
//Background and Video events
0,0,"photo_019.jpg",0,0
//Break Periods
2,46660,50179
2,80546,90944
2,95429,102703
2,111280,118361
2,127832,131080
//Storyboard Layer 0 (Background)
//Storyboard Layer 1 (Fail)
//Storyboard Layer 2 (Pass)
//Storyboard Layer 3 (Foreground)
//Storyboard Layer 4 (Overlay)
//Storyboard Sound Samples

[TimingPoints]
9483,293.542074363992,4,2,1,65,1,0
9923,293.398533007335,4,2,1,65,1,0
10216,286.259541984733,4,2,1,70,1,0
10645,289.855072463768,4,2,1,70,1,0
10789,289.855072463768,4,2,1,70,1,0
11514,309.278350515464,4,2,1,70,1,0
11823,295.566502463054,4,2,1,70,1,0
12266,303.030303030303,4,2,1,70,1,0
12872,288.461538461538,4,2,1,70,1,0
13160,295.566502463054,4,2,1,70,1,0
13898,326.086956521739,4,2,1,70,1,0
14224,270.27027027027,4,2,1,70,1,0
14359,314.13612565445,4,2,1,70,1,0
14673,294.840294840295,4,2,1,70,1,0
15852,442.477876106195,4,2,1,70,1,0
16294,295.420974889217,4,2,1,65,1,0
16294,-100,4,2,1,65,0,0
16737,341.102899374645,4,2,1,65,1,0
17078,263.157894736842,4,2,1,70,1,0
17341,298.507462686567,4,2,1,70,1,0
17639,309.278350515464,4,2,1,70,1,0
17948,297.397769516729,4,2,1,70,1,0
18245,280.373831775701,4,2,1,70,1,0
18525,318.13361611877,4,2,1,70,1,0
18684,297.397769516729,4,2,1,70,1,0
19130,297.397769516729,4,2,1,70,1,0
19278,335.195530726257,4,2,1,70,1,0
19445,295.420974889217,4,2,1,70,1,0
20331,297.029702970297,4,2,1,70,1,0
20925,276.243093922652,4,2,1,70,1,0
21063,333.333333333333,4,2,1,70,1,0
21063,-80,4,2,1,70,0,0
21396,277.777777777778,4,2,1,70,1,0
21534,303.490136570561,4,2,1,70,1,0
21837,295.566502463054,4,2,1,70,1,0
23019,324.324324324324,4,2,1,70,1,0
23181,-100,4,2,1,65,0,0
23505,423.131170662905,4,2,1,65,1,0
23928,318.13361611877,4,2,1,65,1,0
24246,294.117647058824,4,2,1,70,1,0
25863,340.909090909091,4,2,1,70,1,0
25863,-95.2380952380952,4,2,1,70,0,0
26033,306.122448979592,4,2,1,70,1,0
26645,306.122448979592,4,2,1,70,1,0
27563,280.767430978007,4,2,1,70,1,0
27703,303.030303030303,4,2,1,70,1,0
27856,-100,4,2,1,70,0,0
28006,295.566502463054,4,2,1,65,1,0
28153,295.566502463054,4,2,1,65,1,0
28300,323.014804845222,4,2,1,65,1,0
28623,280.373831775701,4,2,1,65,1,0
28903,359.281437125749,4,2,1,65,1,0
29082,303.413400758534,4,2,1,70,1,0
30447,301.507537688442,4,2,1,70,1,0
30597,301.507537688442,4,2,1,70,1,0
31351,346.820809248555,4,2,1,70,1,0
31524,297.029702970297,4,2,1,70,1,0
32563,366.300366300366,4,2,1,70,1,0
32746,337.078651685393,4,2,1,70,1,0
33083,363.967242948135,4,2,1,65,1,0
33629,303.030303030303,4,2,1,70,1,0
33932,300,4,2,1,70,1,0
35582,315.789473684211,4,2,1,70,1,0
35897,295.566502463054,4,2,1,70,1,0
36044,327.153762268266,4,2,1,70,1,0
36371,303.030303030303,4,2,1,70,1,0
37886,-100,4,2,1,65,0,0
38492,314.13612565445,4,2,1,65,1,0
38806,303.030303030303,4,2,1,65,1,0
39260,-100,4,2,1,65,0,0
39411,-100,4,2,1,70,0,0
40169,-100,4,2,1,65,0,0
40321,-100,4,2,1,70,0,0
40472,329.67032967033,4,2,1,70,1,0
40801,300,4,2,1,70,1,0
40951,300,4,2,1,70,1,0
41251,303.030303030303,4,2,1,70,1,0
42160,307.692307692308,4,2,1,70,1,0
44160,282.220131702728,4,2,1,70,1,0
44301,307.692307692308,4,2,1,70,1,0
46301,319.148936170213,4,2,1,70,1,0
46460,311.364815775817,4,2,1,65,1,0
47394,301.507537688442,4,2,1,65,1,0
47695,301.507537688442,4,2,1,65,1,0
49203,306.122448979592,4,2,1,65,1,0
50121,306.122448979592,4,2,1,65,1,0
50580,338.983050847458,4,2,1,65,1,0
50918,246.913580246914,4,2,1,65,1,0
51041,307.692307692308,4,2,1,65,1,0
51349,300.375469336671,4,2,1,70,1,0
52400,317.460317460317,4,2,1,70,1,0
52559,300,4,2,1,70,1,0
53159,187.5,4,2,1,65,1,0
53206,248.85939444214,4,2,1,65,1,0
53454,315.789473684211,4,2,1,70,1,0
53769,307.692307692308,4,2,1,70,1,0
54999,-100,4,2,1,70,0,0
56538,292.682926829268,4,2,1,70,1,0
57416,301.507537688442,4,2,1,70,1,0
57717,277.520814061055,4,2,1,70,1,0
57855,356.083086053412,4,2,1,70,1,0
58033,293.757649938801,4,2,1,70,1,0
58620,309.278350515464,4,2,1,70,1,0
60011,289.156626506024,4,2,1,70,1,0
60300,317.628374801482,4,2,1,70,1,0
61094,297.029702970297,4,2,1,70,1,0
61985,308.483290488432,4,2,1,70,1,0
62294,315.789473684211,4,2,1,70,1,0
62767,309.757356737223,4,2,1,70,1,0
62921,309.757356737223,4,2,1,70,1,0
63231,303.030303030303,4,2,1,70,1,0
63534,292.682926829268,4,2,1,70,1,0
63973,307.692307692308,4,2,1,70,1,0
64126,307.692307692308,4,2,1,70,1,0
64741,307.692307692308,4,2,1,70,1,0
65973,298.507462686567,4,2,1,70,1,0
66570,303.030303030303,4,2,1,70,1,0
66873,306.122448979592,4,2,1,70,1,0
67332,283.018867924528,4,2,1,65,1,0
67332,-100,4,2,1,65,0,0
67473,306.122448979592,4,2,1,65,1,0
67626,318.471337579618,4,2,1,65,1,0
67944,266.903914590747,4,2,1,65,1,0
68077,320,4,2,1,65,1,0
68397,301.507537688442,4,2,1,65,1,0
68698,-100,4,2,1,70,0,0
68849,-101.214574898785,4,2,1,70,0,0
69000,310.55900621118,4,2,1,70,1,0
69621,289.855072463768,4,2,1,70,1,0
70055,322.58064516129,4,2,1,70,1,0
70538,303.030303030303,4,2,1,70,1,0
70841,308.08729139923,4,2,1,70,1,0
71611,268.336314847943,4,2,1,70,1,0
71745,310.880829015544,4,2,1,70,1,0
73299,297.029702970297,4,2,1,70,1,0
73744,323.275862068966,4,2,1,70,1,0
73905,294.117647058824,4,2,1,70,1,0
74199,310.880829015544,4,2,1,70,1,0
75131,309.278350515464,4,2,1,70,1,0
75440,283.018867924528,4,2,1,70,1,0
75723,327.510917030568,4,2,1,70,1,0
76050,300,4,2,1,70,1,0
76350,322.58064516129,4,2,1,70,1,0
76672,338.218714768884,4,2,1,70,1,0
76841,235.294117647059,4,2,1,60,1,0
76958,234.375,4,2,1,60,1,0
77309,297.029702970297,4,2,1,60,1,0
77606,319.659030367608,4,2,1,60,1,0
77925,-100,4,2,1,60,0,1
78085,420.462508759636,4,2,1,55,1,1
78295,257.510729613734,4,2,1,55,1,1
78552,298.656047784968,4,2,1,55,1,1
79447,314.13612565445,4,2,1,50,1,0
80546,304.568527918782,4,2,1,40,1,0
80622,-100,4,2,1,30,0,0
80660,336.134453781513,4,2,1,30,1,0
80996,338.983050847458,4,2,1,30,1,0
81334,293.542074363992,4,2,1,30,1,0
81921,276.115968706857,4,2,1,30,1,0
82059,384.615384615385,4,2,1,30,1,0
82251,327.868852459016,4,2,1,30,1,0
82414,345.224395857307,4,2,1,30,1,0
82759,310.880829015544,4,2,1,30,1,0
83069,310.077519379845,4,2,1,30,1,0
83379,352.941176470588,4,2,1,30,1,0
83996,400,4,2,1,30,1,0
84396,377.358490566038,4,2,1,30,1,0
84679,414.651002073255,4,2,1,30,1,0
85093,315.789473684211,4,2,1,30,1,0
85724,304.568527918782,4,2,1,30,1,0
86485,324.324324324324,4,2,1,30,1,0
86809,368.098159509202,4,2,1,30,1,0
86901,287.081339712919,4,2,1,30,1,0
87618,326.530612244898,4,2,1,40,1,0
88271,337.078651685393,4,2,1,30,1,0
88776,393.44262295082,4,2,1,30,1,0
88972,352.941176470588,4,2,1,30,1,0
89016,386.473429951691,4,2,1,30,1,0
89402,275.229357798165,4,2,1,30,1,0
89470,398.671096345515,4,2,1,30,1,0
89669,422.684043677351,4,2,1,30,1,0
89880,276.81660899654,4,2,1,30,1,0
90295,329.670329670329,4,2,1,30,1,0
90789,256.739409499359,4,2,1,25,1,0
91238,264.31718061674,4,2,1,30,1,0
91502,306.122448979592,4,2,1,30,1,0
92114,303.030303030303,4,2,1,40,1,0
92720,275.229357798165,4,2,1,40,1,0
92995,279.06976744186,4,2,1,40,1,0
93274,276.497695852535,4,2,1,50,1,0
93458,252.100840336134,4,2,1,40,1,0
93542,279.06976744186,4,2,1,40,1,0
93635,276.752767527675,4,2,1,40,1,0
94050,250,4,2,1,40,1,0
94550,456.968773800457,4,2,1,40,1,0
94778,282.352941176471,4,2,1,30,1,0
94989,243.90243902439,4,2,1,20,1,0
95232,410.116199589884,4,2,1,15,1,0
95429,-100,4,2,1,30,0,0
95642,449.101796407186,4,2,1,30,1,0
95866,318.809776833156,4,2,1,30,1,0
96105,444.444444444444,4,2,1,15,1,0
96549,296.296296296296,4,2,1,30,1,0
96845,307.692307692308,4,2,1,30,1,0
97153,-100,4,2,1,20,0,0
97461,-100,4,2,1,25,0,0
97691,315.789473684211,4,2,1,30,1,0
98164,332.042058660764,4,2,1,30,1,0
98413,480,4,2,1,30,1,0
98653,-100,4,2,1,25,0,0
100093,240,4,2,1,30,1,0
100333,282.752120640905,4,2,1,30,1,0
100615,303.183425972714,4,2,1,30,1,0
100842,476.190476190476,4,2,1,30,1,0
101556,491.803278688525,4,2,1,15,1,0
101801,480,4,2,1,15,1,0
102041,465.116279069767,4,2,1,13,1,0
102971,465.116279069767,4,2,1,13,1,0
103668,316.622691292876,4,2,1,15,1,0
103826,282.352941176471,4,2,1,40,1,0
103873,218.181818181818,4,2,1,50,1,1
103982,307.692307692308,4,2,1,45,1,1
104366,307.692307692308,4,2,1,45,1,1
104827,319.148936170213,4,2,1,45,1,1
104986,338.983050847458,4,2,1,45,1,1
105070,253.164556962025,4,2,1,45,1,1
105133,337.078651685393,4,2,1,45,1,1
105301,319.148936170213,4,2,1,45,1,1
105620,281.69014084507,4,2,1,45,1,1
105690,382.165605095541,4,2,1,45,1,1
105785,329.67032967033,4,2,1,45,1,1
105867,255.31914893617,4,2,1,45,1,1
105994,330.396475770925,4,2,1,45,1,1
106365,380.469245402663,4,2,1,50,1,1
106555,300,4,2,1,45,1,1
106855,-100,4,2,1,45,0,0
107005,-100,4,2,1,40,0,0
107530,352.941176470588,4,2,1,30,1,0
107882,361.663652802893,4,2,1,30,1,0
108334,352.941176470588,4,2,1,30,1,0
108745,-100,4,2,1,35,0,0
108804,301.053687907677,4,2,1,40,1,0
109105,300,4,2,1,30,1,0
110305,297.029702970297,4,2,1,30,1,0
110305,-100,4,2,1,30,0,0
111196,337.078651685393,4,2,1,30,1,0
111280,333.333333333333,4,2,1,30,1,0
111613,468.75,4,2,1,30,1,0
111730,281.69014084507,4,2,1,30,1,0
112011,216.138328530259,4,2,1,30,1,0
112119,375,4,2,1,30,1,0
113056,317.460317460317,4,2,1,30,1,0
113135,275.229357798165,4,2,1,30,1,0
113410,156.657963446475,4,2,1,30,1,0
113449,436.046511627907,4,2,1,30,1,0
113667,368.098159509202,4,2,1,30,1,0
114035,263.157894736842,4,2,1,30,1,0
114298,315.789473684211,4,2,1,30,1,0
114534,342.857142857143,4,2,1,30,1,0
114791,345.821325648415,4,2,1,30,1,0
114964,432.432432432432,4,2,1,30,1,0
115396,472.44094488189,4,2,1,30,1,0
115868,413.793103448276,4,2,1,30,1,0
116488,472.44094488189,4,2,1,30,1,0
117669,454.89006823351,4,2,1,20,1,0
118351,432.900432900433,4,2,1,20,1,0
118567,472.44094488189,4,2,1,20,1,0
119275,512.820512820513,4,2,1,20,1,0
119531,350.877192982456,4,2,1,30,1,0
119794,428.571428571429,4,2,1,30,1,0
120008,304.568527918782,4,2,1,30,1,0
120845,412.087912087912,4,2,1,30,1,0
120948,333.333333333333,4,2,1,30,1,0
121114,397.350993377483,4,2,1,30,1,0
121213,333.333333333333,4,2,1,30,1,0
121296,252.312867956266,4,2,1,30,1,0
121359,310.23784901758,4,2,1,30,1,0
121669,266.666666666667,4,2,1,30,1,0
122069,392.156862745098,4,2,1,30,1,0
122167,306.122448979592,4,2,1,30,1,0
123085,235.525024533857,4,2,1,30,1,0
123320,316.122233930453,4,2,1,30,1,0
123952,361.44578313253,4,2,1,30,1,0
124313,230.769230769231,4,2,1,30,1,0
124428,352.941176470588,4,2,1,30,1,0
124957,314.13612565445,4,2,1,30,1,0
125428,408.163265306122,4,2,1,30,1,0
125632,451.127819548872,4,2,1,40,1,0
125857,408.163265306122,4,2,1,40,1,0
126469,372.43947858473,4,2,1,40,1,0
126562,508.474576271186,4,2,1,30,1,0
127197,435.413642960813,4,2,1,30,1,0
127632,376.411543287327,4,2,1,30,1,0
127679,375,4,2,1,30,1,0
128429,300,4,2,1,35,1,0
128579,-100,4,2,1,40,0,0
129329,355.029585798817,4,2,1,30,1,0
129506,-100,4,2,1,35,0,0
130217,508.474576271186,4,2,1,30,1,0
132250,244.897959183673,4,2,1,20,1,0
132556,231.660231660232,4,2,1,25,1,0
133019,279.06976744186,4,2,1,30,1,0
133158,400,4,2,1,30,1,0
133208,273.972602739726,4,2,1,30,1,0
133756,327.868852459016,4,2,1,30,1,0
133920,352.941176470588,4,2,1,30,1,0
134096,483.870967741935,4,2,1,30,1,0
134579,400,4,2,1,30,1,0
135179,258.620689655172,4,2,1,20,1,0
135308,352.941176470588,4,2,1,30,1,0
136455,400,4,2,1,30,1,0
137055,355.029585798817,4,2,1,30,1,0
137232,279.06976744186,4,2,1,30,1,0
137511,279.06976744186,4,2,1,30,1,0
137790,306.122448979592,4,2,1,30,1,0
138096,283.687943262411,4,2,1,30,1,0
138805,451.127819548872,4,2,1,30,1,0
139256,375,4,2,1,30,1,0
139631,338.983050847458,4,2,1,30,1,0
139969,300,4,2,1,30,1,0
140269,243.90243902439,4,2,1,30,1,0
140512,224.719101123595,4,2,1,30,1,0
140736,214.285714285714,4,2,1,30,1,0
140950,215.827338129496,4,2,1,30,1,0
141381,307.692307692308,4,2,1,30,1,0
141688,451.127819548872,4,2,1,30,1,0
142138,454.545454545455,4,2,1,30,1,0
142365,387.096774193548,4,2,1,30,1,0
142558,268.456375838926,4,2,1,30,1,0
142692,410.958904109589,4,2,1,30,1,0
142897,331.491712707182,4,2,1,30,1,0
143394,285.035629453682,4,2,1,30,1,0
143679,292.682926829268,4,2,1,65,1,0
143971,335.195530726257,4,2,1,65,1,0
144138,284.36018957346,4,2,1,70,1,0
144991,304.568527918782,4,2,1,70,1,0
145295,270.27027027027,4,2,1,70,1,0
145565,336.134453781513,4,2,1,70,1,0
145733,292.682926829268,4,2,1,70,1,0
146318,316.122233930453,4,2,1,70,1,0
146476,294.117647058824,4,2,1,70,1,0
146476,-96.8992248062015,4,2,1,70,0,0
146623,276.497695852535,4,2,1,70,1,0
146761,309.119010819165,4,2,1,70,1,0
147070,277.777777777778,4,2,1,70,1,0
147347,300,4,2,1,70,1,0
147647,307.692307692308,4,2,1,70,1,0
147647,-94.876660341556,4,2,1,70,0,0
147801,275.229357798165,4,2,1,70,1,0
148076,300,4,2,1,70,1,0
148676,335.195530726257,4,2,1,70,1,0
148843,280.373831775701,4,2,1,70,1,0
149123,298.507462686567,4,2,1,70,1,0
149720,294.117647058824,4,2,1,70,1,0
150308,279.06976744186,4,2,1,70,1,0
150447,300,4,2,1,70,1,0
150897,300,4,2,1,70,1,0
151197,270.27027027027,4,2,1,70,1,0
151197,-113.636363636364,4,2,1,70,0,0
151332,344.827586206897,4,2,1,70,1,0
151504,300,4,2,1,70,1,0
151954,263.157894736842,4,2,1,70,1,0
152085,285.442435775452,4,2,1,70,1,0
152370,285.714285714286,4,2,1,70,1,0
153441,384.615384615385,4,2,1,70,1,0
153537,300,4,2,1,70,1,1
153762,-100,4,2,1,70,0,0
154737,304.568527918782,4,2,1,70,1,0
155041,295.420974889217,4,2,1,70,1,0
155927,297.029702970297,4,2,1,70,1,0
157040,331.12582781457,4,2,1,70,1,0
157123,294.117647058824,4,2,1,70,1,0
158299,304.568527918782,4,2,1,70,1,0
159212,294.117647058824,4,2,1,70,1,0
159947,324.324324324324,4,2,1,70,1,0
160271,292.397660818713,4,2,1,70,1,0
160709,300,4,2,1,70,1,0
161759,359.281437125748,4,2,1,70,1,0
161938,480,4,2,1,70,1,0
161938,-94.4287063267233,4,2,1,70,0,0
162178,298.879202988792,4,2,1,70,1,0
162626,436.046511627907,4,2,1,70,1,0
162844,332.225913621262,4,2,1,70,1,0
163176,275.229357798165,4,2,1,70,1,0
163451,300,4,2,1,70,1,0
164351,300,4,2,1,70,1,0
164801,306.591722023505,4,2,1,70,1,0
165567,293.040293040293,4,2,1,70,1,0
166592,340.909090909091,4,2,1,70,1,0
166762,288.461538461538,4,2,1,70,1,0
166762,-95.4198473282443,4,2,1,70,0,0
166906,-95.4198473282443,4,2,1,65,0,0
167194,312.5,4,2,1,65,1,0
167506,300.751879699248,4,2,1,65,1,0
167957,298.953662182362,4,2,1,70,1,0
168256,-100,4,2,1,70,0,0
169601,320.855614973262,4,2,1,70,1,0
170242,488.599348534202,4,2,1,70,1,0
170364,309.278350515464,4,2,1,70,1,0
171291,309.278350515464,4,2,1,70,1,0
171600,-100,4,2,1,70,0,0
172064,298.507462686567,4,2,1,70,1,0
172213,312.5,4,2,1,70,1,0
172525,304.568527918782,4,2,1,70,1,0
173438,303.79746835443,4,2,1,70,1,0
174653,-100,4,2,1,70,0,0
175260,-91.324200913242,4,2,1,70,0,0
175676,333.333333333333,4,2,1,70,1,1
176342,-100,4,2,1,70,0,0

[Colours]
Combo1 : 122,117,80
Combo2 : 142,43,43
Combo3 : 93,93,93
Combo4 : 83,64,55

[HitObjects]
89,323,9483,6,0,B|52:313|25:341,2,50,8|8|8,0:0|0:0|0:0,0:0:0:0:
132,347,9923,2,0,B|162:357|175:315|200:351|232:333,1,100,6|10,1:2|0:0,0:0:0:0:
326,362,10501,1,2,1:2:0:0:
366,333,10644,1,2,1:2:0:0:
415,329,10789,1,10,0:0:0:0:
489,262,11079,2,0,P|485:231|460:155,1,100,2|10,1:2|0:0,0:0:0:0:
438,126,11514,2,0,B|392:105|392:105|358:157,1,100,2|2,1:2|1:2,0:0:0:0:
333,185,11970,1,10,0:0:0:0:
304,278,12266,6,0,B|273:288|260:246|235:282|203:264,1,100,2|10,1:2|0:0,0:0:0:0:
126,333,12872,1,2,1:2:0:0:
77,343,13016,1,0,1:2:0:0:
36,315,13160,1,10,0:0:0:0:
36,211,13455,2,0,P|26:184|29:106,1,100,2|10,1:2|0:0,0:0:0:0:
20,68,13898,2,0,B|62:45|62:45|129:56,1,100,2|2,1:2|1:2,0:0:0:0:
145,82,14359,1,10,0:0:0:0:
221,7,14673,5,12,1:2:0:0:
288,80,14967,1,12,1:2:0:0:
364,15,15262,1,12,1:2:0:0:
425,94,15557,1,12,1:2:0:0:
511,44,15852,1,8,0:0:0:0:
511,44,16737,1,10,0:0:0:0:
448,120,17078,6,0,B|458:145|458:145|434:232,1,100,6|10,1:2|0:0,0:0:0:0:
340,257,17639,1,2,1:2:0:0:
299,292,17793,1,2,1:2:0:0:
252,274,17948,1,10,0:0:0:0:
154,226,18245,2,0,P|110:204|54:191,1,100,2|10,1:2|0:0,0:0:0:0:
15,163,18684,2,0,B|-11:115|-11:115|2:55,1,100,2|2,1:2|1:2,0:0:0:0:
35,36,19130,1,10,0:0:0:0:
133,77,19445,6,0,B|152:92|152:92|242:99,1,100,2|10,1:2|0:0,0:0:0:0:
299,28,20035,1,2,1:2:0:0:
353,17,20182,1,2,1:2:0:0:
394,45,20330,1,10,0:0:0:0:
480,95,20628,2,0,P|478:121|458:191,1,100,2|10,1:2|0:0,0:0:0:0:
476,239,21063,2,0,B|502:291|502:291|455:354,1,125,2|2,1:2|1:2,0:0:0:0:
413,357,21534,1,10,0:0:0:0:
350,280,21837,5,12,1:2:0:0:
269,338,22132,1,12,1:2:0:0:
207,259,22428,1,12,1:2:0:0:
155,347,22723,1,12,1:2:0:0:
64,329,23019,1,10,0:0:0:0:
64,329,23928,1,8,0:0:0:0:
128,252,24246,6,0,P|129:205|108:145,1,100,6|10,1:2|0:0,0:0:0:0:
67,135,24687,2,0,P|35:147|2:142,2,50,2|2|0,0:0|1:2|1:0,0:0:0:0:
76,85,25128,1,10,0:0:0:0:
139,7,25422,6,0,P|177:27|190:42,1,50,2|0,1:2|0:0,0:0:0:0:
188,81,25716,1,8,0:0:0:0:
225,101,25863,2,0,B|270:114|260:95|329:88,1,100,2|2,1:2|1:2,0:0:0:0:
359,114,26339,1,10,0:0:0:0:
453,82,26645,5,14,1:2:0:0:
464,181,26951,1,14,1:2:0:0:
497,275,27257,1,14,1:2:0:0:
458,367,27563,1,12,1:2:0:0:
366,337,27854,1,0,1:0:0:0:
366,337,29082,6,0,P|331:323|261:313,1,100,2|8,1:2|0:0,0:0:0:0:
222,329,29537,2,0,P|208:359|202:378,2,50,2|0|0,0:0|1:0|1:0,0:0:0:0:
191,289,29993,1,10,0:0:0:0:
236,199,30295,6,0,P|236:165|233:132,1,50,0|2,1:0|0:0,0:0:0:0:
204,107,30597,1,8,0:0:0:0:
156,123,30748,2,0,B|99:128|102:164|54:150,1,100,2|0,1:2|1:0,0:0:0:0:
23,120,31200,1,10,0:0:0:0:
19,10,31524,5,14,1:2:0:0:
118,1,31821,1,14,1:2:0:0:
203,55,32118,1,12,1:2:0:0:
300,30,32415,1,12,1:2:0:0:
380,86,32746,1,8,0:0:0:0:
380,86,33932,6,0,P|345:96|281:147,1,100,6|10,1:2|0:0,0:0:0:0:
264,173,34382,2,0,B|275:192|275:192|309:207,2,50,2|2|0,0:0|1:2|1:0,0:0:0:0:
213,167,34832,1,10,0:0:0:0:
97,178,35132,6,0,P|86:218|83:239,1,50,2|2,1:2|0:0,0:0:0:0:
108,270,35432,1,10,0:0:0:0:
155,275,35582,2,0,B|196:282|194:318|251:332,1,100,2|0,1:2|1:0,0:0:0:0:
277,306,36044,1,8,0:0:0:0:
375,350,36371,5,12,1:2:0:0:
447,281,36674,1,14,1:2:0:0:
387,200,36977,1,12,1:2:0:0:
423,106,37280,1,14,1:2:0:0:
331,66,37583,1,0,1:0:0:0:
331,66,38806,6,0,B|284:54|282:94|229:88,1,100,2|8,1:2|0:0,0:0:0:0:
198,120,39260,2,0,L|204:169,2,50,0|2|0,0:0|1:2|1:0,0:0:0:0:
156,92,39715,1,10,0:0:0:0:
73,36,40018,2,0,P|55:61|51:90,1,50,0|0,1:0|0:0,0:0:0:0:
21,119,40321,1,8,0:0:0:0:
49,154,40472,2,0,B|58:177|58:177|44:226|44:226|57:262,1,100,0|0,1:0|1:0,0:0:0:0:
82,288,40951,1,8,0:0:0:0:
180,281,41251,5,14,1:2:0:0:
266,331,41554,1,14,1:2:0:0:
356,288,41857,1,14,1:2:0:0:
382,191,42160,6,0,B|368:136|368:136|361:130|361:130|352:91,1,100,6|8,1:2|0:0,0:0:0:0:
355,46,42621,2,0,L|377:-8,2,50,0|0|2,0:0|1:0|1:2,0:0:0:0:
305,38,43083,2,0,B|256:29|256:29|202:33,1,100,10|14,0:0|1:2,0:0:0:0:
106,26,43698,1,14,1:2:0:0:
21,79,44006,1,14,1:2:0:0:
36,179,44301,6,0,B|62:233|62:233|59:243|59:243|72:274,1,100,6|8,1:2|0:0,0:0:0:0:
83,318,44762,2,0,L|74:371,2,50,0|0|0,0:0|1:0|1:0,0:0:0:0:
133,320,45224,2,0,B|177:315|177:315|195:255,1,100,10|14,0:0|1:2,0:0:0:0:
162,166,45839,1,14,1:2:0:0:
195,71,46147,1,14,1:2:0:0:
293,46,46460,1,6,1:2:0:0:
293,46,51349,5,12,1:2:0:0:
196,18,51649,1,12,1:2:0:0:
99,42,51949,1,12,1:2:0:0:
55,132,52250,1,12,1:2:0:0:
106,223,52558,1,10,0:0:0:0:
114,219,53454,1,8,0:0:0:0:
192,153,53769,6,0,P|231:139|295:144,1,100,6|10,1:2|0:0,0:0:0:0:
328,172,54230,2,0,P|323:216|323:231,2,50,2|2|0,0:0|1:2|1:0,0:0:0:0:
375,156,54692,1,8,0:0:0:0:
467,194,54999,2,0,P|472:223|473:256,1,50,2|0,1:2|0:0,0:0:0:0:
449,287,55307,1,8,0:0:0:0:
462,335,55461,2,0,B|440:357|391:331|354:357,1,100,2|0,1:2|1:0,0:0:0:0:
317,335,55922,1,8,0:0:0:0:
225,375,56230,5,14,1:2:0:0:
145,306,56538,1,14,1:2:0:0:
45,308,56830,1,14,1:2:0:0:
13,212,57123,1,14,1:2:0:0:
56,122,57416,1,0,1:2:0:0:
60,127,58620,6,0,P|101:116|138:67,1,100,2|8,1:2|0:0,0:0:0:0:
144,23,59083,2,0,P|113:14|96:13,2,50,2|0|0,0:0|1:0|1:0,0:0:0:0:
189,1,59547,1,8,0:0:0:0:
268,61,59857,2,0,P|300:60|325:51,1,50,2|0,1:2|1:0,0:0:0:0:
353,20,60155,1,8,0:0:0:0:
397,29,60300,2,0,B|436:78|412:65|433:134,1,100,2|0,1:2|1:0,0:0:0:0:
462,159,60776,1,10,0:0:0:0:
388,236,61094,5,14,1:2:0:0:
313,168,61391,1,14,1:2:0:0:
217,197,61688,1,12,1:2:0:0:
130,154,61985,1,14,1:2:0:0:
36,187,62293,1,10,0:0:0:0:
36,187,63231,1,8,0:0:0:0:
51,289,63534,6,0,P|77:328|132:327,1,100,6|10,1:2|0:0,0:0:0:0:
172,318,63973,2,0,B|165:296|165:296|162:256,2,50,2|2|0,0:0|1:2|1:0,0:0:0:0:
210,349,64434,1,8,0:0:0:0:
303,312,64742,2,0,L|372:297,1,50,2|0,1:2|0:0,0:0:0:0:
395,325,65049,1,8,0:0:0:0:
434,294,65203,2,0,P|449:236|437:192,1,100,2|0,1:2|1:0,0:0:0:0:
395,173,65665,1,10,0:0:0:0:
444,82,65973,5,14,1:2:0:0:
354,36,66271,1,14,1:2:0:0:
278,99,66570,1,12,1:2:0:0:
188,57,66873,1,12,1:2:0:0:
116,126,67179,1,0,1:0:0:0:
116,126,68397,6,0,B|104:159|104:159|118:234,1,100,2|8,1:2|0:0,0:0:0:0:
158,248,68849,2,0,L|151:299,2,50,0|2|0,0:0|1:2|1:0,0:0:0:0:
203,226,69310,1,10,0:0:0:0:
305,260,69621,2,0,P|329:270|362:289,1,50,2|0,1:2|0:0,0:0:0:0:
398,269,69910,1,8,0:0:0:0:
420,230,70055,2,0,B|409:188|435:182|407:117,1,100,0|0,1:0|1:0,0:0:0:0:
374,94,70538,1,8,0:0:0:0:
276,103,70841,5,14,1:2:0:0:
219,20,71149,1,14,1:2:0:0:
119,28,71457,1,14,1:2:0:0:
54,94,71745,6,0,B|66:142|66:142|59:156|59:156|73:204,1,100,6|8,1:2|0:0,0:0:0:0:
94,232,72211,2,0,L|147:248,2,50,0|0|0,0:0|1:0|1:1,0:0:0:0:
67,274,72677,1,10,0:0:0:0:
37,369,72988,5,14,1:2:0:0:
138,383,73299,1,14,1:2:0:0:
213,317,73596,1,14,1:2:0:0:
182,221,73905,6,0,B|179:175|179:175|182:167|182:167|180:109,1,100,6|8,1:2|0:0,0:0:0:0:
152,80,74354,2,0,L|99:96,2,50,0|0|0,0:0|1:0|1:0,0:0:0:0:
164,31,74820,1,10,0:0:0:0:
259,1,75131,5,14,1:2:0:0:
357,17,75440,1,14,1:2:0:0:
400,98,75723,1,14,1:2:0:0:
359,188,76049,5,6,1:2:0:0:
256,192,92114,12,12,93635,0:0:0:0:
256,192,103873,12,12,109105,1:2:0:0:
256,192,119531,12,2,127632,0:0:0:0:
256,192,132250,12,2,141688,1:2:0:0:
428,326,143679,6,0,P|468:335|499:346,2,50,8|8|8,0:0|0:0|0:0,0:0:0:0:
376,353,144138,2,0,B|360:362|299:304|282:314,1,100,6|10,1:2|0:0,0:0:0:0:
198,360,144706,1,2,1:2:0:0:
149,369,144848,1,2,1:2:0:0:
108,344,144991,1,10,0:0:0:0:
35,258,145295,2,0,P|27:218|8:144,1,100,2|10,1:2|0:0,0:0:0:0:
34,107,145733,2,0,B|65:89|65:89|122:139,1,100,2|2,1:2|1:2,0:0:0:0:
128,179,146172,1,10,0:0:0:0:
225,213,146476,6,0,B|243:216|263:170|319:180,1,100,2|10,1:2|0:0,0:0:0:0:
416,141,147070,1,2,1:2:0:0:
463,154,147208,1,2,1:2:0:0:
484,195,147347,1,10,0:0:0:0:
459,289,147647,2,0,P|457:340|409:363,1,100,2|10,1:2|0:0,0:0:0:0:
375,346,148076,2,0,B|341:322|341:322|279:328,1,100,2|2,1:2|1:2,0:0:0:0:
245,361,148526,1,10,0:0:0:0:
133,363,148843,6,0,P|109:335|116:264,1,100,2|10,1:2|0:0,0:0:0:0:
172,196,149421,1,2,1:2:0:0:
188,148,149570,1,2,1:2:0:0:
177,98,149720,1,8,0:0:0:0:
108,25,150014,2,0,P|63:20|31:73,1,100,2|10,1:2|0:0,0:0:0:0:
10,100,150447,2,0,B|28:134|28:134|109:149,1,100,2|0,1:2|1:2,0:0:0:0:
122,182,150897,1,10,0:0:0:0:
211,116,151197,6,0,P|264:103|289:62,1,100,2|10,1:2|0:0,0:0:0:0:
380,3,151804,1,2,1:2:0:0:
436,4,151954,1,2,1:2:0:0:
460,42,152085,1,10,0:0:0:0:
397,119,152370,6,0,B|404:169|404:169|453:188,1,100,4|8,1:3|1:3,0:0:0:0:
507,268,152941,2,0,L|498:328,1,50,8|8,1:3|0:0,0:0:0:0:
463,352,153227,2,0,L|398:337,1,50,4|8,1:3|0:0,0:0:0:0:
382,294,153537,6,0,P|347:271|282:256,1,100,6|8,1:2|0:0,0:0:0:0:
254,290,153987,2,0,B|247:310|247:310|248:347,2,50,2|2|0,0:0|1:2|1:0,0:0:0:0:
211,263,154437,1,8,0:0:0:0:
236,167,154737,2,0,B|240:148|240:148|234:116,1,50,2|0,1:2|0:0,0:0:0:0:
202,77,155041,1,8,0:0:0:0:
152,82,155188,2,0,B|133:86|133:86|81:73|81:73|60:90,1,100,2|2,1:2|1:2,0:0:0:0:
30,130,155631,1,8,0:0:0:0:
20,229,155927,5,14,1:2:0:0:
65,318,156224,1,12,1:2:0:0:
164,305,156521,1,14,1:2:0:0:
195,210,156818,1,14,1:2:0:0:
142,118,157123,2,0,P|197:52|402:41,1,300,2|8,1:2|0:0,0:0:0:0:
422,132,158299,6,0,P|429:173|444:234,1,100,2|8,1:2|0:0,0:0:0:0:
487,319,158908,1,0,1:0:0:0:
472,366,159060,1,0,1:0:0:0:
421,378,159212,1,10,0:0:0:0:
337,322,159506,2,0,P|288:302|226:290,1,100,0|8,1:0|0:0,0:0:0:0:
217,329,159947,2,0,P|177:336|110:351,1,100,2|0,1:2|1:0,0:0:0:0:
73,329,160417,1,10,0:0:0:0:
15,250,160709,5,12,1:2:0:0:
66,164,161009,1,12,1:2:0:0:
15,77,161309,1,12,1:2:0:0:
83,4,161609,1,14,1:2:0:0:
183,27,161938,2,0,B|201:57|170:101|197:224,1,200,8|8,0:0|0:0,0:0:0:0:
157,317,163176,6,0,P|182:342|250:341,1,100,6|10,1:2|0:0,0:0:0:0:
292,333,163601,2,0,P|306:352|311:379,2,50,2|2|0,0:0|1:2|1:0,0:0:0:0:
302,283,164051,1,8,0:0:0:0:
393,242,164351,2,0,P|428:252|460:244,1,50,2|2,1:2|0:0,0:0:0:0:
474,212,164651,1,8,0:0:0:0:
459,164,164801,2,0,B|466:116|482:119|486:59,1,100,2|0,1:2|1:0,0:0:0:0:
459,24,165260,1,8,0:0:0:0:
357,11,165567,5,14,1:2:0:0:
280,75,165860,1,14,1:2:0:0:
218,0,166153,1,14,1:2:0:0:
118,0,166446,1,14,1:2:0:0:
44,73,166762,2,0,B|12:180|127:169|162:366,1,325,2|8,1:2|0:0,0:0:0:0:
64,377,167957,6,0,P|17:353|12:295,1,100,6|8,1:2|0:0,0:0:0:0:
61,225,168554,1,2,1:2:0:0:
101,194,168704,1,0,0:0:0:0:
98,144,168853,1,8,0:0:0:0:
37,64,169152,2,0,P|37:33|103:3,1,100,0|8,1:0|0:0,0:0:0:0:
124,32,169601,2,0,B|151:46|151:46|228:34,1,100,0|0,1:0|1:0,0:0:0:0:
265,55,170082,1,8,0:0:0:0:
345,12,170364,5,14,1:2:0:0:
441,38,170673,1,14,1:2:0:0:
473,132,170982,1,14,1:2:0:0:
418,215,171291,6,0,B|381:201|381:201|372:205|372:205|309:192,1,100,6|8,1:2|0:0,0:0:0:0:
281,166,171754,2,0,L|279:112,2,50,0|0|2,0:0|1:0|1:2,0:0:0:0:
236,184,172213,1,8,0:0:0:0:
159,115,172525,5,14,1:2:0:0:
59,120,172829,1,14,1:2:0:0:
13,209,173134,1,14,1:2:0:0:
52,300,173438,6,0,B|93:292|93:292|98:298|98:298|154:287,1,100,6|8,1:2|0:0,0:0:0:0:
191,312,173893,2,0,L|193:366,2,50,0|0|0,0:0|1:0|1:0,0:0:0:0:
237,292,174349,1,10,0:0:0:0:
323,340,174653,5,14,1:2:0:0:
418,310,174956,1,14,1:2:0:0:
451,215,175260,2,0,L|436:52,1,150,14|6,1:2|0:0,0:0:0:0:
