osu file format v14

[General]
AudioFilename: 02_22_kocham_cie.ogg
AudioLeadIn: 0
PreviewTime: 131742
Countdown: 0
SampleSet: Soft
StackLeniency: 0.6
Mode: 0
LetterboxInBreaks: 0
WidescreenStoryboard: 1

[Editor]
Bookmarks: 24246,42160,63534,76050,91238,100093,125428,135925,153987,167957
DistanceSpacing: 1.9
BeatDivisor: 4
GridSize: 16
TimelineZoom: 3.2

[Metadata]
Title:Faint Heart
TitleUnicode:Faint Heart
Artist:The Birthday Party
ArtistUnicode:The Birthday Party
Creator:app
Version:Collab Extra
Source:
Tags:the boys next door hee haw noise avant-garde musique concrète concrete postpunk post punk rock post-punk nick cave english squishi audinor zglock nik nikolomara allein aishiteiru-
BeatmapID:4044627
BeatmapSetID:1900177

[Difficulty]
HPDrainRate:5.5
CircleSize:4
OverallDifficulty:8.7
ApproachRate:9.3
SliderMultiplier:1.7
SliderTickRate:1

[Events]
//Background and Video events
0,0,"photo_019.jpg",0,0
//Break Periods
2,46771,50795
//Storyboard Layer 0 (Background)
//Storyboard Layer 1 (Fail)
//Storyboard Layer 2 (Pass)
//Storyboard Layer 3 (Foreground)
//Storyboard Layer 4 (Overlay)
//Storyboard Sound Samples

[TimingPoints]
9483,293.542074363992,4,2,1,65,1,0
9923,293.398533007335,4,2,1,65,1,0
10216,286.259541984733,4,2,1,70,1,0
10645,289.855072463768,4,2,1,70,1,0
10789,289.855072463768,4,2,1,70,1,0
11514,309.278350515464,4,2,1,70,1,0
11823,295.566502463054,4,2,1,70,1,0
12266,303.030303030303,4,2,1,70,1,0
12872,288.461538461538,4,2,1,70,1,0
13160,295.566502463054,4,2,1,70,1,0
13898,326.086956521739,4,2,1,70,1,0
14224,270.27027027027,4,2,1,70,1,0
14359,314.13612565445,4,2,1,70,1,0
14673,294.840294840295,4,2,1,70,1,0
15852,442.477876106195,4,2,1,70,1,0
16294,295.420974889217,4,2,1,65,1,0
16737,341.102899374645,4,2,1,65,1,0
17078,263.157894736842,4,2,1,70,1,0
17341,298.507462686567,4,2,1,70,1,0
17639,309.278350515464,4,2,1,70,1,0
17948,297.397769516729,4,2,1,70,1,0
18245,280.373831775701,4,2,1,70,1,0
18525,318.13361611877,4,2,1,70,1,0
18684,297.397769516729,4,2,1,70,1,0
19130,297.397769516729,4,2,1,70,1,0
19278,335.195530726257,4,2,1,70,1,0
19445,295.420974889217,4,2,1,70,1,0
20331,297.029702970297,4,2,1,70,1,0
20925,276.243093922652,4,2,1,70,1,0
21063,333.333333333333,4,2,1,70,1,0
21396,277.777777777778,4,2,1,70,1,0
21534,303.490136570561,4,2,1,70,1,0
21837,295.566502463054,4,2,1,70,1,0
23019,324.324324324324,4,2,1,70,1,0
23343,-100,4,2,1,65,0,0
23505,423.131170662905,4,2,1,65,1,0
23505,-80,4,2,1,65,0,0
23928,318.13361611877,4,2,1,65,1,0
24007,-100,4,2,1,65,0,0
24246,294.117647058824,4,2,1,70,1,0
24246,-66.6666666666667,4,2,1,70,0,0
24540,-100,4,2,1,70,0,0
25422,-80,4,2,1,70,0,0
25643,-100,4,2,1,70,0,0
25863,340.909090909091,4,2,1,70,1,0
26033,306.122448979592,4,2,1,70,1,0
26645,306.122448979592,4,2,1,70,1,0
27563,280.767430978007,4,2,1,70,1,0
27703,303.030303030303,4,2,1,70,1,0
28006,295.566502463054,4,2,1,65,1,0
28006,-102.564102564103,4,2,1,65,0,0
28153,295.566502463054,4,2,1,65,1,0
28300,323.014804845222,4,2,1,65,1,0
28623,280.373831775701,4,2,1,65,1,0
28903,359.281437125749,4,2,1,65,1,0
29082,303.413400758534,4,2,1,70,1,0
29082,-80,4,2,1,70,0,0
30447,301.507537688442,4,2,1,70,1,0
30447,-80,4,2,1,70,0,0
30597,301.507537688442,4,2,1,70,1,0
30747,-80,4,2,1,70,0,0
31200,-84.0336134453781,4,2,1,70,0,0
31351,346.820809248555,4,2,1,70,1,0
31524,297.029702970297,4,2,1,70,1,0
32563,366.300366300366,4,2,1,70,1,0
32746,337.078651685393,4,2,1,70,1,0
33083,363.967242948135,4,2,1,65,1,0
33083,-285.714285714286,4,2,1,65,0,0
33629,303.030303030303,4,2,1,70,1,0
33932,300,4,2,1,70,1,0
33932,-80,4,2,1,70,0,0
34232,-100,4,2,1,70,0,0
35582,315.789473684211,4,2,1,70,1,0
35897,295.566502463054,4,2,1,70,1,0
36044,327.153762268266,4,2,1,70,1,0
36371,303.030303030303,4,2,1,70,1,0
37886,-100,4,2,1,65,0,0
38492,314.13612565445,4,2,1,65,1,0
38806,303.030303030303,4,2,1,65,1,0
39260,-100,4,2,1,65,0,0
39412,-100,4,2,1,70,0,0
40169,-100,4,2,1,65,0,0
40321,-100,4,2,1,70,0,0
40472,329.67032967033,4,2,1,70,1,0
40801,300,4,2,1,70,1,0
40951,300,4,2,1,70,1,0
41251,303.030303030303,4,2,1,70,1,0
42160,307.692307692308,4,2,1,70,1,0
42160,-80,4,2,1,70,0,0
44160,282.220131702728,4,2,1,70,1,0
44301,307.692307692308,4,2,1,70,1,0
44301,-80,4,2,1,70,0,0
46301,319.148936170213,4,2,1,70,1,0
46460,311.364815775817,4,2,1,65,1,0
46498,-100,4,2,1,33,0,0
47394,301.507537688442,4,2,1,65,1,0
47695,301.507537688442,4,2,1,65,1,0
49203,306.122448979592,4,2,1,65,1,0
50121,306.122448979592,4,2,1,65,1,0
50580,338.983050847458,4,2,1,65,1,0
50918,246.913580246914,4,2,1,65,1,0
51041,307.692307692308,4,2,1,65,1,0
51349,300.375469336671,4,2,1,70,1,0
52400,317.460317460317,4,2,1,70,1,0
52559,300,4,2,1,70,1,0
53159,187.5,4,2,1,65,1,0
53206,248.85939444214,4,2,1,65,1,0
53454,315.789473684211,4,2,1,70,1,0
53769,307.692307692308,4,2,1,70,1,0
53769,-80,4,2,1,70,0,0
56538,292.682926829268,4,2,1,70,1,0
56830,-80,4,2,1,70,0,0
57416,301.507537688442,4,2,1,70,1,0
57717,277.520814061055,4,2,1,70,1,0
57855,356.083086053412,4,2,1,70,1,0
58033,293.757649938801,4,2,1,70,1,0
58620,309.278350515464,4,2,1,70,1,0
60011,289.156626506024,4,2,1,70,1,0
60300,317.628374801482,4,2,1,70,1,0
61094,297.029702970297,4,2,1,70,1,0
61985,308.483290488432,4,2,1,70,1,0
62294,315.789473684211,4,2,1,70,1,0
62767,309.757356737223,4,2,1,70,1,0
62921,309.757356737223,4,2,1,70,1,0
63231,303.030303030303,4,2,1,70,1,0
63534,292.682926829268,4,2,1,70,1,0
63973,307.692307692308,4,2,1,70,1,0
64126,307.692307692308,4,2,1,70,1,0
64741,307.692307692308,4,2,1,70,1,0
65973,298.507462686567,4,2,1,70,1,0
66570,303.030303030303,4,2,1,70,1,0
66873,306.122448979592,4,2,1,70,1,0
67332,283.018867924528,4,2,1,65,1,0
67473,306.122448979592,4,2,1,65,1,0
67626,318.471337579618,4,2,1,65,1,0
67944,266.903914590747,4,2,1,65,1,0
68077,320,4,2,1,65,1,0
68397,301.507537688442,4,2,1,65,1,0
68547,-100,4,2,1,65,0,0
68698,-100,4,2,1,70,0,0
68924,-100,4,2,1,65,0,0
69000,310.55900621118,4,2,1,70,1,0
69621,289.855072463768,4,2,1,70,1,0
70055,322.58064516129,4,2,1,70,1,0
70538,303.030303030303,4,2,1,70,1,0
70841,308.08729139923,4,2,1,70,1,0
71611,268.336314847943,4,2,1,70,1,0
71745,310.880829015544,4,2,1,70,1,0
73299,297.029702970297,4,2,1,70,1,0
73744,323.275862068966,4,2,1,70,1,0
73905,294.117647058824,4,2,1,70,1,0
74199,310.880829015544,4,2,1,70,1,0
75131,309.278350515464,4,2,1,70,1,0
75440,283.018867924528,4,2,1,70,1,0
75723,327.510917030568,4,2,1,70,1,0
76050,300,4,2,1,70,1,0
76050,-85.8369098712446,4,2,1,70,0,0
76350,322.58064516129,4,2,1,70,1,0
76672,338.218714768884,4,2,1,70,1,0
76841,235.294117647059,4,2,1,60,1,0
76958,234.375,4,2,1,60,1,0
77309,297.029702970297,4,2,1,60,1,0
77606,319.659030367608,4,2,1,60,1,0
77925,-100,4,2,1,60,0,1
78085,420.462508759636,4,2,1,55,1,1
78295,257.510729613734,4,2,1,55,1,1
78552,298.656047784968,4,2,1,55,1,1
79447,314.13612565445,4,2,1,50,1,0
80546,304.568527918782,4,2,1,40,1,0
80622,-100,4,2,1,30,0,0
80660,336.134453781513,4,2,1,30,1,0
80996,338.983050847458,4,2,1,30,1,0
81334,293.542074363992,4,2,1,30,1,0
81921,276.115968706857,4,2,1,30,1,0
82059,384.615384615385,4,2,1,30,1,0
82251,327.868852459016,4,2,1,30,1,0
82414,345.224395857307,4,2,1,30,1,0
82759,310.880829015544,4,2,1,30,1,0
83069,310.077519379845,4,2,1,30,1,0
83379,352.941176470588,4,2,1,30,1,0
83996,400,4,2,1,30,1,0
84396,377.358490566038,4,2,1,30,1,0
84679,414.651002073255,4,2,1,30,1,0
85093,315.789473684211,4,2,1,30,1,0
85724,304.568527918782,4,2,1,30,1,0
86485,324.324324324324,4,2,1,30,1,0
86809,368.098159509202,4,2,1,30,1,0
86901,287.081339712919,4,2,1,30,1,0
87618,326.530612244898,4,2,1,40,1,0
88271,337.078651685393,4,2,1,30,1,0
88271,-133.333333333333,4,2,1,30,0,0
88776,393.44262295082,4,2,1,30,1,0
88972,352.941176470588,4,2,1,30,1,0
88972,-134.228187919463,4,2,1,30,0,0
89016,386.473429951691,4,2,1,30,1,0
89402,275.229357798165,4,2,1,30,1,0
89470,398.671096345515,4,2,1,30,1,0
89669,422.684043677351,4,2,1,30,1,0
89880,276.81660899654,4,2,1,30,1,0
89880,-133.333333333333,4,2,1,30,0,0
90295,329.670329670329,4,2,1,30,1,0
90789,256.739409499359,4,2,1,25,1,0
91238,264.31718061674,4,2,1,30,1,0
91238,-66.6666666666667,4,2,1,30,0,0
91502,306.122448979592,4,2,1,30,1,0
92114,303.030303030303,4,2,1,40,1,0
92720,275.229357798165,4,2,1,40,1,0
92995,279.06976744186,4,2,1,40,1,0
93274,276.497695852535,4,2,1,50,1,0
93458,252.100840336134,4,2,1,40,1,0
93542,279.06976744186,4,2,1,40,1,0
93635,276.752767527675,4,2,1,40,1,0
94050,250,4,2,1,40,1,0
94050,-133.333333333333,4,2,1,40,0,0
94550,456.968773800457,4,2,1,40,1,0
94778,282.352941176471,4,2,1,30,1,0
94989,243.90243902439,4,2,1,20,1,0
95232,410.116199589884,4,2,1,15,1,0
95437,-100,4,2,1,30,0,0
95642,449.101796407186,4,2,1,30,1,0
95866,318.809776833156,4,2,1,30,1,0
96105,444.444444444444,4,2,1,15,1,0
96549,296.296296296296,4,2,1,30,1,0
96845,307.692307692308,4,2,1,30,1,0
97460,-100,4,2,1,25,0,0
97613,-100,4,2,1,30,0,0
97691,315.789473684211,4,2,1,30,1,0
98164,332.042058660764,4,2,1,30,1,0
98413,480,4,2,1,30,1,0
98653,-100,4,2,1,25,0,0
99973,-100,4,2,1,30,0,0
100093,240,4,2,1,30,1,0
100333,282.752120640905,4,2,1,30,1,0
100333,-80,4,2,1,30,0,0
100615,303.183425972714,4,2,1,30,1,0
100615,-66.6666666666667,4,2,1,30,0,0
100842,476.190476190476,4,2,1,30,1,0
100842,-66.6666666666667,4,2,1,30,0,0
101556,491.803278688525,4,2,1,15,1,0
101801,480,4,2,1,15,1,0
102041,465.116279069767,4,2,1,13,1,0
102971,465.116279069767,4,2,1,13,1,0
103436,-100,4,2,1,15,0,0
103668,316.622691292876,4,2,1,15,1,0
103826,282.352941176471,4,2,1,40,1,0
103873,218.181818181818,4,2,1,50,1,1
103982,307.692307692308,4,2,1,45,1,1
104366,307.692307692308,4,2,1,45,1,1
104827,319.148936170213,4,2,1,45,1,1
104986,338.983050847458,4,2,1,45,1,1
105070,253.164556962025,4,2,1,45,1,1
105133,337.078651685393,4,2,1,45,1,1
105301,319.148936170213,4,2,1,45,1,1
105620,281.69014084507,4,2,1,45,1,1
105690,382.165605095541,4,2,1,45,1,1
105785,329.67032967033,4,2,1,45,1,1
105867,255.31914893617,4,2,1,45,1,1
105994,330.396475770925,4,2,1,45,1,1
106365,380.469245402663,4,2,1,50,1,1
106555,300,4,2,1,45,1,1
106555,-66.6666666666667,4,2,1,45,0,1
106855,-66.6666666666667,4,2,1,40,0,0
107080,-66.6666666666667,4,2,1,45,0,0
107155,-66.6666666666667,4,2,1,40,0,0
107230,-66.6666666666667,4,2,1,45,0,0
107530,352.941176470588,4,2,1,30,1,0
107882,361.663652802893,4,2,1,30,1,0
108334,352.941176470588,4,2,1,30,1,0
108745,-100,4,2,1,35,0,0
108804,301.053687907677,4,2,1,40,1,0
109105,300,4,2,1,30,1,0
110305,297.029702970297,4,2,1,30,1,0
111196,337.078651685393,4,2,1,30,1,0
111280,333.333333333333,4,2,1,30,1,0
111613,468.75,4,2,1,30,1,0
111730,281.69014084507,4,2,1,30,1,0
112011,216.138328530259,4,2,1,30,1,0
112119,375,4,2,1,30,1,0
113056,317.460317460317,4,2,1,30,1,0
113135,275.229357798165,4,2,1,30,1,0
113410,156.657963446475,4,2,1,30,1,0
113449,436.046511627907,4,2,1,30,1,0
113667,368.098159509202,4,2,1,30,1,0
114035,263.157894736842,4,2,1,30,1,0
114232,-100,4,2,1,5,0,0
114298,315.789473684211,4,2,1,30,1,0
114534,342.857142857143,4,2,1,30,1,0
114791,345.821325648415,4,2,1,30,1,0
114964,432.432432432432,4,2,1,30,1,0
115396,472.44094488189,4,2,1,30,1,0
115868,413.793103448276,4,2,1,30,1,0
116488,472.44094488189,4,2,1,30,1,0
117669,454.89006823351,4,2,1,20,1,0
118351,432.900432900433,4,2,1,20,1,0
118567,472.44094488189,4,2,1,20,1,0
119275,512.820512820513,4,2,1,20,1,0
119531,350.877192982456,4,2,1,30,1,0
119794,428.571428571429,4,2,1,30,1,0
119794,-66.6666666666667,4,2,1,30,0,0
120008,304.568527918782,4,2,1,30,1,0
120845,412.087912087912,4,2,1,30,1,0
120948,333.333333333333,4,2,1,30,1,0
121114,397.350993377483,4,2,1,30,1,0
121213,333.333333333333,4,2,1,30,1,0
121296,252.312867956266,4,2,1,30,1,0
121359,310.23784901758,4,2,1,30,1,0
121359,-50,4,2,1,30,0,0
121669,266.666666666667,4,2,1,30,1,0
122069,392.156862745098,4,2,1,30,1,0
122167,306.122448979592,4,2,1,30,1,0
122167,-66.6666666666667,4,2,1,30,0,0
122626,-100,4,2,1,30,0,0
123085,235.525024533857,4,2,1,30,1,0
123320,316.122233930453,4,2,1,30,1,0
123320,-50,4,2,1,30,0,0
123952,361.44578313253,4,2,1,30,1,0
124313,230.769230769231,4,2,1,30,1,0
124428,352.941176470588,4,2,1,30,1,0
124428,-90.9090909090909,4,2,1,30,0,0
124957,314.13612565445,4,2,1,30,1,0
125428,408.163265306122,4,2,1,30,1,0
125632,451.127819548872,4,2,1,40,1,0
125857,408.163265306122,4,2,1,40,1,0
125857,-76.9230769230769,4,2,1,40,0,0
126061,-55.5555555555556,4,2,1,40,0,0
126469,372.43947858473,4,2,1,40,1,0
126562,508.474576271186,4,2,1,30,1,0
126562,-125,4,2,1,30,0,0
127197,435.413642960813,4,2,1,30,1,0
127632,376.411543287327,4,2,1,30,1,0
127679,375,4,2,1,30,1,0
128429,300,4,2,1,35,1,0
129329,355.029585798817,4,2,1,30,1,0
130217,508.474576271186,4,2,1,30,1,0
132250,244.897959183673,4,2,1,20,1,0
132556,231.660231660232,4,2,1,25,1,0
132556,-133.333333333333,4,2,1,25,0,0
132787,-100,4,2,1,30,0,0
132844,-100,4,2,1,25,0,0
132902,-100,4,2,1,30,0,0
133019,279.06976744186,4,2,1,30,1,0
133158,400,4,2,1,30,1,0
133208,273.972602739726,4,2,1,30,1,0
133481,-133.333333333333,4,2,1,30,0,0
133756,327.868852459016,4,2,1,30,1,0
133920,352.941176470588,4,2,1,30,1,0
134096,483.870967741935,4,2,1,30,1,0
134337,-89.6860986547085,4,2,1,30,0,0
134579,400,4,2,1,30,1,0
134879,-100,4,2,1,20,0,0
135179,258.620689655172,4,2,1,20,1,0
135179,-66.6666666666667,4,2,1,20,0,0
135308,352.941176470588,4,2,1,30,1,0
135925,-250,4,2,1,30,0,0
136455,400,4,2,1,30,1,0
136855,-100,4,2,1,30,0,0
137055,355.029585798817,4,2,1,30,1,0
137232,279.06976744186,4,2,1,30,1,0
137232,-200,4,2,1,30,0,0
137511,279.06976744186,4,2,1,30,1,0
137790,306.122448979592,4,2,1,30,1,0
137790,-166.666666666667,4,2,1,30,0,0
138096,283.687943262411,4,2,1,30,1,0
138521,-142.857142857143,4,2,1,30,0,0
138805,451.127819548872,4,2,1,30,1,0
139256,375,4,2,1,30,1,0
139631,338.983050847458,4,2,1,30,1,0
139969,300,4,2,1,30,1,0
140269,243.90243902439,4,2,1,30,1,0
140512,224.719101123595,4,2,1,30,1,0
140736,214.285714285714,4,2,1,30,1,0
140950,215.827338129496,4,2,1,30,1,0
140950,-133.333333333333,4,2,1,30,0,0
141165,-200,4,2,1,30,0,0
141381,307.692307692308,4,2,1,30,1,0
141381,-200,4,2,1,30,0,0
141688,451.127819548872,4,2,1,30,1,0
142138,454.545454545455,4,2,1,30,1,0
142365,387.096774193548,4,2,1,30,1,0
142365,-133.333333333333,4,2,1,30,0,0
142558,268.456375838926,4,2,1,30,1,0
142692,410.958904109589,4,2,1,30,1,0
142897,331.491712707182,4,2,1,30,1,0
143394,285.035629453682,4,2,1,30,1,0
143679,292.682926829268,4,2,1,65,1,0
143971,335.195530726257,4,2,1,65,1,0
144138,284.36018957346,4,2,1,70,1,0
144991,304.568527918782,4,2,1,70,1,0
145295,270.27027027027,4,2,1,70,1,0
145565,336.134453781513,4,2,1,70,1,0
145733,292.682926829268,4,2,1,70,1,0
146318,316.122233930453,4,2,1,70,1,0
146476,294.117647058824,4,2,1,70,1,0
146623,276.497695852535,4,2,1,70,1,0
146761,309.119010819165,4,2,1,70,1,0
147070,277.777777777778,4,2,1,70,1,0
147347,300,4,2,1,70,1,0
147647,307.692307692308,4,2,1,70,1,0
147801,275.229357798165,4,2,1,70,1,0
148076,300,4,2,1,70,1,0
148676,335.195530726257,4,2,1,70,1,0
148843,280.373831775701,4,2,1,70,1,0
149123,298.507462686567,4,2,1,70,1,0
149720,294.117647058824,4,2,1,70,1,0
150308,279.06976744186,4,2,1,70,1,0
150447,300,4,2,1,70,1,0
150897,300,4,2,1,70,1,0
151197,270.27027027027,4,2,1,70,1,0
151332,344.827586206897,4,2,1,70,1,0
151504,300,4,2,1,70,1,0
151954,263.157894736842,4,2,1,70,1,0
152085,285.442435775452,4,2,1,70,1,0
152370,285.714285714286,4,2,1,70,1,0
153441,384.615384615385,4,2,1,70,1,0
153537,300,4,2,1,70,1,1
153537,-86.9565217391304,4,2,1,70,0,1
153762,-86.9565217391304,4,2,1,70,0,0
154737,304.568527918782,4,2,1,70,1,0
155041,295.420974889217,4,2,1,70,1,0
155927,297.029702970297,4,2,1,70,1,0
157040,331.12582781457,4,2,1,70,1,0
157123,294.117647058824,4,2,1,70,1,0
157196,-142.857142857143,4,2,1,70,0,0
158225,-142.857142857143,4,2,1,5,0,0
158299,304.568527918782,4,2,1,70,1,0
159212,294.117647058824,4,2,1,70,1,0
159947,324.324324324324,4,2,1,70,1,0
160271,292.397660818713,4,2,1,70,1,0
160709,300,4,2,1,70,1,0
160709,-83.3333333333333,4,2,1,70,0,0
161759,359.281437125748,4,2,1,70,1,0
161938,480,4,2,1,70,1,0
162178,298.879202988792,4,2,1,70,1,0
162626,436.046511627907,4,2,1,70,1,0
162844,332.225913621262,4,2,1,70,1,0
163176,275.229357798165,4,2,1,70,1,0
163451,300,4,2,1,70,1,0
164351,300,4,2,1,70,1,0
164801,306.591722023505,4,2,1,70,1,0
165567,293.040293040293,4,2,1,70,1,0
166592,340.909090909091,4,2,1,70,1,0
166762,288.461538461538,4,2,1,70,1,0
167050,-100,4,2,1,65,0,0
167194,312.5,4,2,1,65,1,0
167506,300.751879699248,4,2,1,65,1,0
167957,298.953662182362,4,2,1,70,1,0
169601,320.855614973262,4,2,1,70,1,0
170242,488.599348534202,4,2,1,70,1,0
170364,309.278350515464,4,2,1,70,1,0
171291,309.278350515464,4,2,1,70,1,0
171291,-83.3333333333333,4,2,1,70,0,0
172064,298.507462686567,4,2,1,70,1,0
172213,312.5,4,2,1,70,1,0
172525,304.568527918782,4,2,1,70,1,0
173438,303.79746835443,4,2,1,70,1,0
173438,-83.3333333333333,4,2,1,70,0,0
175676,333.333333333333,4,2,1,70,1,1
175676,-66.6666666666667,4,2,1,70,0,1
176342,-100,4,2,1,5,0,0

[Colours]
Combo1 : 122,117,80
Combo2 : 142,43,43
Combo3 : 93,93,93
Combo4 : 83,64,55

[HitObjects]
11,37,9483,6,0,B|27:51|27:51|60:58,1,42.5,8|0,0:0|0:0,0:0:0:0:
22,66,9629,2,0,B|78:41|78:41|108:57,1,85,8|8,0:0|0:0,0:0:0:0:
376,91,9923,6,0,B|333:78|333:78|269:125|269:125|281:184,1,170,6|10,1:2|0:0,0:0:0:0:
403,266,10359,1,0,0:0:0:0:
473,210,10502,2,0,L|488:300,1,85,2|2,1:2|1:2,0:0:0:0:
258,379,10789,2,0,B|260:304|338:314|325:215,1,170,10|2,0:0|1:2,0:0:0:0:
204,176,11224,1,2,0:0:0:0:
159,243,11369,1,10,0:0:0:0:
30,191,11514,2,0,B|10:153|10:153|59:29,1,170,2|2,1:2|1:2,0:0:0:0:
159,243,11970,2,0,B|171:273|171:273|139:342,1,85,10|2,0:0|0:0,0:0:0:0:
402,70,12266,6,0,P|396:101|378:129,1,42.5,2|0,1:2|0:0,0:0:0:0:
433,106,12417,2,0,P|451:126|448:158,1,42.5,0|0,1:0|0:0,0:0:0:0:
369,136,12569,2,0,L|200:176,1,170,10|2,0:0|1:2,0:0:0:0:
133,115,13016,1,0,1:2:0:0:
303,165,13160,2,0,B|253:232|307:260|246:328,1,170,10|2,0:0|1:2,0:0:0:0:
356,377,13603,1,2,0:0:0:0:
412,255,13751,1,10,0:0:0:0:
224,299,13898,2,0,P|144:318|86:395,1,170,2|2,1:2|1:2,0:0:0:0:
9,268,14359,2,0,P|27:234|25:164,1,85,10|2,0:0|0:0,0:0:0:0:
243,67,14673,5,12,1:2:0:0:
393,350,14967,1,12,1:2:0:0:
258,41,15262,1,12,1:2:0:0:
116,351,15557,1,12,1:2:0:0:
257,3,15852,1,8,0:0:0:0:
246,24,16294,6,0,P|254:94|264:211,1,170,2|2,0:0|0:0,0:0:0:0:
285,354,16737,2,0,P|293:338|286:307,1,42.5,10|0,0:0|0:0,0:0:0:0:
12,155,17078,6,0,B|96:177|74:213|174:244,1,170,6|10,1:2|0:0,0:0:0:0:
262,163,17490,1,0,0:0:0:0:
321,215,17639,2,0,L|431:232,1,85,2|2,1:2|1:2,0:0:0:0:
212,103,17948,2,0,L|41:80,1,170,10|2,0:0|1:2,0:0:0:0:
0,17,18385,1,2,0:0:0:0:
23,229,18525,1,10,0:0:0:0:
169,275,18684,6,0,P|200:340|303:339,1,170,2|2,1:2|1:2,0:0:0:0:
380,278,19130,2,0,L|368:172,1,85,10|2,0:0|0:0,0:0:0:0:
134,4,19445,6,0,L|123:69,1,42.5,2|0,1:2|0:0,0:0:0:0:
173,43,19592,2,0,L|195:102,1,42.5,0|0,1:0|0:0,0:0:0:0:
231,50,19740,2,0,L|200:221,1,170,10|2,0:0|1:2,0:0:0:0:
81,255,20183,1,2,1:2:0:0:
203,331,20331,6,0,B|301:360|275:289|381:323,1,170,10|2,0:0|1:2,0:0:0:0:
512,252,20776,1,2,0:0:0:0:
453,327,20925,1,10,0:0:0:0:
354,210,21063,2,0,B|308:138|308:138|336:35,1,170,2|2,1:2|1:2,0:0:0:0:
496,66,21534,2,0,B|521:105|521:105|503:171,1,85,10|2,0:0|0:0,0:0:0:0:
88,130,21837,5,12,1:2:0:0:
400,342,22132,1,12,1:2:0:0:
78,85,22428,1,12,1:2:0:0:
501,207,22723,1,12,1:2:0:0:
35,116,23019,6,0,P|83:120|196:56,1,170,10|2,0:0|0:0,0:0:0:0:
350,0,23505,6,2,B|337:44|337:44|342:51|342:51|311:64|311:64|284:151,1,159.375,2|0,0:0|0:0,0:1:0:0:
338,289,23928,2,0,L|353:366,1,42.5,8|0,0:0|0:0,0:0:0:0:
347,331,24246,6,0,B|333:365|333:365|359:333|359:333|384:344|384:344|453:274,1,191.250007295609,6|0,1:2|0:0,0:0:0:0:
451,231,24540,2,0,B|439:227|439:227|442:259|442:259|429:281,2,42.5,10|0|2,0:0|0:0|0:0,0:0:0:0:
249,265,24834,2,0,B|182:251|182:251|158:229,1,85,2|0,1:2|1:0,0:0:0:0:
60,157,25128,2,0,L|109:142,1,42.5,10|0,0:0|0:0,0:0:0:0:
0,176,25275,2,0,L|49:161,1,42.5,2|0,0:0|0:0,0:0:0:0:
204,126,25422,6,0,B|167:109|171:-10|56:81,1,159.375,2|2,1:2|0:0,0:0:0:0:
85,60,25716,2,0,L|118:9,2,42.5,8|0|2,0:0|0:0|1:2,0:0:0:0:
255,42,26033,2,0,B|271:47|271:47|354:2,1,85,2|2,0:0|1:2,0:0:0:0:
512,96,26339,2,0,B|479:125|479:125|390:171,1,127.5,10|0,0:0|0:0,0:0:0:0:
380,152,26645,1,14,1:2:0:0:
0,192,26951,5,14,1:2:0:0:
256,384,27257,1,14,1:2:0:0:
512,192,27563,1,12,1:2:0:0:
436,146,27854,5,0,1:0:0:0:
436,146,28006,2,2,B|392:101|322:151|377:277|285:320,1,255,0|0,0:0|0:0,0:1:0:0:
217,333,28623,1,2,1:2:0:0:
141,294,28763,1,10,0:0:0:0:
129,289,28833,1,0,0:0:0:0:
142,287,28903,1,2,0:0:0:0:
34,182,29082,6,0,B|24:179|24:179|55:280,1,106.25,2|0,1:2|1:0,0:0:0:0:
245,172,29385,2,0,L|203:128,1,53.125,8|0,0:0|0:0,0:0:0:0:
197,35,29537,6,0,B|207:32|207:32|176:133,1,106.25,2|0,0:0|1:0,0:0:0:0:
390,328,29840,2,0,L|432:284,1,53.125,0|2,1:0|0:0,0:0:0:0:
438,191,29992,6,0,B|428:188|428:188|459:289,1,106.25,10|0,0:0|0:0,0:0:0:0:
241,373,30295,2,0,L|250:315,1,53.125,0|0,1:0|0:0,0:0:0:0:
233,235,30447,6,0,B|325:176|305:311|305:311,1,106.25,2|8,0:0|0:0,0:0:0:0:
127,316,30748,2,0,B|108:301|108:301|38:298|38:298|-13:267,2,106.25,2|0|0,1:2|0:0|1:0,0:0:0:0:
355,379,31200,2,0,L|541:352,1,159.375,10|0,0:0|0:0,0:0:0:0:
512,356,31524,1,14,1:2:0:0:
483,132,31821,6,0,L|432:238,1,85,14|0,1:2|1:0,0:0:0:0:
222,238,32118,6,0,L|171:344,1,85,12|2,1:2|1:2,0:0:0:0:
60,43,32415,6,0,L|9:149,1,85,12|0,1:2|1:0,0:0:0:0:
368,73,32746,5,8,0:0:0:0:
368,73,33083,2,0,L|398:66,3,29.7499990921021,2|0|0|8,0:0|0:0|0:0|0:0,0:0:0:0:
346,197,33932,6,0,B|348:222|348:222|415:269|415:269|484:249,1,159.375,6|0,1:2|0:0,0:0:0:0:
465,254,34232,1,10,0:0:0:0:
512,319,34382,1,2,0:0:0:0:
347,369,34532,2,0,L|247:349,1,85,2|0,1:2|1:0,0:0:0:0:
117,214,34832,2,0,B|192:198|192:198|220:176,1,85,10|0,0:0|0:0,0:0:0:0:
370,73,35132,5,2,1:2:0:0:
446,57,35282,1,2,0:0:0:0:
493,119,35432,1,10,0:0:0:0:
357,164,35582,5,2,1:2:0:0:
250,142,35739,1,0,0:0:0:0:
194,28,35897,1,0,1:0:0:0:
272,35,36044,1,8,0:0:0:0:
146,87,36207,1,0,0:0:0:0:
80,36,36371,5,12,1:2:0:0:
195,332,36674,1,14,1:2:0:0:
512,298,36977,1,12,1:2:0:0:
399,7,37280,1,14,1:2:0:0:
303,73,37583,6,0,L|287:269,1,170,0|8,1:0|0:0,0:0:0:0:
412,370,38037,2,0,P|474:359|501:253,1,170,0|0,1:0|1:0,0:0:0:0:
324,349,38492,2,0,L|258:335,1,42.5,10|0,0:0|0:0,0:0:0:0:
260,330,38649,1,0,0:0:0:0:
153,238,38806,5,2,1:2:0:0:
14,307,38957,1,0,1:0:0:0:
113,303,39109,2,0,L|138:389,1,85,8|0,0:0|0:0,0:0:0:0:
43,211,39412,2,0,L|95:29,1,170,2|10,1:2|0:0,0:0:0:0:
22,0,39866,1,2,1:2:0:0:
167,19,40018,5,0,1:0:0:0:
239,47,40169,1,0,0:0:0:0:
315,67,40321,1,8,0:0:0:0:
222,73,40472,2,0,L|269:236,1,170,0|0,1:0|1:0,0:0:0:0:
337,291,40951,1,8,0:0:0:0:
277,345,41101,1,0,0:0:0:0:
512,192,41251,5,14,1:2:0:0:
256,192,41554,1,14,1:2:0:0:
0,192,41857,1,14,1:2:0:0:
408,9,42160,6,0,B|391:63|391:63|481:149|481:149|503:221,1,212.5,6|8,1:2|0:0,0:0:0:0:
220,138,42621,1,0,0:0:0:0:
287,102,42775,2,0,B|343:153|343:153|401:162,1,106.25,0|2,1:0|1:2,0:0:0:0:
70,189,43083,2,0,B|48:256|48:256|35:266|35:266|7:363,1,159.375,10|0,0:0|0:0,0:0:0:0:
44,362,43390,5,14,1:2:0:0:
240,4,43698,1,14,1:2:0:0:
495,302,44006,1,14,1:2:0:0:
269,113,44301,6,0,B|199:96|199:96|133:177|133:177|71:169,1,212.5,6|8,1:2|0:0,0:0:0:0:
12,48,44762,1,0,0:0:0:0:
161,0,44916,2,0,L|96:101,1,106.25,0|0,1:0|1:0,0:0:0:0:
322,232,45224,2,0,B|266:282|266:282|167:280,1,159.375,10|0,0:0|0:0,0:0:0:0:
119,242,45531,5,14,1:2:0:0:
512,384,45839,1,14,1:2:0:0:
456,0,46147,1,14,1:2:0:0:
59,368,46460,2,0,L|34:360,1,21.25,6|0,1:2|0:0,0:0:0:0:
222,172,51349,5,12,1:2:0:0:
130,368,51649,1,12,1:2:0:0:
413,119,51949,1,12,1:2:0:0:
205,363,52250,1,12,1:2:0:0:
75,12,52559,6,0,P|86:62|93:108,1,85,10|2,0:0|0:0,0:0:0:0:
39,239,52859,2,0,P|8:297|-14:341,1,85,2|2,0:0|0:0,0:0:0:0:
166,41,53159,1,2,0:0:0:0:
143,156,53288,1,2,0:0:0:0:
386,231,53454,6,0,L|360:86,1,127.5,8|0,0:0|0:0,0:0:0:0:
394,61,53769,2,0,P|452:64|496:162,1,159.375,6|0,1:2|0:0,0:0:0:0:
467,170,54076,1,10,0:0:0:0:
303,145,54230,1,2,0:0:0:0:
145,121,54384,2,0,L|188:349,1,212.5,2|8,1:2|0:0,0:0:0:0:
377,274,54845,1,0,0:0:0:0:
192,315,54999,6,0,B|213:349|213:349|298:388,1,106.25,2|0,1:2|0:0,0:0:0:0:
512,13,55307,2,0,L|504:66,1,53.125,8|0,0:0|0:0,0:0:0:0:
455,155,55461,2,0,B|454:126|454:126|334:75,1,159.375,2|0,1:2|0:0,0:0:0:0:
299,95,55769,1,0,1:0:0:0:
377,274,55922,1,8,0:0:0:0:
434,33,56076,1,0,0:0:0:0:
55,0,56230,5,14,1:2:0:0:
255,310,56538,1,14,1:2:0:0:
443,29,56830,2,0,B|380:2|380:2|346:16,1,106.25,14|2,1:2|1:2,0:0:0:0:
388,348,57123,2,0,B|360:364|360:364|272:330,1,106.25,14|2,1:2|1:2,0:0:0:0:
255,310,57342,5,8,0:0:0:0:
255,310,57416,1,0,1:2:0:0:
306,161,57566,1,2,0:0:0:0:
147,203,57717,1,8,0:0:0:0:
183,104,57855,2,0,P|177:153|160:208,1,85,0|0,1:0|0:0,0:0:0:0:
1,173,58179,5,2,1:2:0:0:
147,203,58326,1,10,0:0:0:0:
306,234,58473,1,2,0:0:0:0:
452,264,58620,6,0,L|277:284,1,170,2|8,1:2|0:0,0:0:0:0:
486,12,59083,2,0,L|421:1,1,42.5,2|0,0:0|0:0,0:0:0:0:
409,36,59238,2,0,L|308:21,1,85,0|0,1:0|1:0,0:0:0:0:
260,64,59470,1,2,1:2:0:0:
260,64,59547,2,0,L|229:241,1,170,8|2,0:0|1:2,0:0:0:0:
44,383,60011,6,0,L|23:281,1,85,0|8,1:0|0:0,0:0:0:0:
373,157,60300,2,0,B|406:337,1,170,2|0,1:2|1:0,0:0:0:0:
184,318,60776,1,10,0:0:0:0:
257,137,60935,1,0,0:0:0:0:
312,361,61094,5,14,1:2:0:0:
126,36,61391,1,14,1:2:0:0:
395,366,61688,1,12,1:2:0:0:
42,31,61985,1,14,1:2:0:0:
147,268,62294,6,0,P|186:262|253:238,1,85,10|2,0:0|0:0,0:0:0:0:
0,367,62609,2,0,P|74:384|110:385,1,85,2|2,0:0|0:0,0:0:0:0:
270,326,62921,2,0,P|314:304|355:261,1,85,2|2,0:0|0:0,0:0:0:0:
248,105,63231,2,0,L|216:51,1,42.5,8|0,0:0|0:0,0:0:0:0:
226,68,63534,6,0,B|81:112,1,127.5,6|0,1:2|0:0,0:0:0:0:
104,105,63826,1,10,0:0:0:0:
35,59,63973,1,2,0:0:0:0:
3,221,64126,2,0,L|109:204,1,85,2|0,1:2|1:0,0:0:0:0:
278,287,64434,2,0,B|194:300|194:300|156:339,1,127.5,8|0,0:0|0:0,0:0:0:0:
164,330,64742,5,2,1:2:0:0:
199,192,64894,2,0,L|222:93,1,85,0|8,0:0|0:0,0:0:0:0:
360,384,65202,2,0,L|400:209,1,170,2|0,1:2|1:0,0:0:0:0:
444,53,65664,2,0,P|496:72|499:154,1,127.5,10|0,0:0|0:0,0:0:0:0:
508,137,65973,5,14,1:2:0:0:
245,19,66271,1,14,1:2:0:0:
24,194,66570,1,12,1:2:0:0:
267,365,66873,1,12,1:2:0:0:
267,365,67179,6,0,L|243:263,1,85,0|0,1:0|1:0,0:0:0:0:
318,233,67473,1,8,0:0:0:0:
178,331,67626,2,0,L|219:156,1,170,0|0,1:0|1:0,0:0:0:0:
365,329,68077,1,10,0:0:0:0:
436,352,68237,1,0,0:0:0:0:
491,247,68397,6,0,L|467:153,1,85,2|0,1:2|1:0,0:0:0:0:
348,2,68698,2,0,L|313:141,1,127.5,8|0,0:0|0:0,0:0:0:0:
316,125,69000,2,0,B|405:109,1,85,2|0,1:2|1:0,0:0:0:0:
228,48,69310,1,10,0:0:0:0:
158,90,69465,1,2,0:0:0:0:
44,27,69621,5,2,1:2:0:0:
44,27,69765,2,0,L|132:15,1,85,0|8,0:0|0:0,0:0:0:0:
95,180,70055,2,0,B|68:239|68:239|94:332,1,127.5,0|0,1:0|0:0,0:0:0:0:
85,299,70377,1,0,1:0:0:0:
163,280,70538,1,8,0:0:0:0:
237,260,70689,1,0,0:0:0:0:
102,381,70841,5,14,1:2:0:0:
402,67,71149,1,14,1:2:0:0:
24,370,71457,1,14,1:2:0:0:
469,0,71745,6,0,L|517:148,1,127.5,6|0,1:2|0:0,0:0:0:0:
508,121,72055,2,0,L|488:228,1,85,8|0,0:0|0:0,0:0:0:0:
338,159,72366,2,0,L|248:220,1,85,0|0,1:0|1:1,0:0:0:0:
187,77,72677,2,0,L|80:56,1,85,10|0,0:0|0:0,0:0:0:0:
45,190,72988,5,14,1:2:0:0:
481,279,73299,1,14,1:2:0:0:
0,108,73596,1,14,1:2:0:0:
189,363,73905,6,0,L|347:325,1,127.5,6|0,1:2|0:0,0:0:0:0:
312,333,74199,2,0,B|272:287|272:287|227:279,1,85,8|0,0:0|0:0,0:0:0:0:
363,174,74509,2,0,B|301:170|301:170|263:196,1,85,0|0,1:0|1:0,0:0:0:0:
255,25,74820,2,0,B|208:65|208:65|200:110,1,85,10|0,0:0|0:0,0:0:0:0:
380,83,75131,5,14,1:2:0:0:
0,139,75440,1,14,1:2:0:0:
415,0,75723,1,14,1:2:0:0:
58,295,76050,6,0,B|130:251|338:211|423:367,1,410.124990143633,6|0,1:2|1:0,0:0:0:0:
419,290,76841,1,0,1:0:0:0:
460,216,76958,1,8,0:0:0:0:
92,348,77309,2,0,B|97:287|136:252|179:235|216:250,1,170,0|8,1:0|0:0,0:0:0:0:
499,13,77925,6,0,P|490:75|459:73,1,85,2|0,0:0|1:0,0:0:0:0:
432,0,78295,1,10,0:0:0:0:
414,117,78552,6,0,P|387:267|377:379,1,255,0|8,1:0|0:0,0:0:0:0:
16,193,79447,5,0,1:0:0:0:
433,128,80546,2,0,L|484:119,1,42.5,10|8,0:0|0:0,0:0:0:0:
391,93,80660,1,0,1:0:0:0:
387,97,80996,6,0,L|268:86,2,85,2|0|0,0:0|0:0|1:0,0:0:0:0:
250,165,81480,2,0,L|131:176,2,85,2|2|2,0:0|0:0|0:0,0:0:0:0:
115,89,81921,2,0,L|60:57,2,42.5,2|0|2,0:0|1:0|0:0,0:0:0:0:
203,278,82251,2,0,L|178:186,1,85,2|0,0:0|1:0,0:0:0:0:
461,7,82759,6,0,L|450:118,2,85,2|2|2,0:0|0:0|0:0,0:0:0:0:
327,244,83224,2,0,L|318:159,1,85,2|2,0:0|0:0,0:0:0:0:
359,44,83555,1,2,1:2:0:0:
475,362,83996,1,0,1:0:0:0:
29,337,84679,6,0,L|100:328,1,42.5,2|0,1:2|0:0,0:0:0:0:
40,352,84886,2,0,L|156:372,1,85,0|2,0:0|0:0,0:0:0:0:
158,338,85250,2,0,P|130:310|114:298,1,56.6666666666667,2|0,0:0|1:0,0:0:0:0:
103,292,85408,1,2,0:0:0:0:
261,324,85566,1,2,0:0:0:0:
191,343,85724,1,2,0:0:0:0:
191,343,85800,2,0,L|216:263,1,42.5,0|2,1:0|0:0,0:0:0:0:
147,201,86028,6,0,P|126:176|139:99,1,85,2|2,0:0|0:0,0:0:0:0:
394,63,86333,2,0,P|384:108|361:169,1,85,2|2,0:0|1:2,0:0:0:0:
307,228,86647,2,0,P|314:285|332:335,1,85
377,333,86901,6,0,B|418:335|462:371|462:371|415:322|397:304,1,170,2|2,1:2|1:2,0:0:0:0:
366,296,87259,1,0,0:0:0:0:
366,296,87331,1,0,0:0:0:0:
79,137,87618,6,0,L|35:75,1,42.5,2|0,1:2|0:0,0:0:0:0:
151,43,87781,2,0,P|181:89|132:188,1,170
495,28,88271,6,2,B|373:8|373:8|366:12|366:12|354:90,1,191.250007295609,2|2,0:1|0:1,0:1:0:0:
283,101,88972,2,0,L|271:211,1,85,2|0,1:0|0:0,0:0:0:0:
339,225,89402,2,0,B|328:244|328:244|342:279,1,42.5,2|0,0:1|0:0,0:0:0:0:
374,352,89669,5,0,1:0:0:0:
374,352,89880,2,0,P|449:348|470:235,1,191.250007295609,0|0,1:0|1:0,0:0:0:0:
421,173,90541,1,0,0:0:0:0:
421,173,90789,1,0,0:0:0:0:
421,173,91045,1,2,0:0:0:0:
314,153,91238,6,2,B|258:138|258:138|325:217,1,127.500004863739,4|0,0:0|0:0,0:1:0:0:
314,153,91502,2,0,L|115:190,1,170
11,339,92114,6,0,L|98:323,1,56.6666666666667,8|8,0:0|0:0,0:0:0:0:
157,303,92316,1,8,3:0:0:0:
211,317,92417,1,4,3:0:0:0:
265,330,92518,5,8,0:0:0:0:
269,325,92619,1,10,0:0:0:0:
209,343,92720,1,8,0:0:0:0:
155,359,92811,1,8,0:0:0:0:
185,310,92903,1,4,3:0:0:0:
217,264,92995,1,8,0:0:0:0:
172,228,93088,1,8,0:0:0:0:
199,190,93181,1,4,3:0:0:0:
163,172,93274,1,8,3:0:0:0:
172,163,93366,1,8,0:0:0:0:
158,161,93458,1,4,3:0:0:0:
164,158,93542,1,8,0:0:0:0:
148,120,93635,6,0,B|232:28|232:28|184:130,1,226.666666666667,12|0,0:0|0:0,0:0:0:0:
188,120,94050,2,0,L|144:11,2,95.6250036478044
275,141,94550,1,2,0:0:0:0:
343,101,94778,1,0,0:0:0:0:
320,20,94989,1,0,0:0:0:0:
352,210,95232,5,0,0:0:0:0:
432,217,95437,1,0,1:0:0:0:
352,210,95642,1,0,1:0:0:0:
434,199,95866,1,0,1:0:0:0:
400,301,96105,5,0,0:0:0:0:
400,301,96327,1,0,0:0:0:0:
329,345,96549,2,0,P|285:340|263:302,1,85,0|0,1:0|0:0,0:0:0:0:
234,183,96845,6,0,B|144:124|104:197|144:243|80:291|21:303,1,255,2|0,0:0|0:0,0:0:0:0:
46,295,97460,2,0,B|39:288|39:288|65:194,1,85,0|0,1:0|0:0,0:0:0:0:
134,144,97691,6,0,B|125:155|125:155|188:125|188:125|193:127|193:127|288:168|288:168|350:108,1,255,2|0,1:2|1:0,0:0:0:0:
339,38,98413,2,0,B|299:-47|328:49|328:49,2,85,2|0|0,0:0|0:0|0:0,0:0:0:0:
412,89,99133,1,0,0:0:0:0:
439,168,99373,1,0,0:0:0:0:
465,246,99613,2,0,L|527:400,1,127.5
411,384,100093,6,0,L|443:300,1,85,0|0,1:0|0:0,0:0:0:0:
274,107,100333,2,0,L|299:232,1,106.25,2|0,1:2|0:0,0:0:0:0:
102,330,100615,6,2,L|178:351,2,63.7500024318696,0|0|0,0:0|0:0|0:0,0:1:0:0:
84,350,100842,2,2,B|93:332|93:332|75:232|75:232|90:221|90:221|100:124|100:124|84:78|84:78|100:150|100:150|117:191,1,382.500014591218,0|0,0:0|0:0,0:1:0:0:
456,28,101801,5,0,0:0:0:0:
413,42,102041,1,0,0:0:0:0:
426,83,102273,1,0,0:0:0:0:
454,61,102506,1,0,0:0:0:0:
422,48,102738,1,0,0:0:0:0:
438,71,102971,1,0,0:0:0:0:
328,99,103203,6,0,L|253:92,1,42.5
201,136,103436,2,0,L|96:122,1,85,2|2,0:0|0:0,0:0:0:0:
224,178,103826,6,0,L|217:150,1,28.3333333333333,8|4,0:0|1:2,0:0:0:0:
169,236,103982,5,8,0:3:0:0:
141,239,104058,1,8,0:3:0:0:
110,231,104135,2,0,L|76:193,1,42.5,6|8,0:3|0:0,0:0:0:0:
18,286,104289,1,8,0:0:0:0:
39,272,104366,1,6,1:2:0:0:
76,296,104442,2,0,L|84:338,1,42.5,8|10,3:0|0:3,0:0:0:0:
184,338,104596,5,4,0:3:0:0:
226,362,104673,1,10,0:0:0:0:
270,345,104750,1,8,0:0:0:0:
310,366,104827,1,6,1:2:0:0:
360,347,104906,2,0,L|371:299,1,42.5,8|10,3:0|0:3,0:0:0:0:
334,200,105070,5,4,3:0:0:0:
304,210,105133,1,10,0:0:0:0:
326,163,105217,1,8,0:0:0:0:
370,156,105301,1,6,1:2:0:0:
389,116,105380,6,0,P|414:100|415:64,1,42.5,8|10,0:3|0:3,0:0:0:0:
295,56,105540,6,0,P|283:30|258:13,1,42.5,6|10,3:0|0:0,0:0:0:0:
154,62,105690,6,0,P|116:45|93:50,1,42.5,10|6,0:0|1:2,0:0:0:0:
66,139,105867,5,2,0:1:0:0:
135,253,105994,5,6,1:0:0:0:
255,192,106159,5,6,1:0:0:0:
293,329,106303,6,0,B|288:363,1,31.875,0|2,0:0|1:0,0:0:0:0:
430,346,106460,5,8,0:0:0:0:
430,346,106555,2,2,B|432:277|381:224|381:224|398:177|445:167|445:167|460:57|385:1,1,382.500014591218,12|2,1:2|0:1,0:1:0:0:
378,22,107080,1,2,0:0:0:0:
368,34,107155,2,0,B|347:60|347:60|370:106,1,63.7500024318696,2|0,0:0|0:0,0:0:0:0:
169,368,107530,5,2,0:0:0:0:
102,79,107882,1,2,0:0:0:0:
119,51,108334,6,2,B|106:117|106:117|110:123|110:123|96:178|96:178|98:229,1,170,2|0,0:0|1:0,0:1:0:0:
36,55,108745,6,0,B|27:42|27:42|26:30,1,28.3333333333333,0|8,1:0|0:0,0:0:0:0:
0,384,109105,5,12,1:2:0:0:
256,192,109180,12,2,111280,1:2:0:0:
437,34,112119,6,2,B|420:59|420:59|442:58|442:58|446:93|446:93|404:139|483:134|436:198,1,170,2|2,0:0|0:0,0:1:0:0:
127,252,112869,1,2,0:0:0:0:
127,252,112962,2,0,B|123:242|148:232|143:205,1,42.5
6,64,113272,5,0,0:0:0:0:
363,127,113449,1,2,1:0:0:0:
252,15,113667,1,0,1:0:0:0:
278,228,113943,1,0,0:0:0:0:
278,228,114035,2,2,B|266:281|391:302|329:235|303:237,1,127.5,0|0,0:0|0:0,0:1:0:0:
211,263,114298,1,0,1:0:0:0:
27,368,114534,6,0,L|38:280,1,85,2|0,0:0|0:0,0:0:0:0:
129,145,114791,2,2,L|96:245,1,85,0|0,0:0|0:0,0:1:0:0:
0,8,115180,2,0,L|27:108,1,85
171,160,115632,2,0,L|198:260,1,85,0|0,0:0|1:0,0:0:0:0:
160,313,115971,5,0,0:0:0:0:
152,326,116074,1,0,0:0:0:0:
189,347,116178,1,0,0:0:0:0:
232,335,116281,1,0,0:0:0:0:
270,311,116385,2,0,P|290:303|297:305,1,21.25,2|0,0:0|0:0,0:0:0:0:
321,328,116488,5,0,1:0:0:0:
256,192,117669,12,4,119531,1:2:0:0:
34,50,119794,6,0,B|42:45|50:36|50:36|70:58|118:46,1,63.7500024318696,14|0,0:0|0:0,0:0:0:0:
326,100,120008,2,2,B|313:124|313:124|317:151,3,42.5,12|8|8|8,1:2|0:0|0:0|0:0,0:1:0:0:
401,136,120312,1,8,3:0:0:0:
401,136,120388,1,8,0:0:0:0:
401,136,120464,2,0,B|386:190|386:190|335:217,1,85,12|8,1:2|0:0,0:0:0:0:
279,209,120693,5,8,3:0:0:0:
227,184,120769,1,8,0:0:0:0:
184,202,120845,1,8,0:0:0:0:
133,243,120948,2,0,B|102:257|102:257|124:327,1,85,4|2,1:0|1:2,0:0:0:0:
51,196,121213,2,0,B|39:186|39:186|64:165,1,42.5,6|8,1:2|1:2,0:0:0:0:
23,298,121359,6,0,B|119:306|119:306|151:367|151:367|310:383,1,255,10|0,0:0|0:0,0:0:0:0:
303,333,121669,2,0,L|357:324,1,42.5,4|0,1:2|0:0,0:0:0:0:
429,381,121846,5,8,3:0:0:0:
480,319,121935,1,8,0:0:0:0:
404,230,122069,1,8,0:0:0:0:
352,174,122167,6,0,P|357:95|516:58,1,255.000009727478,12|8,1:2|3:0,0:0:0:0:
481,82,122549,1,8,3:0:0:0:
481,82,122626,2,0,L|437:113,1,42.5,8|8,0:0|0:0,0:0:0:0:
355,36,122779,2,0,L|320:11,3,42.5,4|4|8|8,3:0|3:0|1:2|3:0,0:0:0:0:
273,92,123085,5,4,3:0:0:0:
250,99,123143,5,8,3:0:0:0:
237,111,123202,6,0,P|198:104|202:81,1,42.5,8|8,3:0|3:0,0:0:0:0:
40,32,123320,6,0,B|-67:258|271:164|110:369,2,340,6|0|4,1:2|0:0|1:2,0:0:0:0:
393,171,124132,6,0,L|487:160,1,85,10|4,0:0|1:2,0:0:0:0:
496,363,124428,2,0,B|346:374|346:374|216:323,1,280.500008560181,2|0,0:0|0:0,0:0:0:0:
219,324,125428,5,8,0:0:0:0:
246,306,125530,1,8,0:0:0:0:
268,315,125632,2,0,B|290:322|290:322|313:295,1,42.5,6|0,1:2|0:0,0:0:0:0:
386,290,125857,6,0,L|307:282,1,55.2499974708558,4|0,1:2|0:0,0:0:0:0:
145,299,126061,6,0,L|388:263,1,229.499992996216,6|0,1:2|0:0,0:0:0:0:
372,265,126562,2,0,P|369:202|275:182,1,170,4|0,0:0|0:0,0:0:0:0:
196,242,127577,5,0,0:0:0:0:
196,242,127632,2,0,B|201:243|201:243|219:210|219:210|224:212|224:212|263:155|263:155|266:157|266:157|298:110|298:110|279:90,1,191.25,2|8,0:0|0:3,0:0:0:0:
288,100,128334,1,4,0:3:0:0:
256,192,128429,12,2,131742,0:0:0:0:
411,267,132250,6,0,B|424:243|424:243|406:226,4,42.5,2|0|0|0|0,1:2|1:0|1:0|1:0|1:0,0:0:0:0:
486,311,132556,2,0,L|496:357,1,31.8750012159348,0|2,1:0|1:2,0:0:0:0:
486,311,132671,2,0,L|481:355,1,31.8750012159348,0|2,1:2|1:2,0:0:0:0:
406,365,132787,2,0,L|351:374,4,42.5,0|0|2|0|0,1:0|1:0|1:2|1:0|1:0,0:0:0:0:
406,365,133481,6,0,L|264:352,1,127.500004863739,2|0,1:2|0:0,0:0:0:0:
91,299,134096,1,0,1:0:0:0:
91,299,134337,2,0,B|95:258|149:223|222:272|222:272|204:247|216:210,1,212.5,0|0,1:0|0:0,0:0:0:0:
301,135,135179,6,0,B|286:114|286:114|295:67|295:67|229:136,1,127.500004863739,2|4,0:0|1:2,0:0:0:0:
257,105,135925,2,0,L|167:121,1,85
162,137,136455,1,2,0:0:0:0:
55,43,136855,5,2,1:2:0:0:
55,43,137055,1,0,1:0:0:0:
84,25,137232,2,0,L|49:117,1,85,2|2,0:0|0:0,0:0:0:0:
69,175,137650,1,2,0:0:0:0:
11,221,137790,2,0,L|33:325,1,101.999996887207,2|2,0:0|1:2,0:0:0:0:
81,344,138237,5,2,0:0:0:0:
139,273,138379,1,2,0:0:0:0:
200,318,138521,1,2,0:0:0:0:
200,318,138804,1,0,1:0:0:0:
503,8,139256,5,0,1:2:0:0:
262,67,139631,5,2,1:2:0:0:
90,141,139969,6,0,P|76:220|73:248,1,85,0|2,1:2|0:0,0:0:0:0:
262,67,140269,6,0,P|213:26|178:19,1,85,0|0,1:2|0:0,0:0:0:0:
236,238,140512,6,0,P|287:263|327:275,1,85,2|2,1:2|0:0,0:0:0:0:
404,354,140736,6,0,P|412:286|415:259,1,85,0|0,1:2|0:0,0:0:0:0:
341,62,140950,6,0,P|347:27|353:0,1,63.7500024318696,2|0,1:2|0:0,0:0:0:0:
75,224,141165,6,0,P|80:191|86:171,1,42.5,0|2,1:2|0:0,0:0:0:0:
301,371,141381,6,0,P|305:359|308:340,2,21.25,0|2|0,1:2|0:0|0:0,0:0:0:0:
322,145,141688,6,0,P|251:95|140:98,1,170,2|0,1:2|1:2,0:0:0:0:
145,115,142365,2,0,L|160:184,1,63.7500024318696,0|0,1:0|0:0,0:0:0:0:
86,165,142625,1,2,0:0:0:0:
86,165,142692,5,0,1:2:0:0:
86,165,142897,2,0,L|180:234,3,85,2|2|2|2,0:0|0:0|0:0|0:0,0:0:0:0:
411,357,143679,5,8,0:0:0:0:
382,227,143825,5,8,0:0:0:0:
461,111,143971,5,8,0:0:0:0:
461,291,144138,6,0,B|357:307|368:361|294:373,1,170,6|10,1:2|0:0,0:0:0:0:
34,300,144564,1,0,0:0:0:0:
101,371,144706,2,0,L|205:353,1,85,2|2,1:2|1:2,0:0:0:0:
397,139,144991,2,0,L|276:299,1,170,10|2,0:0|1:2,0:0:0:0:
105,132,145430,5,2,0:0:0:0:
269,58,145565,1,10,0:0:0:0:
246,270,145733,2,0,B|139:274|184:328|60:339,1,170,2|2,1:2|1:2,0:0:0:0:
338,362,146172,2,0,P|379:319|382:277,1,85,10|2,0:0|0:0,0:0:0:0:
133,90,146476,5,2,1:2:0:0:
133,90,146623,1,0,1:0:0:0:
40,162,146761,2,0,L|249:191,1,170,10|2,0:0|1:2,0:0:0:0:
388,68,147208,1,2,1:2:0:0:
266,20,147347,2,0,L|292:184,1,127.5,10|0,0:0|0:0,0:0:0:0:
265,194,147647,5,2,1:2:0:0:
153,308,147800,1,2,0:0:0:0:
326,383,147938,1,10,0:0:0:0:
241,167,148076,2,0,P|144:194|63:205,1,170,2|2,1:2|1:2,0:0:0:0:
314,54,148526,2,0,P|344:99|384:108,1,85,10|2,0:0|0:0,0:0:0:0:
326,383,148843,6,0,P|366:289|441:241,1,170,2|10,1:2|0:0,0:0:0:0:
452,370,149272,1,0,0:0:0:0:
312,210,149421,2,0,P|251:194|234:158,1,85,2|2,1:2|1:2,0:0:0:0:
34,357,149720,2,0,P|44:288|74:357,1,170,8|2,0:0|1:2,0:0:0:0:
57,181,150161,5,0,0:0:0:0:
222,93,150308,1,10,0:0:0:0:
249,296,150447,2,0,B|385:325|326:365|434:378,1,170,2|0,1:2|1:2,0:0:0:0:
129,231,150897,2,0,P|136:163|137:114,1,85,10|0,0:0|0:0,0:0:0:0:
421,17,151197,5,2,1:2:0:0:
421,17,151332,1,0,1:0:0:0:
490,101,151504,2,0,P|475:197|465:291,1,170,10|2,0:0|1:2,0:0:0:0:
347,122,151954,1,2,1:2:0:0:
258,158,152085,2,0,P|185:148|112:134,1,127.5,10|8,0:0|0:0,0:0:0:0:
113,101,152370,6,0,P|101:37|101:25,1,42.5,4|8,1:3|0:0,0:0:0:0:
67,175,152512,2,0,P|63:195|56:216,1,42.5,8|8,0:0|0:0,0:0:0:0:
228,49,152655,6,0,P|232:7|235:-30,1,42.5,8|8,1:3|0:0,0:0:0:0:
181,227,152797,2,0,P|179:251|171:277,1,42.5,8|8,0:0|0:0,0:0:0:0:
293,204,152941,5,8,1:3:0:0:
349,187,153012,1,8,0:0:0:0:
406,183,153084,1,8,0:0:0:0:
462,188,153155,1,8,0:0:0:0:
473,198,153227,5,4,1:3:0:0:
449,214,153298,1,8,0:0:0:0:
415,222,153370,1,8,0:0:0:0:
376,215,153441,1,8,0:0:0:0:
315,168,153537,6,0,B|259:58|401:113|353:-11,1,195.500003728867,6|8,1:2|0:0,0:0:0:0:
192,15,153987,1,2,0:0:0:0:
51,58,154137,1,2,1:2:0:0:
183,194,154287,5,0,1:0:0:0:
205,120,154437,1,8,0:0:0:0:
148,173,154587,1,0,0:0:0:0:
266,238,154737,6,0,L|425:283,1,127.5,2|0,1:2|0:0,0:0:0:0:
388,272,155041,1,8,0:0:0:0:
512,180,155188,1,2,1:2:0:0:
413,163,155336,1,0,0:0:0:0:
495,288,155484,1,2,1:2:0:0:
478,101,155631,2,0,L|461:7,1,85,8|0,0:0|0:0,0:0:0:0:
259,95,155927,5,14,1:2:0:0:
189,124,156075,1,0,1:0:0:0:
259,95,156224,1,12,1:2:0:0:
353,146,156372,1,2,1:2:0:0:
246,183,156521,5,14,1:2:0:0:
139,244,156669,1,2,1:2:0:0:
246,183,156818,1,14,1:2:0:0:
419,262,156966,1,2,1:2:0:0:
287,377,157123,5,2,1:2:0:0:
287,377,157270,2,0,P|267:320|287:240,1,118.999996368408,2|2,0:0|1:0,0:0:0:0:
409,346,157711,2,0,L|479:369,1,59.4999981842042,2|2,0:0|1:2,0:0:0:0:
171,334,158005,2,0,L|80:363,1,89.2499972763062,8|0,0:0|0:0,0:0:0:0:
51,341,158299,5,2,1:2:0:0:
74,208,158451,1,0,1:0:0:0:
1,221,158603,2,0,L|-18:144,1,42.5,8|0,0:0|0:0,0:0:0:0:
154,234,158755,5,2,0:0:0:0:
131,101,158907,1,0,1:0:0:0:
204,114,159059,2,0,L|223:37,1,42.5,0|0,1:0|1:0,0:0:0:0:
326,146,159212,5,10,0:0:0:0:
470,121,159359,1,0,0:0:0:0:
396,126,159506,1,0,1:0:0:0:
495,294,159653,1,2,0:0:0:0:
351,269,159800,1,8,0:0:0:0:
425,274,159947,1,2,1:2:0:0:
347,367,160109,5,0,0:0:0:0:
261,191,160271,1,0,1:0:0:0:
199,27,160417,1,10,0:0:0:0:
199,27,160709,6,0,L|323:55,1,101.999996887207,12|0,1:2|0:0,0:0:0:0:
269,384,161009,2,0,L|145:356,1,101.999996887207,12|0,1:2|0:0,0:0:0:0:
338,178,161309,5,12,1:2:0:0:
377,282,161459,1,0,0:0:0:0:
184,165,161609,1,14,1:2:0:0:
146,269,161759,1,0,1:0:0:0:
3,207,161938,5,8,0:0:0:0:
512,217,162844,1,8,0:0:0:0:
512,217,163176,6,0,L|365:241,1,127.5,6|0,1:2|0:0,0:0:0:0:
386,237,163451,1,10,0:0:0:0:
211,148,163601,1,2,0:0:0:0:
302,166,163751,5,2,1:2:0:0:
144,212,163901,1,0,1:0:0:0:
243,257,164051,2,0,L|263:357,1,85,8|0,0:0|0:0,0:0:0:0:
259,340,164276,1,0,0:0:0:0:
259,340,164351,5,2,1:2:0:0:
414,282,164501,1,2,0:0:0:0:
512,372,164651,1,8,0:0:0:0:
345,346,164801,5,2,1:2:0:0:
396,266,164954,1,0,0:0:0:0:
442,183,165107,1,0,1:0:0:0:
237,197,165260,2,0,L|213:84,1,85,8|0,0:0|0:0,0:0:0:0:
440,0,165567,5,14,1:2:0:0:
95,108,165860,1,14,1:2:0:0:
512,157,166153,1,14,1:2:0:0:
46,33,166446,1,14,1:2:0:0:
51,344,166762,6,0,L|241:280,1,170,2|8,1:2|0:0,0:0:0:0:
389,341,167194,2,0,L|491:375,2,85,0|0|2,1:0|0:0|1:2,0:0:0:0:
6,269,167656,1,8,0:0:0:0:
6,269,167957,6,0,L|16:175,1,85,6|0,1:2|1:0,0:0:0:0:
268,223,168255,2,0,B|326:161,1,85,8|0,0:0|0:0,0:0:0:0:
95,23,168554,1,2,1:2:0:0:
257,57,168704,1,0,0:0:0:0:
135,171,168853,1,8,0:0:0:0:
159,88,169003,1,2,0:0:0:0:
364,8,169152,6,0,P|415:71|389:148,1,170,0|8,1:0|0:0,0:0:0:0:
214,384,169601,2,0,P|217:311|231:224,1,127.5,0|0,1:0|0:0,0:0:0:0:
256,192,169921,1,0,1:0:0:0:
256,192,170082,1,8,0:0:0:0:
256,192,170242,1,0,0:0:0:0:
257,91,170364,5,14,1:2:0:0:
178,173,170518,1,0,1:0:0:0:
284,299,170672,5,14,1:2:0:0:
319,143,170827,1,0,1:0:0:0:
144,35,170982,5,14,1:2:0:0:
88,262,171137,1,2,1:2:0:0:
124,287,171214,1,2,0:0:0:0:
131,238,171291,6,0,B|137:285|131:340|131:340|137:285|157:231,1,203.999993774414,6|8,1:2|0:0,0:0:0:0:
118,50,171754,1,0,0:0:0:0:
65,134,171909,1,0,1:0:0:0:
237,28,172064,1,2,1:2:0:0:
230,141,172213,1,8,0:0:0:0:
352,0,172369,1,0,0:0:0:0:
409,165,172525,5,14,1:2:0:0:
252,124,172677,1,0,1:0:0:0:
321,277,172829,5,14,1:2:0:0:
165,234,172981,1,0,1:0:0:0:
51,281,173134,5,14,1:2:0:0:
164,98,173286,1,2,1:2:0:0:
141,58,173362,1,2,0:0:0:0:
120,17,173438,6,0,P|132:123|134:256,1,203.999993774414,6|8,1:2|0:0,0:0:0:0:
326,354,173893,1,0,0:0:0:0:
368,239,174045,1,0,1:0:0:0:
268,164,174197,1,0,1:0:0:0:
165,234,174349,1,10,0:0:0:0:
197,342,174501,1,0,0:0:0:0:
268,258,174653,5,14,1:2:0:0:
329,23,174805,1,0,1:0:0:0:
130,125,174956,1,14,1:2:0:0:
363,137,175108,1,0,1:0:0:0:
158,0,175259,1,14,1:2:0:0:
372,126,175412,1,0,1:0:0:0:
205,202,175564,6,0,L|217:144,1,50.9999984436036,2|0,0:0|0:0,0:0:0:0:
268,258,175676,6,2,B|262:279|262:279|301:376|301:376|250:346|250:346|322:300|322:300|303:183|303:183|226:117|226:117|222:103|222:103|247:62,1,510.000019454957,6|0,0:0|0:0,0:1:0:0:
