osu file format v14

[General]
AudioFilename: 02_22_kocham_cie.ogg
AudioLeadIn: 0
PreviewTime: 131742
Countdown: 0
SampleSet: Soft
StackLeniency: 0.9
Mode: 0
LetterboxInBreaks: 0
WidescreenStoryboard: 1

[Editor]
DistanceSpacing: 1
BeatDivisor: 4
GridSize: 16
TimelineZoom: 5.000003

[Metadata]
Title:Faint Heart
TitleUnicode:Faint Heart
Artist:The Birthday Party
ArtistUnicode:The Birthday Party
Creator:app
Version:Another
Source:
Tags:the boys next door hee haw noise avant-garde musique concrète concrete postpunk post punk rock post-punk nick cave english squishi audinor zglock nik nikolomara allein aishiteiru-
BeatmapID:4053028
BeatmapSetID:1900177

[Difficulty]
HPDrainRate:5
CircleSize:4.2
OverallDifficulty:8
ApproachRate:9
SliderMultiplier:1.8
SliderTickRate:1

[Events]
//Background and Video events
0,0,"photo_019.jpg",0,0
//Break Periods
2,46771,50749
2,80546,87671
2,94989,100015
2,111280,115836
//Storyboard Layer 0 (Background)
//Storyboard Layer 1 (Fail)
//Storyboard Layer 2 (Pass)
//Storyboard Layer 3 (Foreground)
//Storyboard Layer 4 (Overlay)
//Storyboard Sound Samples

[TimingPoints]
9483,293.542074363992,4,2,1,65,1,0
9923,293.398533007335,4,2,1,65,1,0
10216,286.259541984733,4,2,1,70,1,0
10645,289.855072463768,4,2,1,70,1,0
10789,289.855072463768,4,2,1,70,1,0
11514,309.278350515464,4,2,1,70,1,0
11823,295.566502463054,4,2,1,70,1,0
12266,303.030303030303,4,2,1,70,1,0
12872,288.461538461538,4,2,1,70,1,0
13160,295.566502463054,4,2,1,70,1,0
13898,326.086956521739,4,2,1,70,1,0
14224,270.27027027027,4,2,1,70,1,0
14359,314.13612565445,4,2,1,70,1,0
14673,294.840294840295,4,2,1,70,1,0
15852,442.477876106195,4,2,1,70,1,0
16294,295.420974889217,4,2,1,65,1,0
16737,341.102899374645,4,2,1,65,1,0
17078,263.157894736842,4,2,1,70,1,0
17341,298.507462686567,4,2,1,70,1,0
17639,309.278350515464,4,2,1,70,1,0
17948,297.397769516729,4,2,1,70,1,0
18245,280.373831775701,4,2,1,70,1,0
18525,318.13361611877,4,2,1,70,1,0
18684,297.397769516729,4,2,1,70,1,0
19130,297.397769516729,4,2,1,70,1,0
19278,335.195530726257,4,2,1,70,1,0
19445,295.420974889217,4,2,1,70,1,0
20331,297.029702970297,4,2,1,70,1,0
20925,276.243093922652,4,2,1,70,1,0
21063,333.333333333333,4,2,1,70,1,0
21396,277.777777777778,4,2,1,70,1,0
21534,303.490136570561,4,2,1,70,1,0
21837,295.566502463054,4,2,1,70,1,0
23019,324.324324324324,4,2,1,70,1,0
23505,423.131170662905,4,2,1,65,1,0
23928,318.13361611877,4,2,1,65,1,0
24246,294.117647058824,4,2,1,70,1,0
25863,340.909090909091,4,2,1,70,1,0
26033,306.122448979592,4,2,1,70,1,0
26645,306.122448979592,4,2,1,70,1,0
27563,280.767430978007,4,2,1,70,1,0
27703,303.030303030303,4,2,1,70,1,0
28006,295.566502463054,4,2,1,65,1,0
28153,295.566502463054,4,2,1,65,1,0
28300,323.014804845222,4,2,1,65,1,0
28623,280.373831775701,4,2,1,65,1,0
28903,359.281437125749,4,2,1,65,1,0
29082,303.413400758534,4,2,1,70,1,0
30447,301.507537688442,4,2,1,70,1,0
30597,301.507537688442,4,2,1,70,1,0
31351,346.820809248555,4,2,1,70,1,0
31524,297.029702970297,4,2,1,70,1,0
32563,366.300366300366,4,2,1,70,1,0
32746,337.078651685393,4,2,1,70,1,0
33083,363.967242948135,4,2,1,65,1,0
33629,303.030303030303,4,2,1,70,1,0
33932,300,4,2,1,70,1,0
35582,315.789473684211,4,2,1,70,1,0
35897,295.566502463054,4,2,1,70,1,0
36044,327.153762268266,4,2,1,70,1,0
36371,303.030303030303,4,2,1,70,1,0
37886,-100,4,2,1,65,0,0
38492,314.13612565445,4,2,1,65,1,0
38806,303.030303030303,4,2,1,65,1,0
39260,-100,4,2,1,65,0,0
39412,-100,4,2,1,70,0,0
39942,-100,4,2,1,65,0,0
40018,-100,4,2,1,70,0,0
40169,-100,4,2,1,65,0,0
40321,-100,4,2,1,70,0,0
40472,329.67032967033,4,2,1,70,1,0
40801,300,4,2,1,70,1,0
40951,300,4,2,1,70,1,0
41251,303.030303030303,4,2,1,70,1,0
42160,307.692307692308,4,2,1,70,1,0
44160,282.220131702728,4,2,1,70,1,0
44301,307.692307692308,4,2,1,70,1,0
46301,319.148936170213,4,2,1,70,1,0
46460,311.364815775817,4,2,1,65,1,0
47394,301.507537688442,4,2,1,65,1,0
47695,301.507537688442,4,2,1,65,1,0
49203,306.122448979592,4,2,1,65,1,0
50121,306.122448979592,4,2,1,65,1,0
50580,338.983050847458,4,2,1,65,1,0
50918,246.913580246914,4,2,1,65,1,0
51041,307.692307692308,4,2,1,65,1,0
51349,300.375469336671,4,2,1,70,1,0
52400,317.460317460317,4,2,1,70,1,0
52559,300,4,2,1,70,1,0
53159,187.5,4,2,1,65,1,0
53206,248.85939444214,4,2,1,65,1,0
53454,315.789473684211,4,2,1,70,1,0
53769,307.692307692308,4,2,1,70,1,0
56538,292.682926829268,4,2,1,70,1,0
57416,301.507537688442,4,2,1,70,1,0
57717,277.520814061055,4,2,1,70,1,0
57855,356.083086053412,4,2,1,70,1,0
58033,293.757649938801,4,2,1,70,1,0
58620,309.278350515464,4,2,1,70,1,0
60011,289.156626506024,4,2,1,70,1,0
60300,317.628374801482,4,2,1,70,1,0
61094,297.029702970297,4,2,1,70,1,0
61985,308.483290488432,4,2,1,70,1,0
62294,315.789473684211,4,2,1,70,1,0
62767,309.757356737223,4,2,1,70,1,0
62921,309.757356737223,4,2,1,70,1,0
63231,303.030303030303,4,2,1,70,1,0
63534,292.682926829268,4,2,1,70,1,0
63973,307.692307692308,4,2,1,70,1,0
64126,307.692307692308,4,2,1,70,1,0
64741,307.692307692308,4,2,1,70,1,0
65973,298.507462686567,4,2,1,70,1,0
66570,303.030303030303,4,2,1,70,1,0
66873,306.122448979592,4,2,1,70,1,0
67332,283.018867924528,4,2,1,65,1,0
67473,306.122448979592,4,2,1,65,1,0
67626,318.471337579618,4,2,1,65,1,0
67944,266.903914590747,4,2,1,65,1,0
68077,320,4,2,1,65,1,0
68397,301.507537688442,4,2,1,65,1,0
69000,310.55900621118,4,2,1,70,1,0
69621,289.855072463768,4,2,1,70,1,0
70055,322.58064516129,4,2,1,70,1,0
70538,303.030303030303,4,2,1,70,1,0
70841,308.08729139923,4,2,1,70,1,0
71611,268.336314847943,4,2,1,70,1,0
71745,310.880829015544,4,2,1,70,1,0
73299,297.029702970297,4,2,1,70,1,0
73744,323.275862068966,4,2,1,70,1,0
73905,294.117647058824,4,2,1,70,1,0
74199,310.880829015544,4,2,1,70,1,0
75131,309.278350515464,4,2,1,70,1,0
75440,283.018867924528,4,2,1,70,1,0
75723,327.510917030568,4,2,1,70,1,0
76050,300,4,2,1,70,1,0
76350,322.58064516129,4,2,1,70,1,0
76672,338.218714768884,4,2,1,70,1,0
76841,235.294117647059,4,2,1,60,1,0
76958,234.375,4,2,1,60,1,0
77309,297.029702970297,4,2,1,60,1,0
77606,319.659030367608,4,2,1,60,1,0
77925,-100,4,2,1,60,0,1
78085,420.462508759636,4,2,1,55,1,1
78295,257.510729613734,4,2,1,55,1,1
78552,298.656047784968,4,2,1,55,1,1
79447,314.13612565445,4,2,1,50,1,0
80546,304.568527918782,4,2,1,40,1,0
80660,336.134453781513,4,2,1,30,1,0
80996,338.983050847458,4,2,1,30,1,0
81334,293.542074363992,4,2,1,30,1,0
81921,276.115968706857,4,2,1,30,1,0
82059,384.615384615385,4,2,1,30,1,0
82251,327.868852459016,4,2,1,30,1,0
82414,345.224395857307,4,2,1,30,1,0
82759,310.880829015544,4,2,1,30,1,0
83069,310.077519379845,4,2,1,30,1,0
83379,352.941176470588,4,2,1,30,1,0
83996,400,4,2,1,30,1,0
84396,377.358490566038,4,2,1,30,1,0
84679,414.651002073255,4,2,1,30,1,0
85093,315.789473684211,4,2,1,30,1,0
85724,304.568527918782,4,2,1,30,1,0
86485,324.324324324324,4,2,1,30,1,0
86809,368.098159509202,4,2,1,30,1,0
86901,287.081339712919,4,2,1,30,1,0
87618,326.530612244898,4,2,1,40,1,0
88271,337.078651685393,4,2,1,30,1,0
88776,393.44262295082,4,2,1,30,1,0
88972,352.941176470588,4,2,1,30,1,0
88972,-89.6860986547085,4,2,1,30,0,0
89016,386.473429951691,4,2,1,30,1,0
89402,275.229357798165,4,2,1,30,1,0
89402,-99.304865938431,4,2,1,30,0,0
89470,398.671096345515,4,2,1,30,1,0
89669,422.684043677351,4,2,1,30,1,0
89880,276.81660899654,4,2,1,30,1,0
90295,329.670329670329,4,2,1,30,1,0
90789,256.739409499359,4,2,1,25,1,0
91238,264.31718061674,4,2,1,30,1,0
91502,306.122448979592,4,2,1,30,1,0
92114,303.030303030303,4,2,1,40,1,0
92720,275.229357798165,4,2,1,40,1,0
92995,279.06976744186,4,2,1,40,1,0
93274,276.497695852535,4,2,1,50,1,0
93458,252.100840336134,4,2,1,40,1,0
93542,279.06976744186,4,2,1,40,1,0
93635,276.752767527675,4,2,1,40,1,0
94050,250,4,2,1,40,1,0
94550,456.968773800457,4,2,1,40,1,0
94778,282.352941176471,4,2,1,30,1,0
94989,243.90243902439,4,2,1,20,1,0
95232,410.116199589884,4,2,1,15,1,0
95642,449.101796407186,4,2,1,30,1,0
95866,318.809776833156,4,2,1,30,1,0
96105,444.444444444444,4,2,1,15,1,0
96549,296.296296296296,4,2,1,30,1,0
96845,307.692307692308,4,2,1,30,1,0
97691,315.789473684211,4,2,1,30,1,0
98164,332.042058660764,4,2,1,30,1,0
98413,480,4,2,1,30,1,0
100093,240,4,2,1,30,1,0
100333,282.752120640905,4,2,1,30,1,0
100615,303.183425972714,4,2,1,30,1,0
100842,476.190476190476,4,2,1,30,1,0
101556,491.803278688525,4,2,1,15,1,0
101801,480,4,2,1,15,1,0
102041,465.116279069767,4,2,1,13,1,0
102971,465.116279069767,4,2,1,13,1,0
103436,-100,4,2,1,15,0,0
103668,316.622691292876,4,2,1,15,1,0
103826,282.352941176471,4,2,1,40,1,0
103873,218.181818181818,4,2,1,50,1,1
103982,307.692307692308,4,2,1,45,1,1
104366,307.692307692308,4,2,1,45,1,1
104827,319.148936170213,4,2,1,45,1,1
104986,338.983050847458,4,2,1,45,1,1
105070,253.164556962025,4,2,1,45,1,1
105133,337.078651685393,4,2,1,45,1,1
105301,319.148936170213,4,2,1,45,1,1
105620,281.69014084507,4,2,1,45,1,1
105690,382.165605095541,4,2,1,45,1,1
105785,329.67032967033,4,2,1,45,1,1
105867,255.31914893617,4,2,1,45,1,1
105994,330.396475770925,4,2,1,45,1,1
106365,380.469245402663,4,2,1,50,1,1
106365,-80,4,2,1,50,0,1
106555,300,4,2,1,45,1,1
106855,-100,4,2,1,45,0,0
107005,-100,4,2,1,40,0,0
107530,352.941176470588,4,2,1,30,1,0
107882,361.663652802893,4,2,1,30,1,0
108334,352.941176470588,4,2,1,30,1,0
108745,-100,4,2,1,35,0,0
108804,301.053687907677,4,2,1,40,1,0
109105,300,4,2,1,30,1,0
110305,297.029702970297,4,2,1,30,1,0
111196,337.078651685393,4,2,1,30,1,0
111280,333.333333333333,4,2,1,30,1,0
111613,468.75,4,2,1,30,1,0
111730,281.69014084507,4,2,1,30,1,0
112011,216.138328530259,4,2,1,30,1,0
112119,375,4,2,1,30,1,0
113056,317.460317460317,4,2,1,30,1,0
113135,275.229357798165,4,2,1,30,1,0
113410,156.657963446475,4,2,1,30,1,0
113449,436.046511627907,4,2,1,30,1,0
113667,368.098159509202,4,2,1,30,1,0
114035,263.157894736842,4,2,1,30,1,0
114298,315.789473684211,4,2,1,30,1,0
114534,342.857142857143,4,2,1,30,1,0
114791,345.821325648415,4,2,1,30,1,0
114964,432.432432432432,4,2,1,30,1,0
115396,472.44094488189,4,2,1,30,1,0
115868,413.793103448276,4,2,1,30,1,0
116488,472.44094488189,4,2,1,30,1,0
117669,454.89006823351,4,2,1,20,1,0
118351,432.900432900433,4,2,1,20,1,0
118567,472.44094488189,4,2,1,20,1,0
119275,512.820512820513,4,2,1,20,1,0
119531,350.877192982456,4,2,1,30,1,0
119794,428.571428571429,4,2,1,30,1,0
120008,304.568527918782,4,2,1,30,1,0
120845,412.087912087912,4,2,1,30,1,0
120948,333.333333333333,4,2,1,30,1,0
121114,397.350993377483,4,2,1,30,1,0
121213,333.333333333333,4,2,1,30,1,0
121296,252.312867956266,4,2,1,30,1,0
121359,310.23784901758,4,2,1,30,1,0
121669,266.666666666667,4,2,1,30,1,0
122069,392.156862745098,4,2,1,30,1,0
122167,306.122448979592,4,2,1,30,1,0
123085,235.525024533857,4,2,1,30,1,0
123320,316.122233930453,4,2,1,30,1,0
123952,361.44578313253,4,2,1,30,1,0
124313,230.769230769231,4,2,1,30,1,0
124428,352.941176470588,4,2,1,30,1,0
124957,314.13612565445,4,2,1,30,1,0
125428,408.163265306122,4,2,1,30,1,0
125632,451.127819548872,4,2,1,40,1,0
125857,408.163265306122,4,2,1,40,1,0
126469,372.43947858473,4,2,1,40,1,0
126562,508.474576271186,4,2,1,30,1,0
127197,435.413642960813,4,2,1,30,1,0
127632,376.411543287327,4,2,1,30,1,0
127679,375,4,2,1,30,1,0
128429,300,4,2,1,35,1,0
129329,355.029585798817,4,2,1,30,1,0
130217,508.474576271186,4,2,1,30,1,0
132250,244.897959183673,4,2,1,20,1,0
132556,231.660231660232,4,2,1,25,1,0
132787,-100,4,2,1,30,0,0
132844,-100,4,2,1,25,0,0
132902,-100,4,2,1,30,0,0
133019,279.06976744186,4,2,1,30,1,0
133158,400,4,2,1,30,1,0
133208,273.972602739726,4,2,1,30,1,0
133756,327.868852459016,4,2,1,30,1,0
133920,352.941176470588,4,2,1,30,1,0
134096,483.870967741935,4,2,1,30,1,0
134579,400,4,2,1,30,1,0
135179,258.620689655172,4,2,1,20,1,0
135308,352.941176470588,4,2,1,30,1,0
136013,-100,4,2,1,20,0,0
136367,-100,4,2,1,30,0,0
136455,400,4,2,1,30,1,0
136521,-100,4,2,1,30,0,0
137055,355.029585798817,4,2,1,30,1,0
137232,279.06976744186,4,2,1,30,1,0
137232,-133.333333333333,4,2,1,30,0,0
137511,279.06976744186,4,2,1,30,1,0
137790,306.122448979592,4,2,1,30,1,0
138096,283.687943262411,4,2,1,30,1,0
138805,451.127819548872,4,2,1,30,1,0
139256,375,4,2,1,30,1,0
139631,338.983050847458,4,2,1,30,1,0
139969,300,4,2,1,30,1,0
140269,243.90243902439,4,2,1,30,1,0
140512,224.719101123595,4,2,1,30,1,0
140736,214.285714285714,4,2,1,30,1,0
140950,215.827338129496,4,2,1,30,1,0
141381,307.692307692308,4,2,1,30,1,0
141688,451.127819548872,4,2,1,30,1,0
142138,454.545454545455,4,2,1,30,1,0
142365,387.096774193548,4,2,1,30,1,0
142558,268.456375838926,4,2,1,30,1,0
142692,410.958904109589,4,2,1,30,1,0
142897,331.491712707182,4,2,1,30,1,0
143394,285.035629453682,4,2,1,30,1,0
143679,292.682926829268,4,2,1,65,1,0
143971,335.195530726257,4,2,1,65,1,0
144138,284.36018957346,4,2,1,70,1,0
144991,304.568527918782,4,2,1,70,1,0
145295,270.27027027027,4,2,1,70,1,0
145565,336.134453781513,4,2,1,70,1,0
145733,292.682926829268,4,2,1,70,1,0
146318,316.122233930453,4,2,1,70,1,0
146476,294.117647058824,4,2,1,70,1,0
146623,276.497695852535,4,2,1,70,1,0
146761,309.119010819165,4,2,1,70,1,0
147070,277.777777777778,4,2,1,70,1,0
147347,300,4,2,1,70,1,0
147647,307.692307692308,4,2,1,70,1,0
147801,275.229357798165,4,2,1,70,1,0
148076,300,4,2,1,70,1,0
148676,335.195530726257,4,2,1,70,1,0
148843,280.373831775701,4,2,1,70,1,0
149123,298.507462686567,4,2,1,70,1,0
149720,294.117647058824,4,2,1,70,1,0
150308,279.06976744186,4,2,1,70,1,0
150447,300,4,2,1,70,1,0
150897,300,4,2,1,70,1,0
151197,270.27027027027,4,2,1,70,1,0
151332,344.827586206897,4,2,1,70,1,0
151504,300,4,2,1,70,1,0
151954,263.157894736842,4,2,1,70,1,0
152085,285.442435775452,4,2,1,70,1,0
152370,285.714285714286,4,2,1,70,1,0
153441,384.615384615385,4,2,1,70,1,0
153537,300,4,2,1,70,1,1
153762,-100,4,2,1,70,0,0
154737,304.568527918782,4,2,1,70,1,0
155041,295.420974889217,4,2,1,70,1,0
155927,297.029702970297,4,2,1,70,1,0
157040,331.12582781457,4,2,1,70,1,0
157123,294.117647058824,4,2,1,70,1,0
158225,-100,4,2,1,5,0,0
158299,304.568527918782,4,2,1,70,1,0
159212,294.117647058824,4,2,1,70,1,0
159947,324.324324324324,4,2,1,70,1,0
160271,292.397660818713,4,2,1,70,1,0
160709,300,4,2,1,70,1,0
161759,359.281437125748,4,2,1,70,1,0
161938,480,4,2,1,70,1,0
162178,298.879202988792,4,2,1,70,1,0
162626,436.046511627907,4,2,1,70,1,0
162844,332.225913621262,4,2,1,70,1,0
163176,275.229357798165,4,2,1,70,1,0
163451,300,4,2,1,70,1,0
164351,300,4,2,1,70,1,0
164801,306.591722023505,4,2,1,70,1,0
165567,293.040293040293,4,2,1,70,1,0
166592,340.909090909091,4,2,1,70,1,0
166762,288.461538461538,4,2,1,70,1,0
167050,-100,4,2,1,65,0,0
167194,312.5,4,2,1,65,1,0
167506,300.751879699248,4,2,1,65,1,0
167957,298.953662182362,4,2,1,70,1,0
169601,320.855614973262,4,2,1,70,1,0
170242,488.599348534202,4,2,1,70,1,0
170364,309.278350515464,4,2,1,70,1,0
171291,309.278350515464,4,2,1,70,1,0
172064,298.507462686567,4,2,1,70,1,0
172213,312.5,4,2,1,70,1,0
172447,-100,4,2,1,5,0,0
172525,304.568527918782,4,2,1,70,1,0
173438,303.79746835443,4,2,1,70,1,0
174576,-100,4,2,1,5,0,0
174653,-100,4,2,1,70,0,0
175676,333.333333333333,4,2,1,70,1,1
176342,-100,4,2,1,5,0,0

[Colours]
Combo1 : 122,117,80
Combo2 : 142,43,43
Combo3 : 93,93,93
Combo4 : 83,64,55

[HitObjects]
177,91,9483,6,0,P|178:46|187:1,2,90,8|8|8,0:0|0:0|0:0,0:0:0:0:
341,360,9923,6,0,P|312:277|212:263,1,180,6|10,1:2|0:0,0:0:0:0:
196,355,10359,1,0,0:0:0:0:
330,245,10502,2,0,P|355:200|375:124,1,90,2|2,1:2|1:2,0:0:0:0:
96,90,10789,2,0,P|111:138|206:163,1,135,10|8,0:0|0:0,0:0:0:0:
216,141,11078,5,2,1:2:0:0:
306,104,11223,1,2,0:0:0:0:
402,87,11368,1,10,0:0:0:0:
272,31,11514,2,0,B|177:16|188:92|82:74,1,180,2|2,1:2|1:2,0:0:0:0:
341,253,11970,2,0,L|365:167,1,90,10|2,0:0|0:0,0:0:0:0:
95,290,12266,6,0,L|119:417,1,90,2|0,1:2|1:0,0:0:0:0:
431,248,12569,2,0,L|230:190,1,180,10|2,0:0|1:2,0:0:0:0:
146,137,13016,1,0,1:2:0:0:
283,9,13160,2,0,L|230:114,1,90,10|0,0:0|0:0,0:0:0:0:
102,164,13381,1,8,0:0:0:0:
55,191,13455,6,0,L|33:310,1,90,2|2,1:2|0:0,0:0:0:0:
153,365,13751,1,10,0:0:0:0:
268,275,13898,2,0,B|334:270|334:270|362:303|362:303|463:302,1,180,2|2,1:2|1:2,0:0:0:0:
146,137,14359,2,0,L|125:41,1,90,10|2,0:0|0:0,0:0:0:0:
496,22,14673,6,0,P|382:42|351:116,1,180,12|12,1:2|1:2,0:0:0:0:
158,293,15262,2,0,P|103:360|16:362,1,180,12|12,1:2|1:2,0:0:0:0:
78,7,15852,1,8,0:0:0:0:
83,17,16737,6,0,L|110:22,1,22.5,10|8,0:0|0:0,0:0:0:0:
274,255,17078,6,0,L|492:235,1,180,6|10,1:2|0:0,0:0:0:0:
488,128,17490,1,0,0:0:0:0:
382,207,17639,2,0,L|360:335,1,90,2|2,1:2|1:2,0:0:0:0:
225,142,17948,2,0,L|351:44,1,135,10|8,0:0|0:0,0:0:0:0:
371,57,18245,5,2,1:2:0:0:
284,17,18385,1,2,0:0:0:0:
184,34,18525,1,10,0:0:0:0:
121,108,18684,2,0,P|95:184|87:291,1,180,2|2,1:2|1:2,0:0:0:0:
301,370,19130,2,0,P|281:319|269:270,1,90,10|2,0:0|0:0,0:0:0:0:
354,152,19445,6,0,P|439:139|473:60,1,180,2|10,1:2|0:0,0:0:0:0:
339,11,19888,1,0,0:0:0:0:
267,147,20035,2,0,L|288:250,1,90,2|2,1:2|1:2,0:0:0:0:
133,357,20331,2,0,L|169:198,1,135,10|8,0:0|0:0,0:0:0:0:
181,190,20628,5,2,1:2:0:0:
153,104,20776,1,2,0:0:0:0:
105,28,20925,1,10,0:0:0:0:
19,54,21063,2,0,B|19:170|77:115|88:243,1,180,2|2,1:2|1:2,0:0:0:0:
353,312,21534,2,0,B|370:243|335:289|363:196,1,90,10|2,0:0|0:0,0:0:0:0:
129,376,21837,6,0,B|207:332|207:332|314:371,1,180,12|12,1:2|1:2,0:0:0:0:
383,8,22428,2,0,B|305:52|305:52|198:13,1,180,12|12,1:2|1:2,0:0:0:0:
446,353,23019,1,10,0:0:0:0:
454,362,23928,6,0,L|459:334,1,22.5,8|8,0:0|0:0,0:0:0:0:
451,25,24246,6,0,L|483:214,1,180,6|10,1:2|0:0,0:0:0:0:
360,355,24687,1,2,0:0:0:0:
315,328,24834,2,0,L|343:205,1,90,2|0,1:2|1:0,0:0:0:0:
277,27,25128,2,0,L|307:138,1,90,10|2,0:0|0:0,0:0:0:0:
98,359,25422,6,0,L|231:219,1,180,2|8,1:2|0:0,0:0:0:0:
58,13,25863,1,2,1:2:0:0:
51,57,26033,2,0,L|146:138,1,90,2|0,1:2|1:0,0:0:0:0:
16,271,26262,1,0,0:0:0:0:
18,284,26339,1,8,0:0:0:0:
499,23,26645,6,0,L|308:8,1,180,14|14,1:2|1:2,0:0:0:0:
197,351,27257,2,0,L|17:365,1,180,14|12,1:2|1:2,0:0:0:0:
29,68,27703,1,0,0:0:0:0:
29,68,27778,2,0,L|11:124,1,45,0|0,1:0|1:0,0:0:0:0:
64,35,28006,5,0,0:0:0:0:
96,55,28153,1,8,0:0:0:0:
125,31,28300,2,0,B|204:20|201:45|307:34,1,180,0|2,1:0|1:2,0:0:0:0:
62,78,28763,2,0,P|36:140|26:179,1,90,10|2,0:0|0:0,0:0:0:0:
203,375,29082,6,0,P|206:308|135:199,1,180,2|8,1:2|0:0,0:0:0:0:
285,43,29537,2,0,P|240:110|215:103,2,90,2|0|0,0:0|1:0|1:0,0:0:0:0:
386,368,29992,2,0,P|353:298|371:163,1,180,10|0,0:0|1:0,0:0:0:0:
126,8,30447,2,0,P|104:63|72:109,1,90,2|8,0:0|0:0,0:0:0:0:
510,354,30747,2,0,P|476:329|446:178,1,180,2|0,1:2|1:0,0:0:0:0:
121,108,31200,2,0,P|139:63|133:-6,1,90,10|2,0:0|1:2,0:0:0:0:
323,335,31524,6,0,B|416:336|398:382|517:382,1,180,14|14,1:2|1:2,0:0:0:0:
178,25,32118,2,0,B|85:26|103:72|-16:72,1,180,12|12,1:2|1:2,0:0:0:0:
166,371,32746,1,8,0:0:0:0:
159,366,33083,6,0,L|163:320,1,45,2|2,0:0|0:0,0:0:0:0:
66,299,33355,2,0,L|73:356,1,45
170,257,33629,2,0,L|151:281,1,22.5,8|8,0:0|0:0,0:0:0:0:
23,39,33932,6,0,P|51:88|167:108,1,180,6|10,1:2|0:0,0:0:0:0:
294,17,34382,1,2,0:0:0:0:
346,77,34532,2,0,L|460:65,1,90,2|0,1:2|1:0,0:0:0:0:
470,254,34832,2,0,L|271:230,1,180,10|2,0:0|1:2,0:0:0:0:
246,311,35282,1,2,0:0:0:0:
380,384,35432,1,10,0:0:0:0:
403,203,35582,6,0,P|386:127|382:12,1,180,2|0,1:2|1:0,0:0:0:0:
227,165,36044,2,0,P|244:123|266:84,1,90,8|0,0:0|0:0,0:0:0:0:
113,252,36371,6,0,P|39:273|26:380,1,180,12|14,1:2|1:2,0:0:0:0:
399,132,36977,2,0,P|473:111|486:4,1,180,12|14,1:2|1:2,0:0:0:0:
256,342,37583,1,0,1:0:0:0:
256,342,37886,2,0,L|257:252,1,90,8|0,0:0|1:0,0:0:0:0:
236,295,38340,2,0,L|237:385,1,90,0|10,1:0|0:0,0:0:0:0:
241,3,38806,6,0,B|214:89|311:100|264:194,1,180,2|8,1:2|0:0,0:0:0:0:
187,301,39260,1,0,0:0:0:0:
116,264,39412,2,0,P|87:197|87:151,1,90,2|0,1:2|1:0,0:0:0:0:
316,48,39715,2,0,P|263:100|178:85,1,135,10|0,0:0|0:0,0:0:0:0:
164,69,40018,5,0,1:0:0:0:
64,30,40169,1,0,0:0:0:0:
8,113,40321,1,8,0:0:0:0:
80,184,40472,2,0,B|175:192|164:253|274:262,1,180,0|0,1:0|1:0,0:0:0:0:
357,197,40951,2,0,P|352:143|341:98,1,90,8|0,0:0|0:0,0:0:0:0:
496,207,41251,6,0,P|474:316|470:408,2,180,14|14|14,1:2|1:2|1:2,0:0:0:0:
176,41,42160,1,6,1:2:0:0:
176,41,42467,6,0,L|164:144,1,90,8|0,0:0|0:0,0:0:0:0:
59,185,42775,2,0,L|47:288,1,90,0|2,1:0|1:2,0:0:0:0:
277,118,43083,2,0,L|261:265,1,135,10|0,0:0|0:0,0:0:0:0:
315,352,43390,6,0,B|314:311|241:256|137:362|230:323,2,180,14|14|14,1:2|1:2|1:2,0:0:0:0:
254,19,44301,2,0,L|268:95,3,45,6|0|0|0,1:2|0:0|0:0|0:0,0:0:0:0:
232,88,44608,6,0,L|127:128,1,90,8|0,0:0|0:0,0:0:0:0:
8,168,44916,2,0,L|113:208,1,90,0|0,1:0|1:0,0:0:0:0:
227,250,45224,2,0,L|376:200,1,135,10|0,0:0|0:0,0:0:0:0:
442,176,45531,6,0,B|484:235|449:256|517:163|414:95,2,180,14|14|14,1:2|1:2|1:2,0:0:0:0:
93,263,46460,1,6,1:2:0:0:
125,235,51349,6,0,P|47:356|-16:387,1,180,12|12,1:2|1:2,0:0:0:0:
362,9,51949,2,0,P|440:130|503:161,1,180,12|12,1:2|1:2,0:0:0:0:
274,380,52559,1,10,0:0:0:0:
270,372,53454,6,0,L|277:332,1,22.5,8|8,0:0|0:0,0:0:0:0:
18,83,53769,6,0,B|85:142|85:142|200:114,1,180,6|10,1:2|0:0,0:0:0:0:
378,173,54230,2,0,B|424:185|424:185|462:139,2,90,2|2|0,0:0|1:2|1:0,0:0:0:0:
206,11,54692,2,0,B|231:87|231:87|217:118|217:118|246:203,1,180,8|2,0:0|1:2,0:0:0:0:
110,267,55153,2,0,B|67:289|67:289|29:245,1,90,0|8,0:0|0:0,0:0:0:0:
206,376,55461,6,0,B|267:311|267:311|366:349,1,180,2|0,1:2|1:0,0:0:0:0:
478,209,55922,2,0,B|444:243|444:243|383:220,1,90,8|0,0:0|0:0,0:0:0:0:
26,23,56230,5,14,1:2:0:0:
425,63,56538,1,14,1:2:0:0:
26,23,56830,2,0,B|8:69|8:69|43:138,1,90,14|2,1:2|1:2,0:0:0:0:
180,89,57123,2,0,B|198:43|198:43|163:-26,1,90,14|2,1:2|1:2,0:0:0:0:
144,0,57342,1,8,0:0:0:0:
144,0,57416,6,0,B|112:36|112:36|157:137|157:137|143:164,1,180,0|8,1:2|0:0,0:0:0:0:
51,304,57855,2,0,L|59:214,1,90,0|0,1:0|0:0,0:0:0:0:
218,377,58179,2,0,L|211:277,2,90,2|10|2,1:2|0:0|0:0,0:0:0:0:
317,134,58620,6,0,P|386:206|496:179,1,180,2|8,1:2|0:0,0:0:0:0:
512,22,59083,2,0,P|455:47|399:55,2,90,2|0|0,0:0|1:0|1:0,0:0:0:0:
302,151,59547,2,0,P|232:133|103:120,1,180,8|2,0:0|1:2,0:0:0:0:
11,255,60011,2,0,P|46:233|55:179,1,90,0|8,1:0|0:0,0:0:0:0:
103,384,60300,6,0,P|183:351|212:268,1,180,2|0,1:2|1:0,0:0:0:0:
314,67,60776,2,0,P|289:138|279:186,1,90,10|0,0:0|0:0,0:0:0:0:
495,376,61094,5,14,1:2:0:0:
88,358,61391,1,14,1:2:0:0:
495,376,61688,2,0,L|487:224,1,135,12|0,1:2|0:0,0:0:0:0:
458,189,61985,2,0,L|449:279,1,90,14|0,1:2|1:0,0:0:0:0:
389,371,62294,1,10,0:0:0:0:
394,375,63231,6,0,L|423:363,1,22.5,8|8,0:0|0:0,0:0:0:0:
121,55,63534,6,0,L|311:83,1,180,6|10,1:2|0:0,0:0:0:0:
467,31,63973,1,2,0:0:0:0:
512,97,64126,2,0,L|390:82,1,90,2|0,1:2|1:0,0:0:0:0:
295,199,64433,2,0,L|371:350,1,135,8|0,0:0|0:0,0:0:0:0:
392,335,64741,5,2,1:2:0:0:
427,243,64895,1,0,0:0:0:0:
375,152,65049,1,8,0:0:0:0:
261,113,65202,2,0,B|184:108|160:170|56:157,1,180,2|0,1:2|1:0,0:0:0:0:
6,339,65664,2,0,P|17:275|30:230,1,90,10|0,0:0|0:0,0:0:0:0:
24,10,65973,6,0,L|228:37,1,180,14|14,1:2|1:2,0:0:0:0:
317,363,66570,2,0,L|521:336,1,180,12|12,1:2|1:2,0:0:0:0:
512,22,67179,1,0,1:0:0:0:
512,22,67473,2,0,L|499:127,1,90,8|0,0:0|1:0,0:0:0:0:
484,187,67944,2,0,L|472:97,1,90,0|10,1:0|0:0,0:0:0:0:
418,12,68397,6,0,P|326:60|298:319,1,360,2|2,1:2|1:2,0:0:0:0:
394,358,69155,1,0,1:0:0:0:
455,310,69310,2,0,P|481:287|459:217,1,90,10|2,0:0|0:0,0:0:0:0:
301,174,69621,6,0,P|199:181|88:202,1,180,2|8,1:2|0:0,0:0:0:0:
2,8,70055,2,0,P|36:77|89:114,1,135,0|0,1:0|0:0,0:0:0:0:
118,98,70377,1,0,1:0:0:0:
209,62,70538,1,8,0:0:0:0:
310,56,70689,1,0,0:0:0:0:
409,92,70841,5,14,1:2:0:0:
375,384,71149,1,14,1:2:0:0:
409,92,71457,1,14,1:2:0:0:
481,217,71745,6,0,P|445:311|432:370,1,135,6|0,1:2|0:0,0:0:0:0:
464,373,72055,1,8,0:0:0:0:
426,278,72211,1,0,0:0:0:0:
328,212,72366,1,0,1:0:0:0:
211,226,72522,1,0,1:1:0:0:
137,303,72677,6,0,P|112:215|76:114,1,180,10|14,0:0|1:2,0:0:0:0:
416,69,73299,1,14,1:2:0:0:
82,131,73595,1,14,1:2:0:0:
25,368,73905,6,0,L|226:345,1,180,6|8,1:2|0:0,0:0:0:0:
313,260,74354,1,0,0:0:0:0:
372,313,74509,2,0,L|469:331,1,90,0|0,1:0|1:0,0:0:0:0:
429,67,74820,6,0,L|269:201,1,180,10|14,0:0|1:2,0:0:0:0:
23,379,75440,1,14,1:2:0:0:
291,182,75723,1,14,1:2:0:0:
0,49,76050,5,6,1:2:0:0:
493,214,88271,6,2,B|481:288|481:288|500:311|500:311|485:416,1,180,2|0,0:1|0:0,0:1:0:0:
493,214,88776,1,2,0:1:0:0:
421,168,88972,2,0,B|402:123|402:123|447:27,1,135,2|0,1:0|0:0,0:0:0:0:
371,263,89402,2,0,B|332:316|332:316|286:227|286:227|97:191,1,315,2|0,0:1|1:0,0:0:0:0:
213,313,90295,1,0,1:0:0:0:
298,24,91238,6,2,L|295:57,6,22.5,4|0|0|0|0|0|0,0:0|0:0|0:0|0:0|0:0|0:0|0:0,0:1:0:0:
340,50,91502,2,0,L|345:110,4,36
28,201,92114,5,8,0:0:0:0:
35,210,92215,5,8,0:0:0:0:
75,177,92316,5,8,3:0:0:0:
116,218,92417,6,0,L|101:128,2,60,4|8|10,3:0|0:0|0:0,0:0:0:0:
202,229,92720,5,8,0:0:0:0:
195,238,92811,6,0,L|208:315,1,60,8|4,0:0|3:0,0:0:0:0:
280,250,92995,6,0,L|295:160,2,60,8|8|4,0:0|0:0|3:0,0:0:0:0:
368,259,93274,5,8,3:0:0:0:
400,215,93366,5,8,0:0:0:0:
433,277,93458,5,4,3:0:0:0:
455,345,93542,6,0,L|470:255,1,60,8|12,0:0|0:0,0:0:0:0:
256,192,100615,12,0,101556,0:0:0:0:
132,205,103203,5,2,0:0:0:0:
132,205,103436,6,0,P|176:210|256:210,1,90,2|2,0:0|0:0,0:0:0:0:
454,219,103873,5,4,1:2:0:0:
401,42,104058,1,8,0:3:0:0:
356,59,104135,1,6,0:3:0:0:
314,26,104212,1,8,0:0:0:0:
267,47,104289,1,8,0:0:0:0:
306,77,104366,6,0,L|286:189,1,90,6|10,1:2|0:3,0:0:0:0:
326,195,104596,1,4,0:3:0:0:
361,223,104673,1,10,0:0:0:0:
343,271,104750,1,8,0:0:0:0:
380,298,104827,6,0,L|288:329,1,90,6|10,1:2|0:3,0:0:0:0:
249,299,105070,1,4,3:0:0:0:
197,317,105133,1,10,0:0:0:0:
164,273,105217,1,8,0:0:0:0:
113,295,105301,6,0,L|63:196,1,90,6|10,1:2|0:3,0:0:0:0:
94,170,105540,1,6,3:0:0:0:
66,125,105620,1,10,0:0:0:0:
93,82,105690,1,10,0:0:0:0:
93,82,105785,6,0,L|153:29,1,45,6|2,1:2|0:1,0:0:0:0:
255,27,105994,2,0,L|315:7,1,45,6|0,1:0|0:0,0:0:0:0:
448,51,106159,2,0,L|416:118,1,45,6|0,1:0|0:0,0:0:0:0:
266,159,106365,6,2,B|267:137|267:137|280:155|280:155|251:258,1,112.5,2|12,1:0|1:2,0:1:0:0:
456,356,106930,1,0,0:0:0:0:
480,376,107005,2,0,L|441:210,1,135,2|0,0:1|0:0,0:0:0:0:
32,8,108334,2,2,L|81:226,1,180,2|0,0:0|1:0,0:1:0:0:
111,207,108745,5,0,1:0:0:0:
111,207,108804,5,8,0:0:0:0:
382,143,109105,5,12,1:2:0:0:
218,220,116436,5,0,0:0:0:0:
222,232,116488,2,0,L|344:266,1,90,0|0,1:0|0:0,0:0:0:0:
325,333,117669,6,0,L|171:363,1,135
256,192,118123,12,4,119531,1:2:0:0:
150,11,119794,5,14,0:0:0:0:
103,50,120008,2,2,L|146:343,1,270,12|12,1:2|1:2,0:1:0:0:
458,153,120948,5,4,1:0:0:0:
342,58,121213,1,6,1:2:0:0:
296,97,121359,6,0,L|267:217,1,90,10|0,0:0|0:0,0:0:0:0:
330,346,121669,1,4,1:2:0:0:
272,18,122167,1,12,1:2:0:0:
236,50,122422,6,0,L|123:36,2,105,4|4|4,3:0|3:0|3:0,0:0:0:0:
492,182,123320,6,0,P|467:304|244:328,1,360,6|4,1:2|1:2,0:0:0:0:
209,194,124132,2,0,L|199:284,1,90,10|4,0:0|1:2,0:0:0:0:
286,189,124428,2,0,L|266:5,1,180,2|0,0:0|0:0,0:0:0:0:
21,193,125428,5,8,0:0:0:0:
21,193,125530,1,8,0:0:0:0:
21,193,125632,2,0,L|140:177,1,90,6|4,1:2|1:2,0:0:0:0:
138,251,126061,6,0,L|341:281,1,180,6|0,1:2|0:0,0:0:0:0:
359,244,126562,1,4,0:0:0:0:
253,299,127559,6,0,L|246:339,1,30,0|2,0:0|0:0,0:0:0:0:
256,192,127679,12,0,130217,0:0:0:0:
42,167,131742,5,2,0:0:0:0:
75,175,131996,1,0,0:0:0:0:
109,182,132250,2,0,L|118:236,4,45,2|0|0|0|0,1:2|1:0|1:0|1:0|1:0,0:0:0:0:
149,189,132556,2,0,L|188:226,1,45,0|2,1:0|1:2,0:0:0:0:
199,202,132671,2,0,L|251:205,1,45,0|2,1:2|1:2,0:0:0:0:
243,204,132787,2,0,L|307:167,4,45,0|0|2|0|0,1:0|1:0|1:2|1:0|1:0,0:0:0:0:
12,163,133208,6,0,L|46:64,1,90,2|2,1:2|1:2,0:0:0:0:
11,219,133481,2,0,L|56:337,1,90,2|2,1:2|1:2,0:0:0:0:
411,316,134096,5,0,1:0:0:0:
411,316,134338,1,0,1:0:0:0:
411,316,134579,2,0,B|441:291|441:291|404:114,1,180
355,101,135179,2,0,L|374:13,1,90,2|4,0:0|1:2,0:0:0:0:
27,358,135895,5,0,0:0:0:0:
27,358,135954,5,0,0:0:0:0:
27,358,136013,5,2,0:0:0:0:
108,328,136367,5,0,0:0:0:0:
108,328,136455,2,0,L|104:375,1,30,2|0,0:0|0:0,0:0:0:0:
29,153,136855,5,2,1:2:0:0:
29,153,137055,1,0,1:0:0:0:
13,176,137232,2,0,L|164:155,1,135.000005149842,2|2,0:0|0:0,0:0:0:0:
218,180,137650,1,2,0:0:0:0:
196,219,137790,2,0,L|413:243,1,180,2|2,0:0|1:2,0:0:0:0:
417,214,138237,5,0,0:0:0:0:
391,167,138379,1,2,0:0:0:0:
437,126,138521,2,0,B|445:35|445:35|478:131,1,180,2|0,0:0|1:2,0:0:0:0:
220,47,139256,6,0,L|121:80,1,90,0|0,1:2|0:0,0:0:0:0:
22,159,139631,2,0,L|83:344,1,180,2|0,1:2|1:2,0:0:0:0:
214,363,140119,1,0,0:0:0:0:
279,323,140269,6,0,L|377:295,1,90,0|0,1:2|0:0,0:0:0:0:
425,252,140512,6,0,L|446:144,1,90,2|0,1:2|0:0,0:0:0:0:
403,95,140736,6,0,L|321:57,1,90,0|0,1:2|0:0,0:0:0:0:
168,52,140950,6,0,B|130:89|130:89|120:160,1,90,2|0,1:2|0:0,0:0:0:0:
108,255,141165,6,0,B|136:310|136:310|192:321,1,90,0|0,1:2|0:0,0:0:0:0:
305,357,141381,6,0,B|355:343|355:343|386:277,1,90,0|0,1:2|0:0,0:0:0:0:
479,116,141688,6,0,L|431:261,1,135,2|0,1:2|0:0,0:0:0:0:
449,276,142138,5,2,1:0:0:0:
272,246,142413,5,2,0:1:0:0:
101,235,142692,5,2,1:0:0:0:
97,225,142897,6,0,L|-1:262,1,90,2|2,0:0|0:0,0:0:0:0:
115,207,143228,6,0,L|152:290,1,90,2|2,0:0|0:0,0:0:0:0:
177,91,143679,6,0,P|178:46|187:1,2,90,8|8|8,0:0|0:0|0:0,0:0:0:0:
339,367,144138,6,0,P|338:283|316:178,1,180,6|10,1:2|0:0,0:0:0:0:
177,91,144564,1,0,0:0:0:0:
115,209,144706,2,0,L|127:314,1,90,2|2,1:2|1:2,0:0:0:0:
316,100,144991,2,0,L|327:204,1,90,10|0,0:0|0:0,0:0:0:0:
111,4,145295,5,2,1:2:0:0:
19,114,145430,1,2,0:0:0:0:
115,209,145565,1,10,0:0:0:0:
230,163,145733,2,0,L|425:194,1,180,2|2,1:2|1:2,0:0:0:0:
458,92,146172,2,0,L|497:11,1,90,10|2,0:0|0:0,0:0:0:0:
312,285,146476,6,0,L|352:374,1,90,2|0,1:2|1:0,0:0:0:0:
509,317,146761,2,0,P|478:243|382:236,1,180,10|2,0:0|1:2,0:0:0:0:
267,371,147208,1,2,1:2:0:0:
469,346,147347,2,0,L|355:332,1,90,10|0,0:0|0:0,0:0:0:0:
52,384,147647,6,0,L|68:288,1,90,2|2,1:2|0:0,0:0:0:0:
157,192,147938,1,10,0:0:0:0:
46,51,148076,2,0,L|88:239,1,180,2|2,1:2|1:2,0:0:0:0:
224,153,148526,2,0,L|319:138,1,90,10|2,0:0|0:0,0:0:0:0:
476,311,148843,6,0,B|380:297|397:367|276:352,1,180,2|10,1:2|0:0,0:0:0:0:
220,253,149272,1,0,0:0:0:0:
104,292,149421,2,0,P|93:227|93:165,1,90,2|2,1:2|1:2,0:0:0:0:
316,45,149720,2,0,P|281:118|162:118,1,180,8|2,0:0|1:2,0:0:0:0:
47,64,150161,5,0,0:0:0:0:
182,0,150308,1,10,0:0:0:0:
277,121,150447,2,0,P|291:204|296:305,1,180,2|0,1:2|1:2,0:0:0:0:
441,377,150897,2,0,P|447:314|460:268,1,90,10|0,0:0|0:0,0:0:0:0:
474,96,151197,6,0,L|368:85,1,90,2|0,1:2|1:0,0:0:0:0:
197,239,151504,2,0,L|107:248,1,90,10|0,0:0|0:0,0:0:0:0:
478,65,151804,2,0,L|356:22,1,90,2|2,1:2|1:2,0:0:0:0:
174,204,152085,2,0,L|109:110,1,90,10|0,0:0|0:0,0:0:0:0:
256,0,152299,1,8,0:0:0:0:
256,0,152370,5,4,1:3:0:0:
256,32,152441,1,8,0:0:0:0:
256,64,152513,1,8,0:0:0:0:
256,96,152584,1,8,0:0:0:0:
256,128,152655,5,8,1:3:0:0:
288,144,152727,1,8,0:0:0:0:
320,160,152798,1,8,0:0:0:0:
352,176,152870,1,8,0:0:0:0:
384,192,152941,6,0,L|392:258,1,45,8|8,1:3|0:0,0:0:0:0:
292,333,153084,2,0,L|300:399,1,45,8|8,0:0|0:0,0:0:0:0:
460,301,153227,5,4,1:3:0:0:
444,269,153298,1,8,0:0:0:0:
428,237,153370,1,8,0:0:0:0:
412,205,153441,1,8,0:0:0:0:
384,192,153537,6,0,B|444:127|444:127|423:21,1,180,6|8,1:2|0:0,0:0:0:0:
205,2,153987,1,2,0:0:0:0:
153,59,154137,2,0,B|118:89|118:89|145:159,1,90,2|0,1:2|1:0,0:0:0:0:
221,372,154437,2,0,P|241:276|246:213,1,135,8|0,0:0|0:0,0:0:0:0:
182,189,154737,6,0,L|72:213,1,90,2|0,1:2|0:0,0:0:0:0:
20,343,155041,1,8,0:0:0:0:
330,331,155188,6,0,L|142:295,1,180,2|2,1:2|1:2,0:0:0:0:
24,137,155631,1,8,0:0:0:0:
192,180,155779,1,0,0:0:0:0:
68,286,155927,6,0,L|51:68,1,180,14|12,1:2|1:2,0:0:0:0:
236,37,156372,1,2,0:0:0:0:
444,98,156521,2,0,L|432:196,1,90,14|2,1:2|1:2,0:0:0:0:
373,247,156818,2,0,L|385:345,1,90,14|2,1:2|1:2,0:0:0:0:
512,226,157123,5,2,1:2:0:0:
307,49,157417,1,10,0:0:0:0:
245,307,157711,1,2,0:0:0:0:
245,307,157858,1,2,1:2:0:0:
245,307,158005,2,0,B|224:341|260:370|260:370|237:333|255:298,1,135,8|0,0:0|0:0,0:0:0:0:
260,230,158299,6,0,B|248:152|248:152|252:134|252:134|236:16,1,180,2|8,1:2|0:0,0:0:0:0:
82,61,158755,2,0,B|89:89|89:89|46:151,1,90,2|0,0:0|1:0,0:0:0:0:
260,230,159060,1,0,1:0:0:0:
303,4,159212,2,0,L|486:129,1,180,10|0,0:0|1:0,0:0:0:0:
466,327,159653,2,0,B|458:292|458:292|461:285|461:285|451:239,1,90,2|8,0:0|0:0,0:0:0:0:
156,300,159947,6,0,P|162:226|234:101,1,180,2|0,1:2|1:0,0:0:0:0:
362,293,160417,2,0,P|328:341|282:354,1,90,10|0,0:0|0:0,0:0:0:0:
131,222,160709,6,0,P|28:205|29:130,1,180,12|12,1:2|1:2,0:0:0:0:
361,27,161309,2,0,P|464:44|463:119,1,180,12|14,1:2|1:2,0:0:0:0:
311,368,161938,1,8,0:0:0:0:
311,368,162178,2,0,P|306:303|290:362,1,180,2|0,0:0|0:0,0:0:0:0:
301,382,162844,6,0,L|336:378,1,22.5,8|8,0:0|0:0,0:0:0:0:
72,319,163176,6,0,P|54:251|51:123,1,180,6|10,1:2|0:0,0:0:0:0:
185,45,163601,1,2,0:0:0:0:
29,42,163751,2,0,P|93:50|210:106,1,180,2|8,1:2|0:0,0:0:0:0:
207,253,164201,1,0,0:0:0:0:
341,167,164351,6,0,P|308:218|235:222,1,135,2|0,1:2|0:0,0:0:0:0:
207,253,164651,2,0,L|192:341,1,90,8|2,0:0|1:2,0:0:0:0:
376,358,164954,1,0,0:0:0:0:
462,230,165107,1,0,1:0:0:0:
376,358,165260,2,0,L|337:250,1,90,8|0,0:0|0:0,0:0:0:0:
35,92,165567,6,0,P|125:99|215:110,1,180,14|14,1:2|1:2,0:0:0:0:
297,274,166153,2,0,P|404:286|483:292,1,180,14|14,1:2|1:2,0:0:0:0:
350,19,166762,1,2,1:2:0:0:
350,19,167050,6,0,P|334:83|330:145,1,90,8|0,0:0|1:0,0:0:0:0:
359,122,167506,2,0,P|375:58|379:-4,1,90,2|8,1:2|0:0,0:0:0:0:
69,136,167957,6,0,P|68:209|108:341,1,180,6|8,1:2|0:0,0:0:0:0:
160,253,168405,1,0,0:0:0:0:
254,384,168554,2,0,P|255:311|215:179,1,180,2|8,1:2|0:0,0:0:0:0:
204,44,169003,1,2,0:0:0:0:
123,40,169152,6,0,P|189:90|326:99,1,180,0|8,1:0|0:0,0:0:0:0:
371,255,169601,2,0,P|429:192|458:92,1,180,0|0,1:0|1:0,0:0:0:0:
332,0,170082,1,8,0:0:0:0:
94,383,170364,5,14,1:2:0:0:
452,307,170672,1,14,1:2:0:0:
216,54,170982,1,14,1:2:0:0:
23,373,171291,6,0,P|40:301|36:175,1,180,6|8,1:2|0:0,0:0:0:0:
4,71,171754,1,0,0:0:0:0:
4,71,171909,2,0,P|0:143|20:181,1,90,0|2,1:0|1:2,0:0:0:0:
126,1,172213,2,0,P|176:68|260:76,1,135,8|0,0:0|0:0,0:0:0:0:
256,32,172525,5,14,1:2:0:0:
485,370,172829,1,14,1:2:0:0:
68,384,173133,1,14,1:2:0:0:
485,370,173438,6,0,L|503:181,1,180,6|8,1:2|0:0,0:0:0:0:
413,99,173893,1,0,0:0:0:0:
448,0,174045,2,0,L|427:126,1,90,0|0,1:0|1:0,0:0:0:0:
280,174,174349,2,0,L|264:318,1,135,10|0,0:0|0:0,0:0:0:0:
256,352,174653,5,14,1:2:0:0:
113,0,174957,1,14,1:2:0:0:
512,72,175261,1,14,1:2:0:0:
23,275,175564,6,0,L|37:357,1,45,2|0,0:0|0:0,0:0:0:0:
63,297,175676,2,2,L|93:325,12,30,6|0|0|0|0|0|0|0|0|0|0|0|0,0:0|0:0|0:0|0:0|0:0|0:0|0:0|0:0|0:0|0:0|0:0|0:0|0:0,0:1:0:0:
