osu file format v14

[General]
AudioFilename: The Beep Test drum beat.mp3
AudioLeadIn: 0
PreviewTime: -1
Countdown: 1
SampleSet: None
StackLeniency: 0.7
Mode: 0
LetterboxInBreaks: 0
WidescreenStoryboard: 0

[Editor]
DistanceSpacing: 0.9
BeatDivisor: 4
GridSize: 4
TimelineZoom: 1.5

[Metadata]
Title:Osu Beep Test
TitleUnicode:Osu Beep Test
Artist:
ArtistUnicode:
Creator:Somfingwong
Version:Impossible
Source:
Tags:Beep test speed test challenge
BeatmapID:1004769
BeatmapSetID:469900

[Difficulty]
HPDrainRate:4
CircleSize:4
OverallDifficulty:6.5
ApproachRate:9.3
SliderMultiplier:1.59999990463257
SliderTickRate:2

[Events]
//Background and Video events
0,0,"osubeeptest.jpg",0,0
//Break Periods
//Storyboard Layer 0 (Background)
//Storyboard Layer 1 (Fail)
//Storyboard Layer 2 (Pass)
//Storyboard Layer 3 (Foreground)
//Storyboard Sound Samples

[TimingPoints]
10595,545.454545454546,4,2,0,70,1,0
10595,-111.111111111111,4,2,0,70,0,0
73322,500,4,2,0,70,1,0
73322,-100,4,2,0,70,0,0
136879,461.538461538462,4,2,0,70,1,0
136879,-90.9090909090909,4,2,0,70,0,0
197390,428.571428571429,4,2,0,70,1,0
197390,-83.3333333333333,4,2,0,70,0,0
262983,400,4,2,0,70,1,0
262983,-76.9230769230769,4,2,0,70,0,0
324612,375,4,2,0,70,1,0
324612,-71.4285714285714,4,2,0,70,0,0
390268,352.941176470588,4,2,0,70,1,0
390268,-50,4,2,0,70,0,0
452739,333.333333333333,4,2,0,70,1,0
452739,-50,4,2,0,70,0,0
518760,315.789473684211,4,2,0,70,1,0
518760,-50,4,2,0,70,0,0
582570,300,4,2,0,70,1,0
582570,-50,4,2,0,70,0,0

[HitObjects]
256,36,10595,5,0,2:0:0:0:
256,64,11140,1,0,2:0:0:0:
256,92,11685,1,0,2:0:0:0:
256,124,12231,1,0,2:0:0:0:
256,152,12776,1,0,2:0:0:0:
256,184,13322,5,0,2:0:0:0:
256,212,13867,1,0,2:0:0:0:
256,244,14413,1,0,2:0:0:0:
256,272,14958,1,0,2:0:0:0:
256,304,15504,1,0,2:0:0:0:
256,332,16049,1,0,2:0:0:0:
288,332,16595,5,0,2:0:0:0:
316,332,17140,1,0,2:0:0:0:
348,332,17686,1,0,2:0:0:0:
376,332,18231,1,0,2:0:0:0:
404,332,18776,1,0,2:0:0:0:
432,336,19322,1,0,2:0:0:0:
460,336,19867,1,0,2:0:0:0:
488,340,20413,1,0,2:0:0:0:
488,312,20958,5,0,2:0:0:0:
488,280,21504,1,0,2:0:0:0:
488,252,22049,1,0,2:0:0:0:
488,220,22595,1,0,2:0:0:0:
488,192,23140,1,0,2:0:0:0:
456,192,23686,5,0,2:0:0:0:
428,192,24231,1,0,2:0:0:0:
396,192,24777,1,0,2:0:0:0:
368,192,25322,1,0,2:0:0:0:
336,192,25868,1,0,2:0:0:0:
308,192,26413,1,0,2:0:0:0:
280,192,26958,1,0,2:0:0:0:
248,192,27504,5,0,2:0:0:0:
220,192,28049,1,0,2:0:0:0:
188,192,28595,1,0,2:0:0:0:
160,192,29140,1,0,2:0:0:0:
132,192,29685,1,0,2:0:0:0:
100,192,30231,1,0,2:0:0:0:
72,192,30776,1,0,2:0:0:0:
40,192,31322,1,0,2:0:0:0:
12,192,31867,1,0,2:0:0:0:
12,160,32413,5,0,2:0:0:0:
12,132,32958,1,0,2:0:0:0:
12,100,33504,1,0,2:0:0:0:
12,72,34049,1,0,2:0:0:0:
12,40,34595,1,0,2:0:0:0:
16,68,35140,1,0,2:0:0:0:
44,68,35685,5,0,2:0:0:0:
76,68,36231,1,0,2:0:0:0:
104,68,36776,1,0,2:0:0:0:
136,68,37322,1,0,2:0:0:0:
164,68,37867,1,0,2:0:0:0:
196,68,38413,1,0,2:0:0:0:
224,68,38958,1,0,2:0:0:0:
256,68,39504,1,0,2:0:0:0:
284,68,40049,5,0,2:0:0:0:
316,68,40595,1,0,2:0:0:0:
344,68,41140,1,0,2:0:0:0:
372,68,41685,1,0,2:0:0:0:
404,68,42231,1,0,2:0:0:0:
432,68,42776,1,0,2:0:0:0:
464,68,43322,1,0,2:0:0:0:
492,68,43867,1,0,2:0:0:0:
488,96,44413,1,0,2:0:0:0:
460,96,44958,5,0,2:0:0:0:
428,96,45504,1,0,2:0:0:0:
400,96,46049,1,0,2:0:0:0:
368,96,46595,1,0,2:0:0:0:
340,96,47140,1,0,2:0:0:0:
308,96,47686,1,0,2:0:0:0:
280,96,48231,1,0,2:0:0:0:
248,96,48777,1,0,2:0:0:0:
220,96,49322,5,0,2:0:0:0:
188,96,49868,1,0,2:0:0:0:
160,96,50413,1,0,2:0:0:0:
132,96,50958,1,0,2:0:0:0:
100,96,51504,1,0,2:0:0:0:
72,96,52049,1,0,2:0:0:0:
40,96,52595,1,0,2:0:0:0:
12,96,53140,5,0,2:0:0:0:
36,116,53685,1,0,2:0:0:0:
60,136,54231,1,0,2:0:0:0:
84,156,54776,1,0,2:0:0:0:
108,176,55322,1,0,2:0:0:0:
132,196,55867,1,0,2:0:0:0:
156,216,56413,5,0,2:0:0:0:
176,236,56958,1,0,2:0:0:0:
196,256,57504,1,0,2:0:0:0:
220,276,58049,1,0,2:0:0:0:
240,296,58595,1,0,2:0:0:0:
260,316,59140,1,0,2:0:0:0:
260,288,59685,5,0,2:0:0:0:
260,256,60231,1,0,2:0:0:0:
260,228,60776,1,0,2:0:0:0:
260,196,61322,1,0,2:0:0:0:
260,168,61867,1,0,2:0:0:0:
260,136,62413,1,0,2:0:0:0:
260,108,62958,1,0,2:0:0:0:
260,80,63504,1,0,2:0:0:0:
260,52,64049,1,0,2:0:0:0:
260,20,64595,5,0,2:0:0:0:
288,36,65140,1,0,2:0:0:0:
312,52,65685,1,0,2:0:0:0:
336,68,66231,1,0,2:0:0:0:
360,84,66776,1,0,2:0:0:0:
384,100,67322,1,0,2:0:0:0:
408,116,67867,1,0,2:0:0:0:
432,132,68413,5,0,2:0:0:0:
456,152,68958,1,0,2:0:0:0:
480,168,69504,1,0,2:0:0:0:
504,188,70049,1,0,2:0:0:0:
480,204,70595,1,0,2:0:0:0:
456,220,71140,1,0,2:0:0:0:
256,192,71685,12,0,73322,2:0:0:0:
256,184,73822,5,0,2:0:0:0:
256,292,74322,1,0,2:0:0:0:
155,191,74822,1,0,2:0:0:0:
256,91,75322,1,0,2:0:0:0:
356,192,75822,5,0,2:0:0:0:
256,91,76322,1,0,2:0:0:0:
356,192,76822,1,0,2:0:0:0:
255,292,77322,1,0,2:0:0:0:
155,191,77822,1,0,2:0:0:0:
356,192,78322,5,0,2:0:0:0:
155,191,78822,1,0,2:0:0:0:
255,292,79322,1,0,2:0:0:0:
256,91,79822,1,0,2:0:0:0:
356,192,80322,5,0,2:0:0:0:
155,193,80822,1,0,2:0:0:0:
255,92,81322,1,0,2:0:0:0:
408,192,81822,5,0,2:0:0:0:
256,351,82322,1,0,2:0:0:0:
162,62,82822,1,0,2:0:0:0:
104,241,83322,1,0,2:0:0:0:
349,62,83822,1,0,2:0:0:0:
407,241,84322,1,0,2:0:0:0:
104,192,84822,5,0,2:0:0:0:
256,351,85322,1,0,2:0:0:0:
349,62,85822,1,0,2:0:0:0:
407,241,86322,1,0,2:0:0:0:
162,62,86822,1,0,2:0:0:0:
104,241,87322,1,0,2:0:0:0:
256,48,87822,6,0,L|144:48,1,79.9999952316285,0|0,2:0|2:0,2:0:0:0:
176,120,88322,2,0,L|288:120,1,79.9999952316285,0|0,2:0|2:0,2:0:0:0:
256,192,88822,2,0,L|144:192,1,79.9999952316285,0|0,2:0|2:0,2:0:0:0:
172,268,89322,2,0,L|284:268,1,79.9999952316285,0|0,2:0|2:0,2:0:0:0:
252,340,89822,2,0,L|140:340,1,79.9999952316285,0|0,2:0|2:0,2:0:0:0:
112,192,90322,5,0,2:0:0:0:
256,192,90822,1,0,2:0:0:0:
400,192,91322,1,0,2:0:0:0:
256,192,91822,1,0,2:0:0:0:
112,192,92322,1,0,2:0:0:0:
256,192,92822,1,0,2:0:0:0:
256,48,93322,5,0,2:0:0:0:
256,192,93822,1,0,2:0:0:0:
256,336,94322,1,0,2:0:0:0:
256,192,94822,1,0,2:0:0:0:
256,184,95322,1,0,2:0:0:0:
256,292,95822,1,0,2:0:0:0:
357,191,96322,1,0,2:0:0:0:
256,91,96822,1,0,2:0:0:0:
156,192,97322,5,0,2:0:0:0:
256,91,97822,1,0,2:0:0:0:
156,192,98322,1,0,2:0:0:0:
257,292,98822,1,0,2:0:0:0:
357,191,99322,1,0,2:0:0:0:
156,192,99822,5,0,2:0:0:0:
357,191,100322,1,0,2:0:0:0:
257,292,100822,1,0,2:0:0:0:
256,91,101322,1,0,2:0:0:0:
156,192,101822,5,0,2:0:0:0:
357,193,102322,1,0,2:0:0:0:
257,92,102822,1,0,2:0:0:0:
104,192,103322,5,0,2:0:0:0:
256,351,103822,1,0,2:0:0:0:
350,62,104322,1,0,2:0:0:0:
408,241,104822,1,0,2:0:0:0:
163,62,105322,1,0,2:0:0:0:
105,241,105822,1,0,2:0:0:0:
408,192,106322,5,0,2:0:0:0:
256,351,106822,1,0,2:0:0:0:
163,62,107322,1,0,2:0:0:0:
105,241,107822,1,0,2:0:0:0:
350,62,108322,1,0,2:0:0:0:
408,241,108822,1,0,2:0:0:0:
256,48,109322,6,0,L|368:48,1,79.9999952316285,0|0,2:0|2:0,2:0:0:0:
336,120,109822,2,0,L|224:120,1,79.9999952316285,0|0,2:0|2:0,2:0:0:0:
256,192,110322,2,0,L|368:192,1,79.9999952316285,0|0,2:0|2:0,2:0:0:0:
340,268,110822,2,0,L|228:268,1,79.9999952316285,0|0,2:0|2:0,2:0:0:0:
260,340,111322,2,0,L|372:340,1,79.9999952316285,0|0,2:0|2:0,2:0:0:0:
400,192,111822,5,0,2:0:0:0:
256,192,112322,1,0,2:0:0:0:
112,192,112822,1,0,2:0:0:0:
256,192,113322,1,0,2:0:0:0:
400,192,113822,1,0,2:0:0:0:
256,192,114322,1,0,2:0:0:0:
256,48,114822,5,0,2:0:0:0:
256,192,115322,1,0,2:0:0:0:
256,336,115822,1,0,2:0:0:0:
256,192,116322,1,0,2:0:0:0:
80,48,116822,6,0,P|140:72|160:104,1,79.9999952316285,0|0,2:0|2:0,2:0:0:0:
216,44,117322,2,0,P|246:100|241:138,1,79.9999952316285,0|0,2:0|2:0,2:0:0:0:
324,116,117822,2,0,P|310:179|282:204,1,79.9999952316285,0|0,2:0|2:0,2:0:0:0:
368,232,118322,2,0,P|317:271|279:273,1,79.9999952316285,0|0,2:0|2:0,2:0:0:0:
188,192,118822,1,0,2:0:0:0:
432,48,119322,6,0,P|372:72|352:104,1,79.9999952316285,0|0,2:0|2:0,2:0:0:0:
296,44,119822,2,0,P|266:100|271:138,1,79.9999952316285,0|0,2:0|2:0,2:0:0:0:
188,116,120322,2,0,P|202:179|230:204,1,79.9999952316285,0|0,2:0|2:0,2:0:0:0:
144,232,120822,2,0,P|195:271|233:273,1,79.9999952316285,0|0,2:0|2:0,2:0:0:0:
312,272,121322,1,0,2:0:0:0:
156,192,121822,5,0,2:0:0:0:
357,193,122322,1,0,2:0:0:0:
257,92,122822,1,0,2:0:0:0:
256,293,123322,1,0,2:0:0:0:
156,192,123822,5,0,2:0:0:0:
357,191,124322,1,0,2:0:0:0:
257,292,124822,1,0,2:0:0:0:
104,192,125322,5,0,2:0:0:0:
256,33,125822,1,0,2:0:0:0:
350,322,126322,1,0,2:0:0:0:
408,143,126822,1,0,2:0:0:0:
163,322,127322,1,0,2:0:0:0:
105,143,127822,1,0,2:0:0:0:
408,192,128322,5,0,2:0:0:0:
256,33,128822,1,0,2:0:0:0:
162,322,129322,1,0,2:0:0:0:
104,143,129822,1,0,2:0:0:0:
349,322,130322,1,0,2:0:0:0:
400,192,130822,5,0,2:0:0:0:
256,192,131322,1,0,2:0:0:0:
112,192,131822,1,0,2:0:0:0:
256,192,132322,1,0,2:0:0:0:
400,192,132822,1,0,2:0:0:0:
256,192,133322,1,0,2:0:0:0:
168,92,133822,6,0,B|248:44|332:96,1,159.999990463257,0|0,2:0|2:0,2:0:0:0:
64,212,134822,1,0,2:0:0:0:
256,192,135322,12,0,136822,2:0:0:0:
216,260,137340,5,0,2:0:0:0:
216,123,137570,1,0,2:0:0:0:
334,192,137801,1,0,2:0:0:0:
216,260,138032,1,0,2:0:0:0:
216,123,138263,1,0,2:0:0:0:
334,192,138494,1,0,2:0:0:0:
256,192,138725,1,0,2:0:0:0:
295,123,139186,5,0,2:0:0:0:
295,260,139416,1,0,2:0:0:0:
177,191,139647,1,0,2:0:0:0:
295,123,139878,1,0,2:0:0:0:
295,260,140109,1,0,2:0:0:0:
177,191,140340,1,0,2:0:0:0:
256,192,140571,1,0,2:0:0:0:
257,354,141032,5,0,2:0:0:0:
324,45,141494,1,0,2:0:0:0:
130,294,141955,1,0,2:0:0:0:
413,154,142417,1,0,2:0:0:0:
97,157,142878,1,0,2:0:0:0:
383,291,143340,1,0,2:0:0:0:
184,46,143801,1,0,2:0:0:0:
254,354,144263,5,0,2:0:0:0:
187,45,144725,1,0,2:0:0:0:
381,294,145186,1,0,2:0:0:0:
98,154,145648,1,0,2:0:0:0:
414,157,146109,1,0,2:0:0:0:
128,291,146571,1,0,2:0:0:0:
327,46,147032,1,0,2:0:0:0:
184,172,147494,6,0,P|160:112|168:64,1,87.9999974403381,0|0,2:0|2:0,2:0:0:0:
256,116,147956,2,0,P|276:54|313:22,1,87.9999974403381,0|0,2:3|2:3,2:3:0:0:
328,168,148417,2,0,P|382:133|431:133,1,87.9999974403381,0|0,2:3|2:3,2:3:0:0:
296,252,148879,2,0,P|359:261|397:292,1,87.9999974403381,0|0,2:3|2:3,2:3:0:0:
212,252,149340,2,0,P|168:203|160:155,1,87.9999974403381,0|0,2:3|2:3,2:3:0:0:
328,172,149802,6,0,P|352:112|344:64,1,87.9999974403381,0|0,2:0|2:0,2:0:0:0:
256,116,150264,2,0,P|236:54|199:22,1,87.9999974403381,0|0,2:3|2:3,2:3:0:0:
184,168,150725,2,0,P|130:133|81:133,1,87.9999974403381,0|0,2:3|2:3,2:3:0:0:
216,252,151187,2,0,P|153:261|115:292,1,87.9999974403381,0|0,2:3|2:3,2:3:0:0:
300,252,151648,2,0,P|344:203|352:155,1,87.9999974403381,0|0,2:3|2:3,2:3:0:0:
256,192,152109,1,0,2:0:0:0:
96,48,152571,5,0,2:0:0:0:
412,48,153032,1,0,2:0:0:0:
96,120,153494,1,0,2:0:0:0:
412,120,153955,1,0,2:0:0:0:
96,192,154417,1,0,2:0:0:0:
412,192,154879,1,0,2:0:0:0:
96,336,155340,5,0,2:0:0:0:
412,336,155801,1,0,2:0:0:0:
96,264,156263,1,0,2:0:0:0:
412,264,156724,1,0,2:0:0:0:
96,192,157186,1,0,2:0:0:0:
412,192,157648,1,0,2:0:0:0:
314,138,158109,5,0,2:0:0:0:
180,167,158339,1,0,2:0:0:0:
272,268,158570,1,0,2:0:0:0:
314,138,158801,1,0,2:0:0:0:
180,167,159032,1,0,2:0:0:0:
272,268,159263,1,0,2:0:0:0:
256,192,159494,1,0,2:0:0:0:
196,244,159955,5,0,2:0:0:0:
330,216,160185,1,0,2:0:0:0:
238,114,160416,1,0,2:0:0:0:
196,244,160647,1,0,2:0:0:0:
330,216,160878,1,0,2:0:0:0:
238,114,161109,1,0,2:0:0:0:
256,192,161340,1,0,2:0:0:0:
255,354,161802,5,0,2:0:0:0:
188,45,162264,1,0,2:0:0:0:
382,294,162725,1,0,2:0:0:0:
99,154,163187,1,0,2:0:0:0:
415,157,163648,1,0,2:0:0:0:
129,291,164110,1,0,2:0:0:0:
328,46,164571,1,0,2:0:0:0:
258,354,165033,5,0,2:0:0:0:
325,45,165495,1,0,2:0:0:0:
131,294,165956,1,0,2:0:0:0:
414,154,166418,1,0,2:0:0:0:
98,157,166879,1,0,2:0:0:0:
384,291,167341,1,0,2:0:0:0:
185,46,167802,1,0,2:0:0:0:
328,172,168264,6,0,P|352:112|344:64,1,87.9999974403381,0|0,2:0|2:0,2:0:0:0:
256,116,168726,2,0,P|236:54|199:22,1,87.9999974403381,0|0,2:3|2:3,2:3:0:0:
184,168,169187,2,0,P|130:133|81:133,1,87.9999974403381,0|0,2:3|2:3,2:3:0:0:
216,252,169649,2,0,P|153:261|115:292,1,87.9999974403381,0|0,2:3|2:3,2:3:0:0:
300,252,170110,2,0,P|344:203|352:155,1,87.9999974403381,0|0,2:3|2:3,2:3:0:0:
184,172,170572,6,0,P|160:112|168:64,1,87.9999974403381,0|0,2:0|2:0,2:0:0:0:
256,116,171034,2,0,P|276:54|313:22,1,87.9999974403381,0|0,2:3|2:3,2:3:0:0:
328,168,171495,2,0,P|382:133|431:133,1,87.9999974403381,0|0,2:3|2:3,2:3:0:0:
296,252,171957,2,0,P|359:261|397:292,1,87.9999974403381,0|0,2:3|2:3,2:3:0:0:
212,252,172418,2,0,P|168:203|160:155,1,87.9999974403381,0|0,2:3|2:3,2:3:0:0:
256,192,172879,1,0,2:0:0:0:
416,48,173341,5,0,2:0:0:0:
100,48,173802,1,0,2:0:0:0:
416,120,174264,1,0,2:0:0:0:
100,120,174725,1,0,2:0:0:0:
416,192,175187,1,0,2:0:0:0:
100,192,175649,1,0,2:0:0:0:
416,336,176110,5,0,2:0:0:0:
100,336,176571,1,0,2:0:0:0:
416,264,177033,1,0,2:0:0:0:
100,264,177494,1,0,2:0:0:0:
416,192,177956,1,0,2:0:0:0:
100,192,178418,1,0,2:0:0:0:
392,280,178879,5,0,2:0:0:0:
324,341,179109,1,0,2:0:0:0:
232,354,179340,1,0,2:0:0:0:
148,315,179570,1,0,2:0:0:0:
98,238,179801,1,0,2:0:0:0:
98,145,180032,1,0,2:0:0:0:
148,68,180263,1,0,2:0:0:0:
232,29,180494,1,0,2:0:0:0:
324,42,180724,1,0,2:0:0:0:
393,103,180955,1,0,2:0:0:0:
419,192,181186,1,0,2:0:0:0:
256,192,181417,6,0,P|196:192|144:220,1,87.9999974403381,0|0,2:0|2:0,2:0:0:0:
84,336,182109,1,0,2:0:0:0:
256,328,182571,2,0,P|316:328|368:300,1,87.9999974403381,0|0,2:0|2:0,2:0:0:0:
340,184,183032,2,0,P|385:145|407:90,1,87.9999974403381,0|0,2:0|2:0,2:0:0:0:
264,120,183494,2,0,P|274:60|255:4,1,87.9999974403381,0|0,2:0|2:0,2:0:0:0:
124,36,183955,2,0,P|65:49|21:88,1,87.9999974403381,0|0,2:0|2:0,2:0:0:0:
108,152,184417,2,0,P|144:199|197:224,1,87.9999974403381,0|0,2:0|2:0,2:0:0:0:
256,328,184879,6,0,P|196:328|144:300,1,87.9999974403381,0|0,2:0|2:0,2:0:0:0:
172,184,185340,2,0,P|126:145|104:90,1,87.9999974403381,0|0,2:0|2:0,2:0:0:0:
248,120,185802,2,0,P|237:60|256:4,1,87.9999974403381,0|0,2:0|2:0,2:0:0:0:
388,36,186263,2,0,P|446:49|490:88,1,87.9999974403381,0|0,2:0|2:0,2:0:0:0:
416,192,186725,2,0,P|379:239|326:264,1,87.9999974403381,0|0,2:0|2:0,2:0:0:0:
252,192,187186,1,0,2:0:0:0:
120,280,187648,5,0,2:0:0:0:
188,341,187878,1,0,2:0:0:0:
280,354,188109,1,0,2:0:0:0:
364,315,188339,1,0,2:0:0:0:
414,238,188570,1,0,2:0:0:0:
414,145,188801,1,0,2:0:0:0:
364,68,189032,1,0,2:0:0:0:
280,29,189263,1,0,2:0:0:0:
188,42,189493,1,0,2:0:0:0:
119,103,189724,1,0,2:0:0:0:
93,192,189955,1,0,2:0:0:0:
256,192,190186,6,0,P|316:192|368:164,1,87.9999974403381,0|0,2:0|2:0,2:0:0:0:
256,36,190879,1,0,2:0:0:0:
124,124,191340,1,0,2:0:0:0:
284,124,191802,1,0,2:0:0:0:
172,236,192263,1,0,2:0:0:0:
332,236,192725,1,0,2:0:0:0:
424,108,193186,2,0,P|372:80|324:88,1,87.9999974403381,0|0,2:0|2:0,2:0:0:0:
252,80,193648,1,0,2:0:0:0:
256,192,194109,6,0,P|196:192|148:292,1,175.999994880676,0|0,2:0|2:0,2:0:0:0:
256,348,195032,1,0,2:0:0:0:
388,260,195494,1,0,2:0:0:0:
256,192,195955,12,0,197340,2:0:0:0:
252,104,197818,6,0,L|180:104,2,47.9999956741335,0|0|0,2:0|2:0|2:0,2:0:0:0:
256,192,198247,2,0,L|328:192,2,47.9999956741335,0|0|0,2:0|2:0|2:0,2:0:0:0:
252,280,198675,2,0,L|180:280,2,47.9999956741335,0|0|0,2:0|2:0|2:0,2:0:0:0:
64,192,199104,1,0,2:0:0:0:
260,104,199532,2,0,L|332:104,2,47.9999956741335,0|0|0,2:0|2:0|2:0,2:0:0:0:
256,192,199961,2,0,L|184:192,2,47.9999956741335,0|0|0,2:0|2:0|2:0,2:0:0:0:
260,280,200389,2,0,L|332:280,2,47.9999956741335,0|0|0,2:0|2:0|2:0,2:0:0:0:
448,192,200818,1,0,2:0:0:0:
256,48,201247,6,0,P|176:52|140:92,1,95.9999913482669,0|0,2:0|2:0,2:0:0:0:
124,148,201675,1,0,2:0:0:0:
256,48,202104,6,0,P|336:52|372:92,1,95.9999913482669,0|0,2:0|2:0,2:0:0:0:
388,148,202532,1,0,2:0:0:0:
256,148,202747,1,0,2:0:0:0:
124,148,202961,5,0,2:0:0:0:
124,172,203068,1,0,2:0:0:0:
124,196,203175,1,0,2:0:0:0:
256,200,203390,1,0,2:0:0:0:
256,224,203497,1,0,2:0:0:0:
256,248,203604,1,0,2:0:0:0:
388,248,203818,1,0,2:0:0:0:
388,272,203925,1,0,2:0:0:0:
388,296,204032,1,0,2:0:0:0:
256,192,204247,5,0,2:0:0:0:
56,48,204675,5,0,2:0:0:0:
80,48,204782,1,0,2:0:0:0:
104,48,204890,1,0,2:0:0:0:
336,48,205104,1,0,2:0:0:0:
456,336,205532,5,0,2:0:0:0:
432,336,205639,1,0,2:0:0:0:
408,336,205747,1,0,2:0:0:0:
176,336,205961,1,0,2:0:0:0:
400,0,206390,5,0,2:0:0:0:
400,24,206497,1,0,2:0:0:0:
400,48,206605,1,0,2:0:0:0:
400,280,206819,1,0,2:0:0:0:
112,392,207247,5,0,2:0:0:0:
112,368,207354,1,0,2:0:0:0:
112,344,207462,1,0,2:0:0:0:
112,112,207676,1,0,2:0:0:0:
256,192,207890,1,0,2:0:0:0:
256,192,208104,1,0,2:0:0:0:
148,260,208532,5,0,2:0:0:0:
322,83,208747,1,0,2:0:0:0:
242,318,208961,1,0,2:0:0:0:
213,72,209175,1,0,2:0:0:0:
346,281,209389,1,0,2:0:0:0:
135,150,209604,1,0,2:0:0:0:
382,176,209818,1,0,2:0:0:0:
364,260,210032,5,0,2:0:0:0:
189,83,210247,1,0,2:0:0:0:
269,318,210461,1,0,2:0:0:0:
298,72,210675,1,0,2:0:0:0:
165,281,210889,1,0,2:0:0:0:
376,150,211104,1,0,2:0:0:0:
129,176,211318,1,0,2:0:0:0:
256,192,211532,5,0,2:0:0:0:
176,136,211961,6,0,P|256:88|336:140,1,191.999982696534,0|0,2:0|2:0,2:0:0:0:
256,36,212604,2,0,L|256:236,1,191.999982696534,0|0,2:0|2:0,2:0:0:0:
256,284,213247,1,0,2:0:0:0:
80,192,213675,6,0,L|120:148,2,47.9999956741335,0|0|0,2:0|2:0|2:0,2:0:0:0:
200,192,214104,1,0,2:0:0:0:
320,192,214318,2,0,L|360:148,2,47.9999956741335,0|0|0,2:0|2:0|2:0,2:0:0:0:
440,192,214747,1,0,2:0:0:0:
440,72,214961,1,0,2:0:0:0:
432,192,215390,6,0,L|392:148,2,47.9999956741335,0|0|0,2:0|2:0|2:0,2:0:0:0:
312,192,215819,1,0,2:0:0:0:
192,192,216033,2,0,L|152:148,2,47.9999956741335,0|0|0,2:0|2:0|2:0,2:0:0:0:
72,192,216462,1,0,2:0:0:0:
72,72,216676,1,0,2:0:0:0:
260,280,217104,6,0,L|332:280,2,47.9999956741335,0|0|0,2:0|2:0|2:0,2:0:0:0:
256,192,217533,2,0,L|184:192,2,47.9999956741335,0|0|0,2:0|2:0|2:0,2:0:0:0:
260,104,217961,2,0,L|332:104,2,47.9999956741335,0|0|0,2:0|2:0|2:0,2:0:0:0:
448,192,218390,1,0,2:0:0:0:
252,280,218818,2,0,L|180:280,2,47.9999956741335,0|0|0,2:0|2:0|2:0,2:0:0:0:
256,192,219247,2,0,L|328:192,2,47.9999956741335,0|0|0,2:0|2:0|2:0,2:0:0:0:
252,104,219675,2,0,L|180:104,2,47.9999956741335,0|0|0,2:0|2:0|2:0,2:0:0:0:
64,192,220104,1,0,2:0:0:0:
256,336,220533,6,0,P|336:332|372:292,1,95.9999913482669,0|0,2:0|2:0,2:0:0:0:
388,236,220961,1,0,2:0:0:0:
256,336,221390,6,0,P|176:332|140:292,1,95.9999913482669,0|0,2:0|2:0,2:0:0:0:
124,236,221818,1,0,2:0:0:0:
256,236,222033,1,0,2:0:0:0:
388,236,222247,5,0,2:0:0:0:
388,212,222354,1,0,2:0:0:0:
388,188,222461,1,0,2:0:0:0:
256,184,222676,1,0,2:0:0:0:
256,160,222783,1,0,2:0:0:0:
256,136,222890,1,0,2:0:0:0:
124,136,223104,1,0,2:0:0:0:
124,112,223211,1,0,2:0:0:0:
124,88,223318,1,0,2:0:0:0:
256,192,223532,5,0,2:0:0:0:
186,112,223961,5,0,2:0:0:0:
359,171,224175,1,0,2:0:0:0:
221,291,224389,1,0,2:0:0:0:
244,87,224604,1,0,2:0:0:0:
352,234,224818,1,0,2:0:0:0:
170,253,225032,1,0,2:0:0:0:
307,99,225247,1,0,2:0:0:0:
310,282,225461,1,0,2:0:0:0:
150,193,225675,1,0,2:0:0:0:
350,145,225890,1,0,2:0:0:0:
248,297,226104,1,0,2:0:0:0:
168,133,226318,1,0,2:0:0:0:
360,208,226532,1,0,2:0:0:0:
189,273,226746,1,0,2:0:0:0:
218,93,226960,1,0,2:0:0:0:
256,192,227390,5,0,2:0:0:0:
456,336,227818,5,0,2:0:0:0:
432,336,227925,1,0,2:0:0:0:
408,336,228033,1,0,2:0:0:0:
176,336,228247,1,0,2:0:0:0:
56,48,228675,5,0,2:0:0:0:
80,48,228782,1,0,2:0:0:0:
104,48,228890,1,0,2:0:0:0:
336,48,229104,1,0,2:0:0:0:
112,384,229533,5,0,2:0:0:0:
112,360,229640,1,0,2:0:0:0:
112,336,229748,1,0,2:0:0:0:
112,104,229962,1,0,2:0:0:0:
400,0,230390,5,0,2:0:0:0:
400,24,230497,1,0,2:0:0:0:
400,48,230605,1,0,2:0:0:0:
400,272,230819,1,0,2:0:0:0:
256,192,231033,1,0,2:0:0:0:
256,192,231247,1,0,2:0:0:0:
364,124,231675,5,0,2:0:0:0:
190,301,231890,1,0,2:0:0:0:
270,66,232104,1,0,2:0:0:0:
299,312,232318,1,0,2:0:0:0:
166,103,232532,1,0,2:0:0:0:
377,234,232747,1,0,2:0:0:0:
130,208,232961,1,0,2:0:0:0:
148,124,233175,5,0,2:0:0:0:
323,301,233390,1,0,2:0:0:0:
243,66,233604,1,0,2:0:0:0:
214,312,233818,1,0,2:0:0:0:
347,103,234032,1,0,2:0:0:0:
136,234,234247,1,0,2:0:0:0:
383,208,234461,1,0,2:0:0:0:
256,192,234675,5,0,2:0:0:0:
40,132,235104,6,0,P|112:56|200:44,1,191.999982696534,0|0,2:0|2:0,2:0:0:0:
152,168,235747,1,0,2:0:0:0:
160,164,235961,2,0,P|264:152|339:199,1,191.999982696534,0|0,2:0|2:0,2:0:0:0:
64,352,236604,1,0,2:0:0:0:
64,344,236818,2,0,P|136:268|224:256,1,191.999982696534,0|0,2:0|2:0,2:0:0:0:
360,192,237461,1,0,2:0:0:0:
472,132,237675,2,0,P|400:56|312:44,1,191.999982696534,0|0,2:0|2:0,2:0:0:0:
360,168,238318,1,0,2:0:0:0:
352,164,238532,2,0,P|247:152|172:199,1,191.999982696534,0|0,2:0|2:0,2:0:0:0:
448,352,239175,1,0,2:0:0:0:
448,344,239389,2,0,P|376:268|288:256,1,191.999982696534,0|0,2:0|2:0,2:0:0:0:
256,36,240247,5,0,2:0:0:0:
252,104,240675,2,0,L|180:104,2,47.9999956741335,0|0|0,2:0|2:0|2:0,2:0:0:0:
256,192,241104,2,0,L|328:192,2,47.9999956741335,0|0|0,2:0|2:0|2:0,2:0:0:0:
252,280,241532,2,0,L|180:280,2,47.9999956741335,0|0|0,2:0|2:0|2:0,2:0:0:0:
64,192,241961,1,0,2:0:0:0:
260,104,242389,2,0,L|332:104,2,47.9999956741335,0|0|0,2:0|2:0|2:0,2:0:0:0:
256,192,242818,2,0,L|184:192,2,47.9999956741335,0|0|0,2:0|2:0|2:0,2:0:0:0:
260,280,243246,2,0,L|332:280,2,47.9999956741335,0|0|0,2:0|2:0|2:0,2:0:0:0:
448,192,243675,1,0,2:0:0:0:
256,48,244104,5,0,2:0:0:0:
280,128,244318,1,0,2:0:0:0:
256,128,244425,1,0,2:0:0:0:
232,128,244532,1,0,2:0:0:0:
256,192,244747,1,0,2:0:0:0:
256,292,244961,1,0,2:0:0:0:
256,40,245390,1,0,2:0:0:0:
256,336,245818,5,0,2:0:0:0:
232,256,246032,1,0,2:0:0:0:
256,256,246139,1,0,2:0:0:0:
280,256,246246,1,0,2:0:0:0:
256,192,246461,1,0,2:0:0:0:
256,92,246675,1,0,2:0:0:0:
256,344,247104,1,0,2:0:0:0:
186,112,247532,5,0,2:0:0:0:
359,171,247746,1,0,2:0:0:0:
221,291,247960,1,0,2:0:0:0:
244,87,248175,1,0,2:0:0:0:
352,234,248389,1,0,2:0:0:0:
170,253,248603,1,0,2:0:0:0:
307,99,248818,1,0,2:0:0:0:
310,282,249032,1,0,2:0:0:0:
150,193,249246,1,0,2:0:0:0:
350,145,249461,1,0,2:0:0:0:
248,297,249675,1,0,2:0:0:0:
168,133,249889,1,0,2:0:0:0:
360,208,250103,1,0,2:0:0:0:
189,273,250317,1,0,2:0:0:0:
218,93,250531,1,0,2:0:0:0:
256,192,250961,5,0,2:0:0:0:
256,48,251390,6,0,P|304:48|328:96,1,95.9999913482669,0|0,2:0|2:0,2:0:0:0:
256,192,251818,2,0,P|208:192|184:144,1,95.9999913482669,0|0,2:0|2:0,2:0:0:0:
256,120,252247,1,0,2:0:0:0:
256,336,252675,6,0,P|208:336|184:288,1,95.9999913482669,0|0,2:0|2:0,2:0:0:0:
256,192,253103,2,0,P|304:192|328:240,1,95.9999913482669,0|0,2:0|2:0,2:0:0:0:
256,264,253532,1,0,2:0:0:0:
256,240,253640,1,0,2:0:0:0:
256,216,253747,1,0,2:0:0:0:
256,108,253961,6,0,L|256:56,2,47.9999956741335,0|0|0,2:0|2:0|2:0,2:0:0:0:
256,216,254390,1,0,2:0:0:0:
256,240,254498,1,0,2:0:0:0:
256,264,254605,1,0,2:0:0:0:
256,336,254818,2,0,P|208:336|184:288,1,95.9999913482669,0|0,2:0|2:0,2:0:0:0:
256,192,255246,2,0,P|304:192|328:240,1,95.9999913482669,0|0,2:0|2:0,2:0:0:0:
252,104,255675,6,0,L|180:104,2,47.9999956741335,0|0|0,2:0|2:0|2:0,2:0:0:0:
256,192,256104,2,0,L|328:192,2,47.9999956741335,0|0|0,2:0|2:0|2:0,2:0:0:0:
252,280,256532,2,0,L|180:280,2,47.9999956741335,0|0|0,2:0|2:0|2:0,2:0:0:0:
64,192,256961,1,0,2:0:0:0:
260,104,257389,2,0,L|332:104,2,47.9999956741335,0|0|0,2:0|2:0|2:0,2:0:0:0:
256,192,257818,2,0,L|184:192,2,47.9999956741335,0|0|0,2:0|2:0|2:0,2:0:0:0:
260,280,258246,2,0,L|332:280,2,47.9999956741335,0|0|0,2:0|2:0|2:0,2:0:0:0:
448,192,258675,1,0,2:0:0:0:
256,192,259104,1,0,2:0:0:0:
256,48,259532,6,0,B|304:116|196:152|256:208|256:268,1,191.999982696534,0|0,2:0|2:0,2:0:0:0:
228,275,260390,1,0,2:0:0:0:
172,164,260604,1,0,2:0:0:0:
283,108,260818,1,0,2:0:0:0:
339,219,261032,1,0,2:0:0:0:
256,192,261247,1,0,2:0:0:0:
256,192,261461,1,0,2:0:0:0:
256,192,261675,12,0,262961,2:0:0:0:
108,190,263383,5,0,2:0:0:0:
403,193,263583,1,0,2:0:0:0:
120,134,263783,1,0,2:0:0:0:
391,249,263983,1,0,2:0:0:0:
152,86,264183,1,0,2:0:0:0:
359,297,264383,1,0,2:0:0:0:
200,55,264583,1,0,2:0:0:0:
311,328,264783,5,0,2:0:0:0:
257,44,264983,1,0,2:0:0:0:
254,339,265183,1,0,2:0:0:0:
313,56,265383,1,0,2:0:0:0:
198,327,265583,1,0,2:0:0:0:
361,88,265783,1,0,2:0:0:0:
150,295,265983,1,0,2:0:0:0:
392,136,266183,1,0,2:0:0:0:
119,247,266383,1,0,2:0:0:0:
256,192,266583,5,0,2:0:0:0:
32,92,266983,5,0,2:0:0:0:
82,100,267083,1,0,2:0:0:0:
134,97,267183,1,0,2:0:0:0:
186,101,267283,1,0,2:0:0:0:
236,116,267383,1,0,2:0:0:0:
281,141,267483,1,0,2:0:0:0:
318,177,267583,1,0,2:0:0:0:
343,223,267683,1,0,2:0:0:0:
368,268,267783,1,0,2:0:0:0:
68,100,268183,5,0,2:0:0:0:
307,271,268383,1,0,2:0:0:0:
109,61,268583,1,0,2:0:0:0:
265,310,268783,1,0,2:0:0:0:
163,40,268983,1,0,2:0:0:0:
82,308,269183,1,0,2:0:0:0:
349,187,269383,1,0,2:0:0:0:
69,253,269583,1,0,2:0:0:0:
362,243,269783,1,0,2:0:0:0:
77,196,269983,1,0,2:0:0:0:
224,220,270183,1,0,2:0:0:0:
436,60,270583,5,0,2:0:0:0:
385,69,270683,1,0,2:0:0:0:
333,72,270783,1,0,2:0:0:0:
281,69,270883,1,0,2:0:0:0:
229,64,270983,1,0,2:0:0:0:
177,59,271083,1,0,2:0:0:0:
125,54,271183,1,0,2:0:0:0:
74,50,271283,1,0,2:0:0:0:
22,54,271383,1,0,2:0:0:0:
448,316,271783,5,0,2:0:0:0:
76,324,272183,5,0,2:0:0:0:
126,314,272283,1,0,2:0:0:0:
178,311,272383,1,0,2:0:0:0:
230,314,272483,1,0,2:0:0:0:
282,319,272583,1,0,2:0:0:0:
334,324,272683,1,0,2:0:0:0:
386,329,272783,1,0,2:0:0:0:
437,333,272883,1,0,2:0:0:0:
489,329,272983,1,0,2:0:0:0:
64,68,273383,5,0,2:0:0:0:
444,100,273783,5,0,2:0:0:0:
205,271,273983,1,0,2:0:0:0:
403,61,274183,1,0,2:0:0:0:
247,310,274383,1,0,2:0:0:0:
349,40,274583,1,0,2:0:0:0:
430,308,274783,1,0,2:0:0:0:
163,187,274983,1,0,2:0:0:0:
443,253,275183,1,0,2:0:0:0:
150,243,275383,1,0,2:0:0:0:
435,196,275583,1,0,2:0:0:0:
288,220,275783,1,0,2:0:0:0:
52,64,276183,6,0,P|120:40|172:72,1,103.999989040375,0|0,2:0|2:0,2:0:0:0:
172,52,276483,2,0,P|244:50|283:96,1,103.999989040375,0|0,2:0|2:0,2:0:0:0:
288,52,276783,2,0,P|360:50|399:96,1,103.999989040375,0|0,2:0|2:0,2:0:0:0:
408,52,277083,2,0,P|480:50|519:96,1,103.999989040375,0|0,2:0|2:0,2:0:0:0:
500,100,277383,2,0,P|486:170|433:199,1,103.999989040375,0|0,2:0|2:0,2:0:0:0:
432,288,277783,6,0,P|364:312|312:280,1,103.999989040375,0|0,2:0|2:0,2:0:0:0:
312,300,278083,2,0,P|240:302|201:256,1,103.999989040375,0|0,2:0|2:0,2:0:0:0:
188,264,278383,1,0,2:0:0:0:
167,227,278483,1,0,2:0:0:0:
160,187,278583,1,0,2:0:0:0:
168,146,278683,1,0,2:0:0:0:
187,110,278783,1,0,2:0:0:0:
214,77,278883,1,0,2:0:0:0:
244,49,278983,1,0,2:0:0:0:
134,109,279383,5,0,2:0:0:0:
134,109,279483,1,0,2:0:0:0:
134,109,279583,1,0,2:0:0:0:
388,127,279783,1,0,2:0:0:0:
388,127,279883,1,0,2:0:0:0:
388,127,279983,1,0,2:0:0:0:
245,338,280183,1,0,2:0:0:0:
245,338,280283,1,0,2:0:0:0:
245,338,280383,1,0,2:0:0:0:
256,192,280583,5,0,2:0:0:0:
256,192,280783,1,0,2:0:0:0:
381,114,280983,5,0,2:0:0:0:
381,114,281083,1,0,2:0:0:0:
381,114,281183,1,0,2:0:0:0:
261,339,281383,1,0,2:0:0:0:
261,339,281483,1,0,2:0:0:0:
261,339,281583,1,0,2:0:0:0:
127,122,281783,1,0,2:0:0:0:
127,122,281883,1,0,2:0:0:0:
127,122,281983,1,0,2:0:0:0:
256,192,282183,5,0,2:0:0:0:
404,190,282583,5,0,2:0:0:0:
109,193,282783,1,0,2:0:0:0:
392,134,282983,1,0,2:0:0:0:
121,249,283183,1,0,2:0:0:0:
360,86,283383,1,0,2:0:0:0:
360,86,283483,1,0,2:0:0:0:
360,86,283583,1,0,2:0:0:0:
312,55,283783,5,0,2:0:0:0:
201,328,283983,5,0,2:0:0:0:
255,44,284183,1,0,2:0:0:0:
258,339,284383,1,0,2:0:0:0:
199,56,284583,1,0,2:0:0:0:
199,56,284683,1,0,2:0:0:0:
199,56,284783,1,0,2:0:0:0:
151,88,284983,5,0,2:0:0:0:
362,295,285183,1,0,2:0:0:0:
120,136,285383,1,0,2:0:0:0:
393,247,285583,1,0,2:0:0:0:
256,192,285783,1,0,2:0:0:0:
256,192,285883,1,0,2:0:0:0:
256,192,285983,1,0,2:0:0:0:
80,80,286183,5,0,2:0:0:0:
131,71,286283,1,0,2:0:0:0:
182,74,286383,1,0,2:0:0:0:
233,86,286483,1,0,2:0:0:0:
279,109,286583,1,0,2:0:0:0:
319,142,286683,1,0,2:0:0:0:
344,187,286783,1,0,2:0:0:0:
333,236,286883,1,0,2:0:0:0:
290,263,286983,2,0,L|246:265,5,25.9999972600938,0|0|0|0|0|0,2:0|2:0|2:0|2:0|2:0|2:0,2:0:0:0:
92,264,287383,1,0,2:0:0:0:
432,80,287783,5,0,2:0:0:0:
380,71,287883,1,0,2:0:0:0:
329,74,287983,1,0,2:0:0:0:
278,86,288083,1,0,2:0:0:0:
232,109,288183,1,0,2:0:0:0:
192,142,288283,1,0,2:0:0:0:
167,187,288383,1,0,2:0:0:0:
178,236,288483,1,0,2:0:0:0:
222,263,288583,2,0,L|266:265,5,25.9999972600938,0|0|0|0|0|0,2:0|2:0|2:0|2:0|2:0|2:0,2:0:0:0:
420,264,288983,1,0,2:0:0:0:
168,120,289383,1,0,2:0:0:0:
148,137,289483,1,0,2:0:0:0:
122,140,289583,1,0,2:0:0:0:
98,129,289683,1,0,2:0:0:0:
84,108,289783,1,0,2:0:0:0:
84,82,289883,1,0,2:0:0:0:
98,60,289983,1,0,2:0:0:0:
122,49,290083,1,0,2:0:0:0:
148,53,290183,1,0,2:0:0:0:
168,70,290283,1,0,2:0:0:0:
175,95,290383,1,0,2:0:0:0:
344,120,290583,5,0,2:0:0:0:
364,137,290683,1,0,2:0:0:0:
390,140,290783,1,0,2:0:0:0:
414,129,290883,1,0,2:0:0:0:
428,108,290983,1,0,2:0:0:0:
428,82,291083,1,0,2:0:0:0:
414,60,291183,1,0,2:0:0:0:
390,49,291283,1,0,2:0:0:0:
364,53,291383,1,0,2:0:0:0:
344,70,291483,1,0,2:0:0:0:
337,95,291583,1,0,2:0:0:0:
344,264,291783,5,0,2:0:0:0:
364,247,291883,1,0,2:0:0:0:
390,244,291983,1,0,2:0:0:0:
414,255,292083,1,0,2:0:0:0:
428,276,292183,1,0,2:0:0:0:
428,302,292283,1,0,2:0:0:0:
414,324,292383,1,0,2:0:0:0:
390,335,292483,1,0,2:0:0:0:
364,331,292583,1,0,2:0:0:0:
344,314,292683,1,0,2:0:0:0:
337,289,292783,1,0,2:0:0:0:
168,264,292983,5,0,2:0:0:0:
148,247,293083,1,0,2:0:0:0:
122,244,293183,1,0,2:0:0:0:
98,255,293283,1,0,2:0:0:0:
84,276,293383,1,0,2:0:0:0:
84,302,293483,1,0,2:0:0:0:
98,324,293583,1,0,2:0:0:0:
122,335,293683,1,0,2:0:0:0:
148,331,293783,1,0,2:0:0:0:
168,314,293883,1,0,2:0:0:0:
175,289,293983,1,0,2:0:0:0:
52,320,294183,6,0,P|120:344|172:312,1,103.999989040375,0|0,2:0|2:0,2:0:0:0:
172,332,294483,2,0,P|244:334|283:288,1,103.999989040375,0|0,2:0|2:0,2:0:0:0:
288,332,294783,2,0,P|360:334|399:288,1,103.999989040375,0|0,2:0|2:0,2:0:0:0:
408,332,295083,2,0,P|480:334|519:288,1,103.999989040375,0|0,2:0|2:0,2:0:0:0:
500,284,295383,2,0,P|486:214|433:185,1,103.999989040375,0|0,2:0|2:0,2:0:0:0:
432,96,295783,6,0,P|364:72|312:104,1,103.999989040375,0|0,2:0|2:0,2:0:0:0:
312,84,296083,2,0,P|240:82|201:128,1,103.999989040375,0|0,2:0|2:0,2:0:0:0:
188,120,296383,1,0,2:0:0:0:
167,157,296483,1,0,2:0:0:0:
160,197,296583,1,0,2:0:0:0:
168,238,296683,1,0,2:0:0:0:
187,274,296783,1,0,2:0:0:0:
214,307,296883,1,0,2:0:0:0:
244,335,296983,1,0,2:0:0:0:
170,310,297383,5,0,2:0:0:0:
256,46,297583,1,0,2:0:0:0:
341,310,297783,1,0,2:0:0:0:
117,146,297983,1,0,2:0:0:0:
394,146,298183,1,0,2:0:0:0:
394,146,298283,1,0,2:0:0:0:
394,146,298383,1,0,2:0:0:0:
137,106,298583,5,0,2:0:0:0:
401,192,298783,1,0,2:0:0:0:
137,277,298983,1,0,2:0:0:0:
301,53,299183,1,0,2:0:0:0:
301,330,299383,1,0,2:0:0:0:
301,330,299483,1,0,2:0:0:0:
301,330,299583,1,0,2:0:0:0:
341,73,299783,5,0,2:0:0:0:
256,337,299983,1,0,2:0:0:0:
170,73,300183,1,0,2:0:0:0:
394,237,300383,1,0,2:0:0:0:
117,237,300583,1,0,2:0:0:0:
117,237,300683,1,0,2:0:0:0:
117,237,300783,1,0,2:0:0:0:
256,192,300983,1,0,2:0:0:0:
88,40,301383,5,0,2:0:0:0:
424,40,301583,1,0,2:0:0:0:
88,192,301783,1,0,2:0:0:0:
424,192,301983,1,0,2:0:0:0:
88,344,302183,1,0,2:0:0:0:
424,344,302383,1,0,2:0:0:0:
256,192,302583,1,0,2:0:0:0:
408,112,302983,5,0,2:0:0:0:
408,272,303183,1,0,2:0:0:0:
256,112,303383,1,0,2:0:0:0:
256,272,303583,1,0,2:0:0:0:
104,112,303783,1,0,2:0:0:0:
104,272,303983,1,0,2:0:0:0:
256,192,304183,1,0,2:0:0:0:
76,324,304583,5,0,2:0:0:0:
127,315,304683,1,0,2:0:0:0:
179,312,304783,1,0,2:0:0:0:
231,315,304883,1,0,2:0:0:0:
283,320,304983,1,0,2:0:0:0:
335,325,305083,1,0,2:0:0:0:
387,330,305183,1,0,2:0:0:0:
438,334,305283,1,0,2:0:0:0:
490,330,305383,1,0,2:0:0:0:
64,68,305783,5,0,2:0:0:0:
436,60,306183,5,0,2:0:0:0:
386,70,306283,1,0,2:0:0:0:
334,73,306383,1,0,2:0:0:0:
282,70,306483,1,0,2:0:0:0:
230,65,306583,1,0,2:0:0:0:
178,60,306683,1,0,2:0:0:0:
126,55,306783,1,0,2:0:0:0:
75,51,306883,1,0,2:0:0:0:
23,55,306983,1,0,2:0:0:0:
448,316,307383,5,0,2:0:0:0:
404,190,307783,5,0,2:0:0:0:
109,193,307983,1,0,2:0:0:0:
392,134,308183,1,0,2:0:0:0:
121,249,308383,1,0,2:0:0:0:
360,86,308583,1,0,2:0:0:0:
360,86,308683,1,0,2:0:0:0:
360,86,308783,1,0,2:0:0:0:
312,55,308983,5,0,2:0:0:0:
201,328,309183,5,0,2:0:0:0:
255,44,309383,1,0,2:0:0:0:
258,339,309583,1,0,2:0:0:0:
199,56,309783,1,0,2:0:0:0:
199,56,309883,1,0,2:0:0:0:
199,56,309983,1,0,2:0:0:0:
151,88,310183,5,0,2:0:0:0:
362,295,310383,1,0,2:0:0:0:
120,136,310583,1,0,2:0:0:0:
393,247,310783,1,0,2:0:0:0:
256,192,310983,1,0,2:0:0:0:
256,192,311083,1,0,2:0:0:0:
256,192,311183,1,0,2:0:0:0:
80,80,311383,5,0,2:0:0:0:
131,71,311483,1,0,2:0:0:0:
182,74,311583,1,0,2:0:0:0:
233,86,311683,1,0,2:0:0:0:
279,109,311783,1,0,2:0:0:0:
319,142,311883,1,0,2:0:0:0:
344,187,311983,1,0,2:0:0:0:
333,236,312083,1,0,2:0:0:0:
290,263,312183,2,0,L|246:265,5,25.9999972600938,0|0|0|0|0|0,2:0|2:0|2:0|2:0|2:0|2:0,2:0:0:0:
92,264,312583,1,0,2:0:0:0:
432,80,312983,5,0,2:0:0:0:
380,71,313083,1,0,2:0:0:0:
329,74,313183,1,0,2:0:0:0:
278,86,313283,1,0,2:0:0:0:
232,109,313383,1,0,2:0:0:0:
192,142,313483,1,0,2:0:0:0:
167,187,313583,1,0,2:0:0:0:
178,236,313683,1,0,2:0:0:0:
222,263,313783,2,0,L|266:265,5,25.9999972600938,0|0|0|0|0|0,2:0|2:0|2:0|2:0|2:0|2:0,2:0:0:0:
420,264,314183,1,0,2:0:0:0:
256,44,314583,5,0,2:0:0:0:
256,44,314683,1,0,2:0:0:0:
256,192,314883,1,0,2:0:0:0:
256,192,314983,1,0,2:0:0:0:
256,340,315183,1,0,2:0:0:0:
256,340,315283,1,0,2:0:0:0:
108,192,315483,1,0,2:0:0:0:
108,192,315583,1,0,2:0:0:0:
404,192,315783,1,0,2:0:0:0:
404,192,315883,1,0,2:0:0:0:
188,192,316083,6,0,L|124:192,1,51.9999945201877,0|0,2:0|2:0,2:0:0:0:
256,112,316383,2,0,L|256:52,1,51.9999945201877,0|0,2:0|2:0,2:0:0:0:
324,192,316683,2,0,L|388:192,1,51.9999945201877,0|0,2:0|2:0,2:0:0:0:
256,272,316983,2,0,L|256:332,1,51.9999945201877,0|0,2:0|2:0,2:0:0:0:
256,192,317283,1,0,2:0:0:0:
256,192,317383,1,0,2:0:0:0:
24,72,317783,5,0,2:0:0:0:
75,76,317883,1,0,2:0:0:0:
125,90,317983,1,0,2:0:0:0:
174,109,318083,1,0,2:0:0:0:
221,131,318183,1,0,2:0:0:0:
267,155,318283,1,0,2:0:0:0:
312,180,318383,1,0,2:0:0:0:
356,209,318483,1,0,2:0:0:0:
395,243,318583,1,0,2:0:0:0:
429,282,318683,1,0,2:0:0:0:
454,328,318783,1,0,2:0:0:0:
488,72,318983,5,0,2:0:0:0:
436,76,319083,1,0,2:0:0:0:
386,90,319183,1,0,2:0:0:0:
337,109,319283,1,0,2:0:0:0:
290,131,319383,1,0,2:0:0:0:
244,155,319483,1,0,2:0:0:0:
199,180,319583,1,0,2:0:0:0:
155,209,319683,1,0,2:0:0:0:
116,243,319783,1,0,2:0:0:0:
82,282,319883,1,0,2:0:0:0:
57,328,319983,1,0,2:0:0:0:
32,56,320583,6,0,B|108:132|108:132|216:192,1,207.999978080751,0|0,2:0|2:0,2:0:0:0:
276,180,321183,1,0,2:0:0:0:
356,180,321383,1,0,2:0:0:0:
480,56,321783,6,0,B|404:132|404:132|296:192,1,207.999978080751,0|0,2:0|2:0,2:0:0:0:
236,180,322383,1,0,2:0:0:0:
156,180,322583,1,0,2:0:0:0:
248,175,322983,1,0,2:0:0:0:
256,192,323383,12,0,324583,2:0:0:0:
348,308,324987,5,0,2:0:0:0:
122,127,325173,1,0,2:0:0:0:
404,192,325361,1,0,2:0:0:0:
122,256,325548,1,0,2:0:0:0:
348,75,325736,1,0,2:0:0:0:
222,336,325923,1,0,2:0:0:0:
222,47,326112,1,0,2:0:0:0:
222,47,326205,1,0,2:0:0:0:
222,47,326300,1,0,2:0:0:0:
20,56,326487,5,0,2:0:0:0:
40,107,326580,1,0,2:0:0:0:
69,155,326674,1,0,2:0:0:0:
106,198,326768,1,0,2:0:0:0:
150,232,326862,1,0,2:0:0:0:
200,257,326955,1,0,2:0:0:0:
254,269,327049,1,0,2:0:0:0:
310,265,327143,1,0,2:0:0:0:
362,245,327237,1,0,2:0:0:0:
407,211,327330,1,0,2:0:0:0:
443,168,327424,1,0,2:0:0:0:
470,120,327518,1,0,2:0:0:0:
490,67,327612,1,0,2:0:0:0:
88,192,327799,1,0,2:0:0:0:
492,328,327987,5,0,2:0:0:0:
471,276,328080,1,0,2:0:0:0:
442,228,328174,1,0,2:0:0:0:
405,185,328268,1,0,2:0:0:0:
361,151,328362,1,0,2:0:0:0:
311,126,328455,1,0,2:0:0:0:
257,114,328549,1,0,2:0:0:0:
201,118,328643,1,0,2:0:0:0:
149,138,328737,1,0,2:0:0:0:
104,172,328830,1,0,2:0:0:0:
68,215,328924,1,0,2:0:0:0:
41,263,329018,1,0,2:0:0:0:
21,316,329112,1,0,2:0:0:0:
424,192,329299,1,0,2:0:0:0:
32,140,329487,5,0,2:0:0:0:
256,28,329674,1,0,2:0:0:0:
124,64,329862,1,0,2:0:0:0:
480,140,330049,1,0,2:0:0:0:
256,28,330236,1,0,2:0:0:0:
388,64,330424,1,0,2:0:0:0:
256,192,330612,1,0,2:0:0:0:
32,244,330799,5,0,2:0:0:0:
256,356,330986,1,0,2:0:0:0:
124,320,331174,1,0,2:0:0:0:
480,244,331361,1,0,2:0:0:0:
256,356,331548,1,0,2:0:0:0:
388,320,331736,1,0,2:0:0:0:
260,192,331924,5,0,2:0:0:0:
228,171,332017,1,0,2:0:0:0:
197,151,332111,1,0,2:0:0:0:
165,130,332205,1,0,2:0:0:0:
134,110,332299,1,0,2:0:0:0:
102,89,332392,1,0,2:0:0:0:
71,69,332486,1,0,2:0:0:0:
480,244,332862,5,0,2:0:0:0:
256,356,333049,1,0,2:0:0:0:
388,320,333237,1,0,2:0:0:0:
32,244,333424,1,0,2:0:0:0:
256,356,333611,1,0,2:0:0:0:
124,320,333799,1,0,2:0:0:0:
256,192,333987,1,0,2:0:0:0:
480,140,334174,5,0,2:0:0:0:
256,28,334361,1,0,2:0:0:0:
388,64,334549,1,0,2:0:0:0:
32,140,334736,1,0,2:0:0:0:
256,28,334923,1,0,2:0:0:0:
124,64,335111,1,0,2:0:0:0:
252,192,335299,5,0,2:0:0:0:
283,212,335392,1,0,2:0:0:0:
314,232,335486,1,0,2:0:0:0:
346,253,335580,1,0,2:0:0:0:
377,273,335674,1,0,2:0:0:0:
409,294,335767,1,0,2:0:0:0:
440,314,335861,1,0,2:0:0:0:
256,32,336236,5,0,2:0:0:0:
256,372,336423,1,0,2:0:0:0:
256,192,336612,1,0,2:0:0:0:
472,196,336987,5,0,2:0:0:0:
40,196,337174,1,0,2:0:0:0:
472,196,337362,1,0,2:0:0:0:
40,196,337549,1,0,2:0:0:0:
472,196,337737,1,0,2:0:0:0:
40,196,337924,1,0,2:0:0:0:
472,196,338112,1,0,2:0:0:0:
40,196,338299,1,0,2:0:0:0:
256,192,338487,1,0,2:0:0:0:
418,333,338862,5,0,2:0:0:0:
87,56,339049,1,0,2:0:0:0:
418,333,339237,1,0,2:0:0:0:
87,56,339424,1,0,2:0:0:0:
418,333,339612,1,0,2:0:0:0:
87,56,339799,1,0,2:0:0:0:
418,333,339987,1,0,2:0:0:0:
87,56,340174,1,0,2:0:0:0:
256,192,340362,1,0,2:0:0:0:
93,333,340737,5,0,2:0:0:0:
424,56,340924,1,0,2:0:0:0:
93,333,341112,1,0,2:0:0:0:
424,56,341299,1,0,2:0:0:0:
93,333,341487,1,0,2:0:0:0:
424,56,341674,1,0,2:0:0:0:
93,333,341862,1,0,2:0:0:0:
424,56,342049,1,0,2:0:0:0:
256,192,342237,1,0,2:0:0:0:
152,104,342612,5,0,2:0:0:0:
188,55,342705,1,0,2:0:0:0:
246,38,342799,1,0,2:0:0:0:
304,57,342893,1,0,2:0:0:0:
339,106,342987,1,0,2:0:0:0:
152,184,343174,5,0,2:0:0:0:
188,233,343267,1,0,2:0:0:0:
246,250,343361,1,0,2:0:0:0:
304,231,343455,1,0,2:0:0:0:
339,182,343549,1,0,2:0:0:0:
156,288,343737,5,0,2:0:0:0:
192,239,343830,1,0,2:0:0:0:
250,222,343924,1,0,2:0:0:0:
308,241,344018,1,0,2:0:0:0:
343,290,344112,1,0,2:0:0:0:
168,88,344487,5,0,2:0:0:0:
119,124,344580,1,0,2:0:0:0:
102,182,344674,1,0,2:0:0:0:
121,240,344768,1,0,2:0:0:0:
170,275,344862,1,0,2:0:0:0:
248,88,345049,5,0,2:0:0:0:
297,124,345142,1,0,2:0:0:0:
314,182,345236,1,0,2:0:0:0:
295,240,345330,1,0,2:0:0:0:
246,275,345424,1,0,2:0:0:0:
352,92,345612,5,0,2:0:0:0:
303,128,345705,1,0,2:0:0:0:
286,186,345799,1,0,2:0:0:0:
305,244,345893,1,0,2:0:0:0:
354,279,345987,1,0,2:0:0:0:
164,76,346362,5,0,2:0:0:0:
390,257,346548,1,0,2:0:0:0:
108,192,346736,1,0,2:0:0:0:
390,128,346923,1,0,2:0:0:0:
164,309,347111,1,0,2:0:0:0:
290,48,347298,1,0,2:0:0:0:
290,337,347487,1,0,2:0:0:0:
290,337,347580,1,0,2:0:0:0:
290,337,347675,1,0,2:0:0:0:
492,328,347862,5,0,2:0:0:0:
472,277,347955,1,0,2:0:0:0:
443,229,348049,1,0,2:0:0:0:
406,186,348143,1,0,2:0:0:0:
362,152,348237,1,0,2:0:0:0:
312,127,348330,1,0,2:0:0:0:
258,115,348424,1,0,2:0:0:0:
202,119,348518,1,0,2:0:0:0:
150,139,348612,1,0,2:0:0:0:
105,173,348705,1,0,2:0:0:0:
69,216,348799,1,0,2:0:0:0:
42,264,348893,1,0,2:0:0:0:
22,317,348987,1,0,2:0:0:0:
424,192,349174,1,0,2:0:0:0:
20,56,349362,5,0,2:0:0:0:
41,108,349455,1,0,2:0:0:0:
70,156,349549,1,0,2:0:0:0:
107,199,349643,1,0,2:0:0:0:
151,233,349737,1,0,2:0:0:0:
201,258,349830,1,0,2:0:0:0:
255,270,349924,1,0,2:0:0:0:
311,266,350018,1,0,2:0:0:0:
363,246,350112,1,0,2:0:0:0:
408,212,350205,1,0,2:0:0:0:
444,169,350299,1,0,2:0:0:0:
471,121,350393,1,0,2:0:0:0:
491,68,350487,1,0,2:0:0:0:
88,192,350674,1,0,2:0:0:0:
480,244,350862,5,0,2:0:0:0:
256,356,351049,1,0,2:0:0:0:
388,320,351237,1,0,2:0:0:0:
32,244,351424,1,0,2:0:0:0:
256,356,351611,1,0,2:0:0:0:
124,320,351799,1,0,2:0:0:0:
256,192,351987,1,0,2:0:0:0:
480,140,352174,5,0,2:0:0:0:
256,28,352361,1,0,2:0:0:0:
388,64,352549,1,0,2:0:0:0:
32,140,352736,1,0,2:0:0:0:
256,28,352923,1,0,2:0:0:0:
124,64,353111,1,0,2:0:0:0:
252,192,353299,5,0,2:0:0:0:
284,213,353392,1,0,2:0:0:0:
315,233,353486,1,0,2:0:0:0:
347,254,353580,1,0,2:0:0:0:
378,274,353674,1,0,2:0:0:0:
410,295,353767,1,0,2:0:0:0:
441,315,353861,1,0,2:0:0:0:
112,192,354049,6,0,P|112:152|144:140,1,55.9999949531557,0|0,2:0|2:0,2:0:0:0:
184,196,354237,2,0,P|184:156|216:144,1,55.9999949531557,0|0,2:0|2:0,2:0:0:0:
260,196,354424,2,0,P|260:156|292:144,1,55.9999949531557,0|0,2:0|2:0,2:0:0:0:
336,196,354612,2,0,P|336:156|368:144,1,55.9999949531557,0|0,2:0|2:0,2:0:0:0:
408,200,354799,2,0,P|408:160|440:148,1,55.9999949531557,0|0,2:0|2:0,2:0:0:0:
400,192,354987,6,0,P|400:232|368:244,1,55.9999949531557,0|0,2:0|2:0,2:0:0:0:
328,188,355175,2,0,P|328:228|296:240,1,55.9999949531557,0|0,2:0|2:0,2:0:0:0:
252,188,355362,2,0,P|252:228|220:240,1,55.9999949531557,0|0,2:0|2:0,2:0:0:0:
176,188,355550,2,0,P|176:228|144:240,1,55.9999949531557,0|0,2:0|2:0,2:0:0:0:
104,184,355737,2,0,P|104:224|72:236,1,55.9999949531557,0|0,2:0|2:0,2:0:0:0:
256,48,356112,5,0,2:0:0:0:
222,64,356205,1,0,2:0:0:0:
188,81,356299,1,0,2:0:0:0:
155,98,356393,1,0,2:0:0:0:
121,115,356487,1,0,2:0:0:0:
88,131,356580,1,0,2:0:0:0:
125,131,356674,1,0,2:0:0:0:
162,131,356768,1,0,2:0:0:0:
200,130,356862,1,0,2:0:0:0:
237,130,356955,1,0,2:0:0:0:
275,129,357049,1,0,2:0:0:0:
312,129,357143,1,0,2:0:0:0:
350,128,357237,1,0,2:0:0:0:
387,128,357330,1,0,2:0:0:0:
415,130,357424,1,0,2:0:0:0:
382,149,357518,1,0,2:0:0:0:
350,168,357612,1,0,2:0:0:0:
318,187,357705,1,0,2:0:0:0:
285,206,357799,1,0,2:0:0:0:
253,225,357893,1,0,2:0:0:0:
256,336,358174,5,0,2:0:0:0:
289,319,358267,1,0,2:0:0:0:
323,302,358361,1,0,2:0:0:0:
356,285,358455,1,0,2:0:0:0:
390,268,358549,1,0,2:0:0:0:
423,252,358642,1,0,2:0:0:0:
386,252,358736,1,0,2:0:0:0:
349,252,358830,1,0,2:0:0:0:
311,253,358924,1,0,2:0:0:0:
274,253,359017,1,0,2:0:0:0:
236,254,359111,1,0,2:0:0:0:
199,254,359205,1,0,2:0:0:0:
161,255,359299,1,0,2:0:0:0:
124,255,359392,1,0,2:0:0:0:
96,253,359486,1,0,2:0:0:0:
129,234,359580,1,0,2:0:0:0:
161,215,359674,1,0,2:0:0:0:
193,196,359767,1,0,2:0:0:0:
226,177,359861,1,0,2:0:0:0:
258,158,359955,1,0,2:0:0:0:
348,308,360237,5,0,2:0:0:0:
122,127,360423,1,0,2:0:0:0:
404,192,360611,1,0,2:0:0:0:
122,256,360798,1,0,2:0:0:0:
348,75,360986,1,0,2:0:0:0:
222,336,361173,1,0,2:0:0:0:
178,318,361362,5,0,2:0:0:0:
271,43,361548,1,0,2:0:0:0:
306,331,361736,1,0,2:0:0:0:
150,87,361923,1,0,2:0:0:0:
397,238,362111,1,0,2:0:0:0:
109,209,362298,1,0,2:0:0:0:
110,162,362487,5,0,2:0:0:0:
400,155,362673,1,0,2:0:0:0:
142,287,362861,1,0,2:0:0:0:
317,56,363048,1,0,2:0:0:0:
260,340,363236,1,0,2:0:0:0:
189,59,363423,1,0,2:0:0:0:
234,45,363612,5,0,2:0:0:0:
339,315,363798,1,0,2:0:0:0:
127,118,363986,1,0,2:0:0:0:
404,203,364173,1,0,2:0:0:0:
117,247,364361,1,0,2:0:0:0:
357,84,364548,1,0,2:0:0:0:
284,52,364737,5,0,2:0:0:0:
256,52,364830,1,0,2:0:0:0:
228,52,364924,1,0,2:0:0:0:
144,52,365112,1,0,2:0:0:0:
116,52,365205,1,0,2:0:0:0:
88,52,365299,1,0,2:0:0:0:
88,148,365487,1,0,2:0:0:0:
116,148,365580,1,0,2:0:0:0:
144,148,365674,1,0,2:0:0:0:
232,148,365862,1,0,2:0:0:0:
260,148,365955,1,0,2:0:0:0:
288,148,366049,1,0,2:0:0:0:
432,64,366237,5,0,2:0:0:0:
432,240,366424,1,0,2:0:0:0:
256,344,366612,1,0,2:0:0:0:
40,344,366799,1,0,2:0:0:0:
40,124,366987,1,0,2:0:0:0:
32,140,367362,5,0,2:0:0:0:
32,140,367455,1,0,2:0:0:0:
32,140,367549,1,0,2:0:0:0:
256,28,367736,1,0,2:0:0:0:
256,28,367830,1,0,2:0:0:0:
256,28,367924,1,0,2:0:0:0:
124,64,368111,1,0,2:0:0:0:
124,64,368205,1,0,2:0:0:0:
124,64,368299,1,0,2:0:0:0:
480,140,368486,1,0,2:0:0:0:
480,140,368580,1,0,2:0:0:0:
480,140,368674,1,0,2:0:0:0:
256,28,368861,5,0,2:0:0:0:
256,28,368955,1,0,2:0:0:0:
256,28,369049,1,0,2:0:0:0:
388,64,369236,1,0,2:0:0:0:
388,64,369330,1,0,2:0:0:0:
388,64,369424,1,0,2:0:0:0:
256,192,369611,1,0,2:0:0:0:
256,192,369705,1,0,2:0:0:0:
256,192,369799,1,0,2:0:0:0:
32,244,369986,5,0,2:0:0:0:
32,244,370080,1,0,2:0:0:0:
32,244,370174,1,0,2:0:0:0:
256,356,370361,1,0,2:0:0:0:
256,356,370455,1,0,2:0:0:0:
256,356,370549,1,0,2:0:0:0:
124,320,370736,1,0,2:0:0:0:
124,320,370830,1,0,2:0:0:0:
124,320,370924,1,0,2:0:0:0:
480,244,371111,1,0,2:0:0:0:
480,244,371205,1,0,2:0:0:0:
480,244,371299,1,0,2:0:0:0:
256,356,371486,1,0,2:0:0:0:
256,356,371580,1,0,2:0:0:0:
256,356,371674,1,0,2:0:0:0:
388,320,371861,1,0,2:0:0:0:
388,320,371955,1,0,2:0:0:0:
388,320,372049,1,0,2:0:0:0:
36,36,372612,5,0,2:0:0:0:
256,192,372799,1,0,2:0:0:0:
116,92,372987,1,0,2:0:0:0:
396,292,373174,1,0,2:0:0:0:
256,192,373362,1,0,2:0:0:0:
476,348,373549,1,0,2:0:0:0:
476,348,373737,1,0,2:0:0:0:
476,36,374112,5,0,2:0:0:0:
256,192,374299,1,0,2:0:0:0:
396,92,374487,1,0,2:0:0:0:
116,292,374674,1,0,2:0:0:0:
256,192,374862,1,0,2:0:0:0:
36,348,375049,1,0,2:0:0:0:
36,348,375237,1,0,2:0:0:0:
492,328,375612,5,0,2:0:0:0:
472,277,375705,1,0,2:0:0:0:
443,229,375799,1,0,2:0:0:0:
406,186,375893,1,0,2:0:0:0:
362,152,375987,1,0,2:0:0:0:
312,127,376080,1,0,2:0:0:0:
258,115,376174,1,0,2:0:0:0:
202,119,376268,1,0,2:0:0:0:
150,139,376362,1,0,2:0:0:0:
105,173,376455,1,0,2:0:0:0:
69,216,376549,1,0,2:0:0:0:
42,264,376643,1,0,2:0:0:0:
22,317,376737,1,0,2:0:0:0:
424,192,376924,1,0,2:0:0:0:
20,56,377112,5,0,2:0:0:0:
41,108,377205,1,0,2:0:0:0:
70,156,377299,1,0,2:0:0:0:
107,199,377393,1,0,2:0:0:0:
151,233,377487,1,0,2:0:0:0:
201,258,377580,1,0,2:0:0:0:
255,270,377674,1,0,2:0:0:0:
311,266,377768,1,0,2:0:0:0:
363,246,377862,1,0,2:0:0:0:
408,212,377955,1,0,2:0:0:0:
444,169,378049,1,0,2:0:0:0:
471,121,378143,1,0,2:0:0:0:
491,68,378237,1,0,2:0:0:0:
88,192,378424,1,0,2:0:0:0:
32,232,378987,6,0,L|32:348,1,111.999989906311,0|0,2:0|2:0,2:0:0:0:
480,152,379362,2,0,L|480:36,1,111.999989906311,0|0,2:0|2:0,2:0:0:0:
152,232,379736,2,0,L|152:348,1,111.999989906311,0|0,2:0|2:0,2:0:0:0:
360,152,380112,2,0,L|360:36,1,111.999989906311,0|0,2:0|2:0,2:0:0:0:
360,232,380487,2,0,L|360:348,1,111.999989906311,0|0,2:0|2:0,2:0:0:0:
152,152,380862,2,0,L|152:36,1,111.999989906311,0|0,2:0|2:0,2:0:0:0:
480,232,381237,2,0,L|480:348,1,111.999989906311,0|0,2:0|2:0,2:0:0:0:
32,152,381612,2,0,L|32:36,1,111.999989906311,0|0,2:0|2:0,2:0:0:0:
256,192,381987,1,0,2:0:0:0:
32,232,382362,5,0,2:0:0:0:
32,288,382455,1,0,2:0:0:0:
32,344,382549,1,0,2:0:0:0:
480,152,382737,1,0,2:0:0:0:
480,96,382830,1,0,2:0:0:0:
480,40,382924,1,0,2:0:0:0:
152,232,383111,1,0,2:0:0:0:
152,288,383204,1,0,2:0:0:0:
152,344,383298,1,0,2:0:0:0:
360,152,383487,1,0,2:0:0:0:
360,96,383580,1,0,2:0:0:0:
360,40,383674,1,0,2:0:0:0:
360,232,383862,5,0,2:0:0:0:
360,288,383955,1,0,2:0:0:0:
360,344,384049,1,0,2:0:0:0:
152,152,384237,1,0,2:0:0:0:
152,96,384330,1,0,2:0:0:0:
152,40,384424,1,0,2:0:0:0:
480,232,384612,1,0,2:0:0:0:
480,288,384705,1,0,2:0:0:0:
480,344,384799,1,0,2:0:0:0:
32,152,384987,1,0,2:0:0:0:
32,96,385080,1,0,2:0:0:0:
32,40,385174,1,0,2:0:0:0:
210,323,385737,5,0,2:0:0:0:
124,146,385925,1,0,2:0:0:0:
301,60,386112,1,0,2:0:0:0:
387,237,386300,1,0,2:0:0:0:
210,323,386487,5,0,2:0:0:0:
124,146,386675,1,0,2:0:0:0:
301,60,386862,1,0,2:0:0:0:
387,237,387050,1,0,2:0:0:0:
210,323,387237,5,0,2:0:0:0:
124,146,387425,1,0,2:0:0:0:
301,60,387612,1,0,2:0:0:0:
387,237,387800,1,0,2:0:0:0:
172,164,387987,6,0,P|316:128|348:200,2,223.999979812623,0|0|0,2:0|2:0|2:0,2:0:0:0:
256,192,388924,1,0,2:0:0:0:
256,192,389112,12,0,390237,2:0:0:0:
416,316,390620,5,0,2:0:0:0:
96,68,390797,1,0,2:0:0:0:
96,316,390973,1,0,2:0:0:0:
416,68,391150,1,0,2:0:0:0:
96,316,391326,1,0,2:0:0:0:
416,68,391503,1,0,2:0:0:0:
416,316,391679,1,0,2:0:0:0:
96,68,391856,1,0,2:0:0:0:
336,68,392032,6,0,P|388:44|472:104,1,159.999990463257,0|0,2:0|2:0,2:0:0:0:
164,320,392385,2,0,P|112:296|28:356,1,159.999990463257,0|0,2:0|2:0,2:0:0:0:
348,320,392738,2,0,P|400:296|484:356,1,159.999990463257,0|0,2:0|2:0,2:0:0:0:
164,64,393091,2,0,P|112:88|28:28,1,159.999990463257,0|0,2:0|2:0,2:0:0:0:
112,304,393444,5,0,2:0:0:0:
337,23,393620,1,0,2:0:0:0:
256,374,393797,1,0,2:0:0:0:
177,23,393973,1,0,2:0:0:0:
401,304,394150,1,0,2:0:0:0:
77,148,394326,1,0,2:0:0:0:
436,148,394503,1,0,2:0:0:0:
281,190,394679,1,0,2:0:0:0:
253,190,394767,1,0,2:0:0:0:
225,190,394855,1,0,2:0:0:0:
401,304,395032,5,0,2:0:0:0:
177,23,395208,1,0,2:0:0:0:
257,374,395385,1,0,2:0:0:0:
337,23,395561,1,0,2:0:0:0:
112,304,395738,1,0,2:0:0:0:
436,148,395914,1,0,2:0:0:0:
77,148,396091,1,0,2:0:0:0:
233,190,396268,1,0,2:0:0:0:
261,190,396356,1,0,2:0:0:0:
289,190,396444,1,0,2:0:0:0:
53,30,396620,5,0,0:0:0:0:
53,70,396708,1,0,0:0:0:0:
53,109,396796,1,0,0:0:0:0:
53,150,396884,1,0,0:0:0:0:
53,189,396972,1,0,0:0:0:0:
53,229,397061,1,0,0:0:0:0:
53,270,397149,1,0,0:0:0:0:
461,350,397326,5,0,0:0:0:0:
461,310,397414,1,0,0:0:0:0:
461,270,397502,1,0,0:0:0:0:
461,230,397590,1,0,0:0:0:0:
461,190,397678,1,0,0:0:0:0:
461,150,397767,1,0,0:0:0:0:
461,110,397855,1,0,0:0:0:0:
0,192,398032,1,0,0:0:0:0:
512,192,398209,1,0,0:0:0:0:
0,0,398385,1,0,0:0:0:0:
0,384,398562,1,0,0:0:0:0:
56,28,398738,1,0,0:0:0:0:
96,28,398826,1,0,0:0:0:0:
136,28,398914,1,0,0:0:0:0:
175,28,399002,1,0,0:0:0:0:
215,28,399090,1,0,0:0:0:0:
255,28,399179,1,0,0:0:0:0:
295,28,399267,1,0,0:0:0:0:
335,28,399355,1,0,0:0:0:0:
375,28,399443,1,0,0:0:0:0:
56,356,399620,5,0,0:0:0:0:
96,356,399708,1,0,0:0:0:0:
136,356,399796,1,0,0:0:0:0:
176,356,399884,1,0,0:0:0:0:
216,356,399972,1,0,0:0:0:0:
256,356,400061,1,0,0:0:0:0:
295,356,400149,1,0,0:0:0:0:
335,356,400237,1,0,0:0:0:0:
375,356,400325,1,0,0:0:0:0:
135,343,400503,5,0,0:0:0:0:
299,380,400679,1,0,0:0:0:0:
430,276,400856,1,0,0:0:0:0:
430,107,401032,1,0,0:0:0:0:
299,3,401208,1,0,0:0:0:0:
135,40,401385,1,0,0:0:0:0:
62,192,401561,1,0,0:0:0:0:
111,306,401738,5,0,2:0:0:0:
336,25,401914,1,0,2:0:0:0:
255,376,402091,1,0,2:0:0:0:
176,25,402267,1,0,2:0:0:0:
400,306,402444,1,0,2:0:0:0:
76,150,402620,1,0,2:0:0:0:
435,150,402797,1,0,2:0:0:0:
376,343,402973,5,0,0:0:0:0:
212,380,403149,1,0,0:0:0:0:
81,276,403326,1,0,0:0:0:0:
81,107,403502,1,0,0:0:0:0:
212,3,403678,1,0,0:0:0:0:
376,40,403855,1,0,0:0:0:0:
449,192,404031,1,0,0:0:0:0:
111,78,404209,5,0,2:0:0:0:
336,359,404385,1,0,2:0:0:0:
255,8,404562,1,0,2:0:0:0:
176,359,404738,1,0,2:0:0:0:
400,78,404915,1,0,2:0:0:0:
76,234,405091,1,0,2:0:0:0:
435,234,405268,1,0,2:0:0:0:
376,343,405444,5,0,0:0:0:0:
376,343,405532,1,0,0:0:0:0:
376,343,405620,1,0,0:0:0:0:
212,380,405797,1,0,0:0:0:0:
212,380,405885,1,0,0:0:0:0:
212,380,405973,1,0,0:0:0:0:
81,276,406150,1,0,0:0:0:0:
81,276,406238,1,0,0:0:0:0:
81,276,406326,1,0,0:0:0:0:
81,107,406503,5,0,0:0:0:0:
81,107,406591,1,0,0:0:0:0:
81,107,406679,1,0,0:0:0:0:
212,3,406856,1,0,0:0:0:0:
212,3,406944,1,0,0:0:0:0:
212,3,407032,1,0,0:0:0:0:
376,40,407209,1,0,0:0:0:0:
376,40,407297,1,0,0:0:0:0:
376,40,407385,1,0,0:0:0:0:
449,192,407562,1,0,0:0:0:0:
449,192,407650,1,0,0:0:0:0:
449,192,407738,1,0,0:0:0:0:
111,306,407915,5,0,2:0:0:0:
111,306,408003,1,0,2:0:0:0:
111,306,408091,1,0,2:0:0:0:
336,25,408268,1,0,2:0:0:0:
336,25,408356,1,0,2:0:0:0:
336,25,408444,1,0,2:0:0:0:
255,376,408620,1,0,2:0:0:0:
255,376,408709,1,0,2:0:0:0:
255,376,408797,1,0,2:0:0:0:
176,25,408973,5,0,2:0:0:0:
176,25,409062,1,0,2:0:0:0:
176,25,409150,1,0,2:0:0:0:
400,306,409326,1,0,2:0:0:0:
400,306,409415,1,0,2:0:0:0:
400,306,409503,1,0,2:0:0:0:
76,150,409679,1,0,2:0:0:0:
76,150,409768,1,0,2:0:0:0:
76,150,409856,1,0,2:0:0:0:
435,150,410032,1,0,2:0:0:0:
435,150,410120,1,0,2:0:0:0:
435,150,410209,1,0,2:0:0:0:
72,56,410385,5,0,0:0:0:0:
440,56,410738,1,0,0:0:0:0:
0,36,411091,5,0,0:0:0:0:
512,36,411268,1,0,0:0:0:0:
0,104,411444,1,0,0:0:0:0:
512,104,411620,1,0,0:0:0:0:
0,172,411797,1,0,0:0:0:0:
512,172,411973,1,0,0:0:0:0:
0,240,412150,1,0,0:0:0:0:
512,240,412326,1,0,0:0:0:0:
0,308,412503,1,0,0:0:0:0:
512,308,412679,1,0,0:0:0:0:
0,376,412856,1,0,0:0:0:0:
512,376,413032,1,0,0:0:0:0:
256,192,413209,5,0,0:0:0:0:
480,36,413561,5,0,0:0:0:0:
480,348,413738,1,0,0:0:0:0:
412,36,413914,1,0,0:0:0:0:
412,348,414091,1,0,0:0:0:0:
344,348,414267,1,0,0:0:0:0:
344,36,414444,1,0,0:0:0:0:
276,348,414620,1,0,0:0:0:0:
276,36,414797,1,0,0:0:0:0:
208,348,414973,1,0,0:0:0:0:
208,36,415150,1,0,0:0:0:0:
140,348,415326,1,0,0:0:0:0:
140,36,415503,1,0,0:0:0:0:
72,348,415679,1,0,0:0:0:0:
72,36,415856,1,0,0:0:0:0:
4,348,416032,1,0,0:0:0:0:
4,36,416208,1,0,0:0:0:0:
256,192,416385,5,0,0:0:0:0:
292,228,416738,5,0,0:0:0:0:
220,156,416915,1,0,0:0:0:0:
340,276,417091,1,0,0:0:0:0:
172,108,417268,1,0,0:0:0:0:
388,320,417444,1,0,0:0:0:0:
124,64,417620,1,0,0:0:0:0:
220,228,417797,5,0,0:0:0:0:
292,156,417974,1,0,0:0:0:0:
172,276,418150,1,0,0:0:0:0:
340,108,418327,1,0,0:0:0:0:
124,320,418503,1,0,0:0:0:0:
388,64,418679,1,0,0:0:0:0:
136,192,418856,1,0,0:0:0:0:
96,192,418944,1,0,0:0:0:0:
56,192,419032,1,0,0:0:0:0:
456,172,419209,6,0,L|456:132,5,39.9999976158142
456,212,419474,2,0,L|456:252,5,39.9999976158142
456,172,419738,2,0,L|456:132,5,39.9999976158142
456,212,420003,2,0,L|456:252,5,39.9999976158142
456,172,420268,2,0,L|456:132,5,39.9999976158142
400,192,420620,5,0,0:0:0:0:
368,192,420708,1,0,0:0:0:0:
336,192,420796,1,0,0:0:0:0:
304,192,420884,1,0,0:0:0:0:
272,192,420972,1,0,0:0:0:0:
240,192,421061,1,0,0:0:0:0:
208,192,421149,1,0,0:0:0:0:
176,192,421237,1,0,0:0:0:0:
144,192,421325,1,0,0:0:0:0:
112,192,421414,1,0,0:0:0:0:
80,192,421502,1,0,0:0:0:0:
401,78,421679,5,0,2:0:0:0:
176,359,421855,1,0,2:0:0:0:
257,8,422032,1,0,2:0:0:0:
336,359,422208,1,0,2:0:0:0:
112,78,422385,1,0,2:0:0:0:
436,234,422561,1,0,2:0:0:0:
77,234,422738,1,0,2:0:0:0:
232,192,422914,1,0,2:0:0:0:
260,192,423002,1,0,2:0:0:0:
288,192,423090,1,0,2:0:0:0:
112,78,423267,5,0,2:0:0:0:
336,359,423443,1,0,2:0:0:0:
256,8,423620,1,0,2:0:0:0:
176,359,423796,1,0,2:0:0:0:
401,78,423973,1,0,2:0:0:0:
77,234,424149,1,0,2:0:0:0:
436,234,424326,1,0,2:0:0:0:
280,192,424503,1,0,2:0:0:0:
252,192,424591,1,0,2:0:0:0:
224,192,424679,1,0,2:0:0:0:
460,352,424855,5,0,0:0:0:0:
460,312,424943,1,0,0:0:0:0:
460,273,425031,1,0,0:0:0:0:
460,232,425119,1,0,0:0:0:0:
460,193,425207,1,0,0:0:0:0:
460,153,425296,1,0,0:0:0:0:
460,112,425384,1,0,0:0:0:0:
52,32,425561,5,0,0:0:0:0:
52,72,425649,1,0,0:0:0:0:
52,112,425737,1,0,0:0:0:0:
52,152,425825,1,0,0:0:0:0:
52,192,425913,1,0,0:0:0:0:
52,232,426002,1,0,0:0:0:0:
52,272,426090,1,0,0:0:0:0:
32,348,426268,5,0,0:0:0:0:
32,36,426445,1,0,0:0:0:0:
100,348,426621,1,0,0:0:0:0:
100,36,426798,1,0,0:0:0:0:
168,36,426974,1,0,0:0:0:0:
168,348,427151,1,0,0:0:0:0:
236,36,427327,1,0,0:0:0:0:
236,348,427504,1,0,0:0:0:0:
304,36,427680,1,0,0:0:0:0:
304,348,427857,1,0,0:0:0:0:
372,36,428033,1,0,0:0:0:0:
372,348,428210,1,0,0:0:0:0:
440,36,428386,1,0,0:0:0:0:
440,348,428563,1,0,0:0:0:0:
508,36,428739,1,0,0:0:0:0:
508,348,428915,1,0,0:0:0:0:
256,192,429092,5,0,0:0:0:0:
512,348,429444,5,0,0:0:0:0:
0,348,429621,1,0,0:0:0:0:
512,280,429797,1,0,0:0:0:0:
0,280,429973,1,0,0:0:0:0:
512,212,430150,1,0,0:0:0:0:
0,212,430326,1,0,0:0:0:0:
512,144,430503,1,0,0:0:0:0:
0,144,430679,1,0,0:0:0:0:
512,76,430856,1,0,0:0:0:0:
0,76,431032,1,0,0:0:0:0:
512,8,431209,1,0,0:0:0:0:
0,8,431385,1,0,0:0:0:0:
256,192,431562,5,0,0:0:0:0:
396,254,431915,1,0,0:0:0:0:
358,306,432003,1,0,0:0:0:0:
303,338,432091,1,0,0:0:0:0:
239,345,432179,1,0,0:0:0:0:
179,325,432268,1,0,0:0:0:0:
131,282,432356,1,0,0:0:0:0:
105,223,432444,1,0,0:0:0:0:
105,159,432532,1,0,0:0:0:0:
131,101,432620,1,0,0:0:0:0:
179,58,432709,1,0,0:0:0:0:
239,38,432797,1,0,0:0:0:0:
303,45,432885,1,0,0:0:0:0:
358,77,432973,1,0,0:0:0:0:
396,129,433062,1,0,0:0:0:0:
409,192,433150,1,0,0:0:0:0:
115,254,433326,5,0,0:0:0:0:
153,306,433414,1,0,0:0:0:0:
208,338,433502,1,0,0:0:0:0:
272,345,433590,1,0,0:0:0:0:
332,325,433679,1,0,0:0:0:0:
380,282,433767,1,0,0:0:0:0:
406,223,433855,1,0,0:0:0:0:
406,159,433943,1,0,0:0:0:0:
380,101,434031,1,0,0:0:0:0:
332,58,434120,1,0,0:0:0:0:
272,38,434208,1,0,0:0:0:0:
208,45,434296,1,0,0:0:0:0:
153,77,434384,1,0,0:0:0:0:
115,129,434473,1,0,0:0:0:0:
102,192,434561,1,0,0:0:0:0:
256,192,434738,6,0,L|88:192,1,159.999990463257
256,192,435091,2,0,L|424:192,1,159.999990463257
96,68,435444,5,0,2:0:0:0:
416,316,435621,1,0,2:0:0:0:
416,68,435797,1,0,2:0:0:0:
96,316,435974,1,0,2:0:0:0:
416,68,436150,1,0,2:0:0:0:
96,316,436327,1,0,2:0:0:0:
96,68,436503,1,0,2:0:0:0:
416,316,436680,1,0,2:0:0:0:
176,316,436856,6,0,P|124:340|40:280,1,159.999990463257,0|0,2:0|2:0,2:0:0:0:
348,64,437209,2,0,P|400:88|484:28,1,159.999990463257,0|0,2:0|2:0,2:0:0:0:
164,64,437562,2,0,P|112:88|28:28,1,159.999990463257,0|0,2:0|2:0,2:0:0:0:
348,320,437915,2,0,P|400:296|484:356,1,159.999990463257,0|0,2:0|2:0,2:0:0:0:
292,156,438268,5,0,0:0:0:0:
220,228,438445,1,0,0:0:0:0:
340,108,438621,1,0,0:0:0:0:
172,276,438798,1,0,0:0:0:0:
388,64,438974,1,0,0:0:0:0:
124,320,439150,1,0,0:0:0:0:
220,156,439327,5,0,0:0:0:0:
292,228,439504,1,0,0:0:0:0:
172,108,439680,1,0,0:0:0:0:
340,276,439857,1,0,0:0:0:0:
124,64,440033,1,0,0:0:0:0:
388,320,440209,1,0,0:0:0:0:
136,192,440386,5,0,0:0:0:0:
96,192,440474,1,0,0:0:0:0:
56,192,440562,1,0,0:0:0:0:
376,192,440738,1,0,0:0:0:0:
416,192,440826,1,0,0:0:0:0:
456,192,440914,1,0,0:0:0:0:
152,132,441091,5,0,0:0:0:0:
117,112,441179,1,0,0:0:0:0:
82,92,441267,1,0,0:0:0:0:
359,252,441443,1,0,0:0:0:0:
394,272,441531,1,0,0:0:0:0:
429,292,441619,1,0,0:0:0:0:
196,88,441797,5,0,0:0:0:0:
176,53,441885,1,0,0:0:0:0:
156,18,441973,1,0,0:0:0:0:
316,295,442149,1,0,0:0:0:0:
336,330,442237,1,0,0:0:0:0:
356,365,442325,1,0,0:0:0:0:
316,88,442503,5,0,0:0:0:0:
336,53,442591,1,0,0:0:0:0:
356,18,442679,1,0,0:0:0:0:
196,295,442855,1,0,0:0:0:0:
175,330,442943,1,0,0:0:0:0:
156,365,443031,1,0,0:0:0:0:
359,132,443209,5,0,0:0:0:0:
394,111,443297,1,0,0:0:0:0:
429,92,443385,1,0,0:0:0:0:
152,251,443561,1,0,0:0:0:0:
117,272,443649,1,0,0:0:0:0:
82,292,443737,1,0,0:0:0:0:
376,192,443915,5,0,0:0:0:0:
416,192,444003,1,0,0:0:0:0:
456,192,444091,1,0,0:0:0:0:
136,192,444267,1,0,0:0:0:0:
95,191,444355,1,0,0:0:0:0:
56,192,444443,1,0,0:0:0:0:
176,64,444620,5,0,0:0:0:0:
336,64,444709,1,0,0:0:0:0:
336,320,444973,1,0,0:0:0:0:
176,320,445062,1,0,0:0:0:0:
383,272,445326,5,0,0:0:0:0:
384,112,445415,1,0,0:0:0:0:
128,112,445679,1,0,0:0:0:0:
128,272,445768,1,0,0:0:0:0:
48,44,446032,5,0,0:0:0:0:
104,44,446120,1,0,0:0:0:0:
160,44,446208,1,0,0:0:0:0:
215,44,446296,1,0,0:0:0:0:
272,44,446384,1,0,0:0:0:0:
327,44,446473,1,0,0:0:0:0:
383,44,446561,1,0,0:0:0:0:
439,44,446649,1,0,0:0:0:0:
456,83,446737,1,0,0:0:0:0:
456,139,446826,1,0,0:0:0:0:
456,195,446914,1,0,0:0:0:0:
456,251,447002,1,0,0:0:0:0:
456,307,447090,1,0,0:0:0:0:
456,363,447179,1,0,0:0:0:0:
412,376,447267,1,0,0:0:0:0:
356,376,447355,1,0,0:0:0:0:
300,376,447443,1,0,0:0:0:0:
244,376,447532,1,0,0:0:0:0:
188,376,447620,1,0,0:0:0:0:
132,376,447708,1,0,0:0:0:0:
76,376,447796,1,0,0:0:0:0:
64,332,447884,1,0,0:0:0:0:
64,276,447973,1,0,0:0:0:0:
64,220,448061,1,0,0:0:0:0:
64,164,448149,1,0,0:0:0:0:
83,128,448237,1,0,0:0:0:0:
139,128,448326,1,0,0:0:0:0:
195,128,448414,1,0,0:0:0:0:
251,128,448502,1,0,0:0:0:0:
307,128,448590,1,0,0:0:0:0:
363,128,448679,1,0,0:0:0:0:
368,179,448767,1,0,0:0:0:0:
368,235,448855,1,0,0:0:0:0:
368,291,448943,1,0,0:0:0:0:
324,304,449032,1,0,0:0:0:0:
268,304,449120,1,0,0:0:0:0:
212,304,449208,1,0,0:0:0:0:
156,304,449296,1,0,0:0:0:0:
132,272,449384,1,0,0:0:0:0:
132,216,449473,1,0,0:0:0:0:
179,208,449561,1,0,0:0:0:0:
235,208,449649,1,0,0:0:0:0:
256,192,449915,5,0,0:0:0:0:
32,36,450091,1,0,0:0:0:0:
480,36,450267,1,0,0:0:0:0:
32,348,450444,1,0,0:0:0:0:
480,348,450620,1,0,0:0:0:0:
32,36,450797,1,0,0:0:0:0:
480,36,450973,1,0,0:0:0:0:
256,192,451326,1,0,0:0:0:0:
256,192,451679,12,0,452738,0:0:0:0:
