osu file format v14

[General]
AudioFilename: audio.ogg
AudioLeadIn: 0
PreviewTime: 5359
Countdown: 0
SampleSet: Soft
StackLeniency: 0.7
Mode: 0
LetterboxInBreaks: 0
WidescreenStoryboard: 1

[Editor]
Bookmarks: 5359,59644,97299
DistanceSpacing: 0.3
BeatDivisor: 4
GridSize: 4
TimelineZoom: 2

[Metadata]
Title:Yesterday
TitleUnicode:Yesterday
Artist:The Beatles
ArtistUnicode:The Beatles
Creator:sisig
Version:Normal
Source:
Tags:lennon-mccartney george martin john paul mccartney help and today chamber pop rock scrambled eggs epiphone texan steel-string acoustic guitar string quartet male vocals english tony gilbert sidney sax kenneth essex peter halling francisco gabarro norman smith british technoblade wilbursoot tommyinnit nature flower grass baroque violin viola cello violincello folk
BeatmapID:3741867
BeatmapSetID:1819703

[Difficulty]
HPDrainRate:2.4
CircleSize:3.2
OverallDifficulty:4
ApproachRate:5.2
SliderMultiplier:1.4
SliderTickRate:1

[Events]
//Background and Video events
0,0,"bg.png",0,0
//Break Periods
//Storyboard Layer 0 (Background)
//Storyboard Layer 1 (Fail)
//Storyboard Layer 2 (Pass)
//Storyboard Layer 3 (Foreground)
//Storyboard Layer 4 (Overlay)
//Storyboard Sound Samples

[TimingPoints]
385,621.761658031088,4,2,1,55,1,0
695,-100,4,2,2,55,0,0
1628,-100,4,2,1,55,0,0
1939,-100,4,2,2,55,0,0
2872,-100,4,2,1,55,0,0
3182,-100,4,2,2,55,0,0
4115,-100,4,2,1,55,0,0
4426,-100,4,2,2,55,0,0
5359,-100,4,2,1,55,0,0
5669,-100,4,2,2,60,0,0
5825,-100,4,2,1,60,0,0
5980,-100,4,2,2,60,0,0
6602,-100,4,2,1,60,0,0
6913,-100,4,2,2,60,0,0
7535,-100,4,2,1,60,0,0
8157,-100,4,2,3,60,0,0
8467,-100,4,2,3,60,0,0
9089,-100,4,2,4,60,0,0
9245,-100,4,2,1,60,0,0
9400,-100,4,2,3,60,0,0
9711,-100,4,2,3,60,0,0
10333,610.687022900763,4,2,1,60,1,0
10638,-100,4,2,3,60,0,0
11249,-100,4,2,3,60,0,0
11401,-100,4,2,1,60,0,0
11554,-100,4,2,1,60,0,0
11859,-100,4,2,2,60,0,0
12165,-100,4,2,1,60,0,0
12470,-100,4,2,2,60,0,0
12775,604.534005037783,4,2,1,60,1,0
13077,-100,4,2,3,60,0,0
13379,-100,4,2,3,60,0,0
13681,-100,4,2,2,60,0,0
13832,-100,4,2,1,60,0,0
13984,-100,4,2,1,60,0,0
14135,-100,4,2,1,60,0,0
14286,-100,4,2,2,60,0,0
14437,-100,4,2,1,60,0,0
14588,-100,4,2,3,60,0,0
14890,-100,4,2,3,60,0,0
15193,-100,4,2,1,60,0,0
15495,-100,4,2,3,60,0,0
15797,-100,4,2,3,60,0,0
16402,-100,4,2,1,60,0,0
16704,-100,4,2,2,60,0,0
17006,-100,4,2,1,60,0,0
17309,-100,4,2,3,60,0,0
17611,-100,4,2,1,60,0,0
17619,616.966580976863,4,2,1,60,1,0
17619,-100,4,2,1,60,0,0
17927,-100,4,2,3,60,0,0
18235,-100,4,2,3,60,0,0
18544,-100,4,2,1,60,0,0
18852,-100,4,2,1,60,0,0
19161,-100,4,2,2,60,0,0
19778,-100,4,2,1,60,0,0
20395,-100,4,2,2,60,0,0
20703,629.921259842519,4,2,1,60,1,0
21647,-100,4,2,2,60,0,0
22592,613.810741687979,4,2,4,65,1,0
22898,-100,4,2,2,65,0,0
23052,-100,4,2,1,65,0,0
23205,-100,4,2,2,65,0,0
23819,-100,4,2,1,65,0,0
24126,-100,4,2,2,65,0,0
24740,-100,4,2,1,65,0,0
25354,-100,4,2,3,65,0,0
25661,-100,4,2,3,65,0,0
25967,-100,4,2,1,65,0,0
26581,-100,4,2,2,65,0,0
26735,-100,4,2,1,65,0,0
26888,-100,4,2,3,65,0,0
27195,-100,4,2,3,65,0,0
27502,-100,4,2,1,65,0,0
27809,-100,4,2,2,65,0,0
27962,-100,4,2,4,65,0,0
28116,-100,4,2,3,65,0,0
28423,-100,4,2,3,65,0,0
28730,-100,4,2,1,65,0,0
29037,-100,4,2,2,65,0,0
29343,-100,4,2,1,65,0,0
29650,-100,4,2,2,65,0,0
29958,629.921259842518,4,2,1,65,1,0
30263,-100,4,2,1,65,0,0
30272,-100,4,2,2,65,0,0
30587,460.652591170824,4,2,2,65,1,0
30587,-100,4,2,2,65,0,0
30702,-100,4,2,2,65,0,0
30817,-100,4,2,3,65,0,0
31047,-100,4,2,4,65,0,0
31162,-100,4,2,4,65,0,0
31277,-100,4,2,1,65,0,0
31508,-100,4,2,3,65,0,0
31738,610.687022900761,4,2,3,65,1,0
31738,-100,4,2,3,65,0,0
32043,-100,4,2,2,65,0,0
32196,-100,4,2,1,65,0,0
32348,-100,4,2,1,65,0,0
32654,-100,4,2,3,65,0,0
32959,629.921259842518,4,2,3,65,1,0
32959,-100,4,2,3,65,0,0
33588,-100,4,2,1,65,0,0
33903,-100,4,2,2,65,0,0
34218,-100,4,2,1,65,0,0
34533,-100,4,2,3,65,0,0
34848,586.797066014668,4,2,1,65,1,0
34848,-100,4,2,1,65,0,0
35141,-100,4,2,3,65,0,0
35434,-100,4,2,3,65,0,0
35728,-100,4,2,1,65,0,0
36021,-100,4,2,1,65,0,0
36314,-100,4,2,3,65,0,0
36901,766.773162939297,4,2,3,65,1,0
36901,-100,4,2,3,65,0,0
37284,645.161290322578,4,2,1,65,1,0
37931,799.999999999997,4,2,1,65,1,0
38331,576.923076923075,4,2,1,65,1,0
38907,-100,4,2,2,65,0,0
39196,-100,4,2,1,65,0,0
39484,-100,4,2,2,65,0,0
39773,-100,4,2,1,65,0,0
39812,618.556701030926,4,2,1,70,1,0
40121,-100,4,2,2,70,0,0
41049,-100,4,2,1,70,0,0
41358,-100,4,2,2,70,0,0
42286,-100,4,2,1,70,0,0
42595,-100,4,2,2,70,0,0
42904,-100,4,2,1,70,0,0
43214,-100,4,2,2,70,0,0
43523,-100,4,2,1,70,0,0
43832,-100,4,2,2,70,0,0
44141,-100,4,2,1,70,0,0
44451,-100,4,2,3,70,0,0
44760,-100,4,2,1,70,0,0
45069,-100,4,2,3,70,0,0
45379,-100,4,2,3,70,0,0
45688,-100,4,2,3,70,0,0
45997,-100,4,2,1,70,0,0
46306,-100,4,2,3,70,0,0
46616,-100,4,2,3,70,0,0
47234,-100,4,2,1,70,0,0
47543,-100,4,2,2,70,0,0
47853,545.454545454544,4,2,2,70,1,0
48125,624.999999999998,4,2,2,70,1,0
48437,-100,4,2,1,70,0,0
48750,-100,4,2,2,70,0,0
49374,-100,4,2,1,70,0,0
49687,624.999999999998,4,2,1,70,1,0
49687,-100,4,2,1,70,0,0
49999,-100,4,2,2,70,0,0
50936,-100,4,2,1,70,0,0
51249,-100,4,2,2,70,0,0
52186,-100,4,2,1,70,0,0
52203,585.365853658536,4,2,1,70,1,0
52495,-100,4,2,2,70,0,0
52788,-100,4,2,1,70,0,0
53081,-100,4,2,2,70,0,0
53373,641.711229946523,4,2,1,70,1,0
53373,-100,4,2,1,70,0,0
53693,-100,4,2,2,70,0,0
54014,-100,4,2,1,70,0,0
54335,609.137055837562,4,2,3,70,1,0
54335,-100,4,2,3,70,0,0
54639,552.995391705068,4,2,1,70,1,0
54915,-100,4,2,3,70,0,0
55233,655.737704918032,4,2,3,70,1,0
55560,-100,4,2,3,70,0,0
55888,-100,4,2,1,70,0,0
56216,-100,4,2,3,70,0,0
56544,-100,4,2,3,70,0,0
56872,-100,4,2,3,70,0,0
57156,685.714285714284,4,2,1,70,1,0
57841,609.137055837563,4,2,1,70,1,0
57841,-100,4,2,1,50,0,0
58450,648.648648648648,4,2,1,70,1,0
58450,-100,4,2,1,30,0,0
59098,-100,4,2,1,30,0,0
59643,515.021459227467,4,2,1,70,1,0
59643,-100,4,2,1,60,0,0
59900,-100,4,2,2,60,0,0
60029,480,4,2,1,70,1,0
60029,-100,4,2,1,60,0,0
60149,-100,4,2,1,60,0,0
60269,560.747663551402,4,2,2,70,1,0
60269,-100,4,2,2,60,0,0
60883,603.015075376885,4,2,1,70,1,0
60883,-100,4,2,1,60,0,0
61184,-100,4,2,2,60,0,0
61787,-100,4,2,1,60,0,0
62089,621.761658031088,4,2,1,70,1,0
62399,-100,4,2,3,60,0,0
62710,-100,4,2,3,60,0,0
63332,-100,4,2,1,60,0,0
63643,-100,4,2,2,60,0,0
63798,-100,4,2,1,60,0,0
63954,-100,4,2,3,60,0,0
64307,740.740740740739,4,2,3,60,1,0
64677,666.666666666665,4,2,1,60,1,0
65010,-100,4,2,3,60,0,0
65343,-100,4,2,3,60,0,0
66010,624.999999999999,4,2,1,60,1,0
66322,-100,4,2,2,60,0,0
66329,-100,4,2,2,60,0,0
66635,-100,4,2,1,60,0,0
66947,-100,4,2,2,60,0,0
67260,623.376623376622,4,2,1,60,1,0
67571,-100,4,2,3,60,0,0
67883,-100,4,2,3,60,0,0
68195,-100,4,2,2,60,0,0
68350,-100,4,2,1,60,0,0
68506,-100,4,2,1,60,0,0
68818,-100,4,2,3,60,0,0
69753,-100,4,2,1,60,0,0
70065,-100,4,2,3,60,0,0
70376,-100,4,2,3,60,0,0
71000,-100,4,2,1,60,0,0
71311,-100,4,2,2,60,0,0
71623,-100,4,2,1,60,0,0
71935,-100,4,2,2,60,0,0
72247,-100,4,2,1,60,0,0
72558,-100,4,2,3,60,0,0
72870,-100,4,2,3,60,0,0
73182,-100,4,2,1,60,0,0
73493,-100,4,2,1,60,0,0
73805,-100,4,2,3,60,0,0
74428,-100,4,2,3,60,0,0
74740,-100,4,2,1,60,0,0
74766,646.900269541778,4,2,1,60,1,0
75089,-100,4,2,2,60,0,0
75412,-100,4,2,1,60,0,0
76059,-100,4,2,2,60,0,0
77030,-100,4,2,1,60,0,0
77353,624.999999999999,4,2,1,65,1,0
77665,-100,4,2,2,65,0,0
78603,-100,4,2,1,65,0,0
78915,-100,4,2,2,65,0,0
79853,594.059405940593,4,2,1,65,1,0
79853,-100,4,2,1,65,0,0
80150,-100,4,2,2,65,0,0
80447,638.297872340425,4,2,1,65,1,0
80447,-100,4,2,1,65,0,0
80766,-100,4,2,2,65,0,0
81085,674.157303370785,4,2,1,65,1,0
81085,-100,4,2,1,65,0,0
81422,-100,4,2,2,65,0,0
81759,594.059405940593,4,2,1,65,1,0
81759,-100,4,2,1,65,0,0
82056,-100,4,2,3,65,0,0
82353,634.920634920634,4,2,1,65,1,0
82670,-100,4,2,3,65,0,0
83305,655.737704918032,4,2,3,65,1,0
83632,575.539568345323,4,2,1,65,1,0
83919,-100,4,2,3,65,0,0
84207,-100,4,2,3,65,0,0
84783,607.59493670886,4,2,1,65,1,0
85086,-100,4,2,2,65,0,0
85998,-100,4,2,1,65,0,0
86301,-100,4,2,2,65,0,0
87213,618.556701030927,4,2,1,65,1,0
87522,-100,4,2,2,65,0,0
88450,-100,4,2,1,65,0,0
88759,-100,4,2,2,65,0,0
89687,-100,4,2,1,65,0,0
89996,-100,4,2,2,65,0,0
90305,-100,4,2,1,65,0,0
90615,-100,4,2,2,65,0,0
90924,-100,4,2,1,65,0,0
91233,-100,4,2,2,65,0,0
91542,-100,4,2,1,65,0,0
91852,-100,4,2,3,65,0,0
92161,-100,4,2,1,65,0,0
92470,-100,4,2,3,65,0,0
93089,-100,4,2,3,65,0,0
93398,-100,4,2,1,65,0,0
93707,-100,4,2,3,65,0,0
94017,-100,4,2,3,65,0,0
94326,-100,4,2,3,65,0,0
94635,-100,4,2,1,65,0,0
94648,662.983425414364,4,2,1,65,1,0
95310,-100,4,2,1,35,0,0
95973,-100,4,2,1,15,0,0
96636,-100,4,2,1,5,0,0
97299,633.245382585751,4,2,1,70,1,0
97615,-100,4,2,2,70,0,0
97773,-100,4,2,1,70,0,0
97932,-100,4,2,2,70,0,0
98565,-100,4,2,1,70,0,0
98882,-100,4,2,2,70,0,0
99166,633.245382585751,4,2,2,70,1,0
99482,-100,4,2,1,70,0,0
100115,-100,4,2,3,70,0,0
100432,-100,4,2,3,70,0,0
101065,556.844547563805,4,2,1,70,1,0
101065,-113.636363636364,4,2,1,70,0,0
101343,677.966101694914,4,2,2,70,1,0
101343,-100,4,2,2,70,0,0
101512,-100,4,2,1,70,0,0
101681,-100,4,2,3,70,0,0
102020,-100,4,2,3,70,0,0
102359,-100,4,2,1,70,0,0
102364,738.461538461537,4,2,1,70,1,0
102678,-100,4,2,1,70,0,0
102733,-100,4,2,3,70,0,0
102993,-100,4,2,3,70,0,0
103102,529.801324503311,4,2,3,70,1,0
103631,612.244897959184,4,2,1,70,1,0
103631,-100,4,2,1,70,0,0
103937,-100,4,2,2,70,0,0
104243,-100,4,2,1,70,0,0
104549,-100,4,2,2,70,0,0
104855,616.966580976863,4,2,1,70,1,0
105163,-100,4,2,3,70,0,0
105471,-100,4,2,3,70,0,0
105780,-100,4,2,2,70,0,0
105934,503.14465408805,4,2,1,70,1,0
105934,-100,4,2,1,70,0,0
106059,-100,4,2,1,70,0,0
106185,-100,4,2,1,70,0,0
106311,-100,4,2,1,70,0,0
106437,-100,4,2,2,70,0,0
106562,-100,4,2,1,70,0,0
106688,-100,4,2,3,70,0,0
106814,738.461538461538,4,2,3,70,1,0
106998,650.406504065041,4,2,3,70,1,0
106998,-100,4,2,3,70,0,0
107323,-100,4,2,1,70,0,0
107648,-100,4,2,3,70,0,0
107973,-100,4,2,3,70,0,0
108298,586.79706601467,4,2,3,70,1,0
108591,-100,4,2,1,70,0,0
108884,-100,4,2,2,70,0,0
109178,703.812316715542,4,2,1,70,1,0
109178,-100,4,2,1,70,0,0
109529,-100,4,2,3,70,0,0
109818,628.2722513089,4,2,1,70,1,0
110132,-100,4,2,3,70,0,0
110446,-100,4,2,3,70,0,0
110760,-100,4,2,1,70,0,0
111074,-100,4,2,1,70,0,0
111388,-100,4,2,3,70,0,0
112016,-100,4,2,3,70,0,0
112331,-100,4,2,1,70,0,0
112645,-100,4,2,2,70,0,0
112959,718.562874251496,4,2,1,70,1,0
112959,-100,4,2,1,70,0,0
113857,718.562874251496,4,2,2,70,1,0
113857,-100,4,2,2,70,0,0
114216,621.761658031087,4,2,2,70,1,0
114882,683.760683760683,4,2,1,60,1,0
115223,-100,4,2,3,60,0,0
115565,-100,4,2,3,60,0,0
115907,-100,4,2,3,60,0,0
116249,-100,4,2,1,50,0,0
116591,-100,4,2,3,50,0,0
116975,813.559322033897,4,2,3,50,1,0
117381,-100,4,2,3,50,0,0
117788,813.559322033897,4,2,1,40,1,0
118601,1095.8904109589,4,2,1,40,1,0
119148,1095.8904109589,4,2,1,40,1,0
119148,-571.428571428571,4,2,1,40,0,0
120243,-571.428571428571,4,2,1,30,0,0
121339,-571.428571428571,4,2,1,20,0,0
122435,-571.428571428571,4,2,1,10,0,0

[Colours]
Combo1 : 115,98,43
Combo2 : 54,66,33
Combo3 : 225,235,211
Combo4 : 177,182,122
Combo5 : 76,92,34

[HitObjects]
43,271,385,6,0,P|134:290|187:306,1,140,8|0,2:2|2:2,0:0:0:0:
336,238,1628,6,0,P|336:182|412:126,2,140,8|0|8,2:2|2:2|2:2,0:0:0:0:
502,264,3493,2,0,P|492:305|486:339,1,70,0|0,2:2|2:2,0:0:0:0:
403,372,4115,6,0,P|334:354|245:338,1,140,8|0,2:2|2:2,0:0:0:0:
92,351,5359,6,0,P|73:296|44:223,2,105,10|2|0,2:2|2:2|2:2,0:0:0:0:
179,320,6602,2,0,P|226:303|257:296,1,70,8|0,2:2|2:2,0:0:0:0:
216,212,7224,2,0,P|182:221|149:233,1,70,0|8,2:2|2:2,0:0:0:0:
83,171,7846,5,8,2:2:0:0:
217,48,8467,1,2,2:2:0:0:
293,95,8778,1,2,2:2:0:0:
372,138,9089,2,0,P|416:127|465:115,2,70,10|0|2,2:2|2:2|2:2,0:0:0:0:
293,95,10022,1,2,2:2:0:0:
292,188,10333,6,0,P|275:256|206:277,1,140,10|0,2:2|2:2,0:0:0:0:
140,326,11249,1,2,2:2:0:0:
225,355,11554,2,0,P|271:362|305:370,1,70,8|0,2:2|2:2,0:0:0:0:
364,296,12165,2,0,P|329:288|295:283,1,70,8|0,2:2|2:2,0:0:0:0:
213,269,12775,6,0,P|196:201|179:134,1,140,8|2,2:2|2:2,0:0:0:0:
207,48,13681,1,2,2:2:0:0:
122,64,13984,2,0,P|75:54|26:42,1,70,8|0,2:2|2:2,0:0:0:0:
23,133,14588,2,0,P|60:143|91:148,1,70,0|2,2:2|2:2,0:0:0:0:
182,140,15193,6,0,P|128:184|123:256,1,140,10|2,2:2|2:2,0:0:0:0:
175,315,16099,2,0,P|245:320|297:270,1,140,2|0,2:2|2:2,0:0:0:0:
212,230,17006,1,8,2:2:0:0:
371,316,17619,6,0,P|440:303|509:292,1,140,0|2,0:0|2:2,0:0:0:0:
512,212,18544,2,0,P|476:184|383:229,1,140,10|0,2:2|2:2,0:0:0:0:
385,294,19469,1,0,2:2:0:0:
228,251,20086,5,10,2:2:0:0:
306,95,20703,1,10,2:2:0:0:
233,159,21017,2,0,P|179:151|83:130,1,140,10|0,2:2|2:2,0:0:0:0:
56,219,21962,2,0,P|63:271|67:305,1,70,0|0,2:2|2:2,0:0:0:0:
148,322,22592,6,0,P|222:304|260:298,2,105,10|2|0,2:2|2:2|2:2,0:0:0:0:
67,276,23819,1,8,2:2:0:0:
142,166,24433,2,0,P|147:200|151:235,1,70,0|8,2:2|2:2,0:0:0:0:
244,267,25047,6,0,P|234:199|222:126,1,140,8|2,2:2|2:2,0:0:0:0:
171,62,25967,1,10,2:2:0:0:
139,141,26274,2,0,P|95:134|60:129,1,70,10|2,2:2|2:2,0:0:0:0:
103,46,26888,2,0,P|146:57|196:66,1,70,0|2,2:2|2:2,0:0:0:0:
222,128,27502,6,0,P|280:112|365:91,1,140,10|2,2:2|2:2,0:0:0:0:
440,70,28423,1,0,2:2:0:0:
492,140,28730,2,0,P|497:182|478:222,1,70,8|0,2:2|2:2,0:0:0:0:
405,244,29343,2,0,P|366:226|341:190,1,70,8|0,2:2|2:2,0:0:0:0:
256,204,29958,5,8,2:2:0:0:
278,326,30587,1,2,2:2:0:0:
116,327,31162,2,0,P|131:278|148:208,1,105,8|0,2:2|2:2,0:0:0:0:
54,214,31738,2,0,P|46:248|35:281,1,70,2|2,2:2|2:2,0:0:0:0:
48,383,32348,6,0,P|102:343|189:384,1,140,8|2,2:2|2:2,0:0:0:0:
248,306,33273,2,0,P|291:348|374:332,1,140,2|0,2:2|2:2,0:0:0:0:
455,285,34218,2,0,P|445:221|443:192,1,70,8|2,2:2|2:2,0:0:0:0:
348,199,34848,6,0,P|357:278|369:362,1,140,10|2,2:2|2:2,0:0:0:0:
290,378,35728,1,10,2:2:0:0:
209,346,36021,2,0,P|204:293|192:185,1,140,8|0,2:2|2:2,0:0:0:0:
107,215,36901,1,2,2:2:0:0:
89,304,37284,5,10,2:2:0:0:
24,192,37931,1,10,2:2:0:0:
107,215,38331,2,0,P|188:199|261:191,2,140,10|0|0,2:2|2:2|2:2,0:0:0:0:
23,167,39812,6,0,P|15:124|6:89,1,70,0|0,0:0|2:2,0:0:0:0:
90,52,40430,2,0,P|98:86|106:121,1,70,0|0,2:2|2:2,0:0:0:0:
190,115,41049,6,0,P|196:80|204:46,1,70,10|0,2:2|2:2,0:0:0:0:
296,37,41667,1,0,2:2:0:0:
393,207,42286,5,10,2:2:0:0:
512,173,42904,1,10,2:2:0:0:
483,302,43523,1,10,2:2:0:0:
356,320,44141,2,0,P|306:310|278:303,1,70,10|2,2:2|2:2,0:0:0:0:
184,331,44760,6,0,P|145:303|137:256,1,70,8|2,2:2|2:2,0:0:0:0:
148,199,45379,2,0,P|191:179|236:195,1,70,0|2,2:2|2:2,0:0:0:0:
290,146,45997,2,0,P|295:91|304:57,1,70,10|0,2:2|2:2,0:0:0:0:
372,28,46616,1,2,2:2:0:0:
464,51,46925,1,2,2:2:0:0:
398,114,47234,6,0,P|390:148|386:183,1,70,8|0,2:2|2:2,0:0:0:0:
299,164,47853,2,0,P|302:129|310:94,1,70,0|0,2:2|2:2,0:0:0:0:
206,57,48437,6,0,P|213:91|217:126,1,70,8|0,2:2|2:2,0:0:0:0:
129,144,49062,1,0,2:2:0:0:
0,250,49687,6,0,P|13:182|34:115,1,140,10|0,2:2|2:2,0:0:0:0:
112,72,50624,1,0,2:2:0:0:
115,164,50936,2,0,P|94:231|81:300,1,140,10|0,2:2|2:2,0:0:0:0:
155,340,51874,1,0,2:2:0:0:
235,299,52203,6,0,P|292:286|331:279,1,70,0|0,0:0|2:2,0:0:0:0:
384,313,52788,2,0,P|418:304|466:288,1,70,10|0,2:2|2:2,0:0:0:0:
457,205,53373,2,0,P|422:212|293:251,1,140,10|10,2:2|2:2,0:0:0:0:
279,310,54335,1,2,2:2:0:0:
196,335,54639,2,0,P|174:310|175:261,1,70,10|0,2:2|2:2,0:0:0:0:
234,221,55233,6,0,P|251:186|242:133,1,70,0|2,2:2|2:2,0:0:0:0:
177,119,55888,2,0,P|128:134|78:147,1,70,10|0,2:2|2:2,0:0:0:0:
54,64,56544,2,0,P|87:54|121:44,1,70,2|0,2:2|2:2,0:0:0:0:
206,39,57156,5,10,2:2:0:0:
362,113,57841,2,0,P|344:204|335:279,1,140
362,113,59098,1,0,0:0:0:0:
503,75,59643,5,8,0:0:0:0:
392,210,60269,1,0,2:2:0:0:
343,138,60549,1,0,2:2:0:0:
406,70,60883,2,0,P|344:50|318:41,1,70,8|0,2:2|2:2,0:0:0:0:
261,86,61486,2,0,P|248:144|238:182,1,70,0|8,2:2|2:2,0:0:0:0:
178,212,62089,6,0,P|132:194|21:165,1,140,8|2,2:2|2:2,0:0:0:0:
37,85,63021,1,2,2:2:0:0:
88,19,63332,2,0,P|145:32|215:57,1,105,10|2,2:2|2:2,0:0:0:0:
152,186,64307,1,0,0:0:0:0:
67,209,64677,6,0,P|17:163|16:95,1,140,10|2,2:2|2:2,0:0:0:0:
108,103,65677,1,2,2:2:0:0:
169,170,66010,2,0,P|233:154|257:148,1,70,8|0,2:2|2:2,0:0:0:0:
300,90,66635,2,0,P|353:99|382:103,1,70,8|0,2:2|2:2,0:0:0:0:
441,155,67260,5,8,2:2:0:0:
418,313,67883,1,2,2:2:0:0:
335,281,68195,1,2,2:2:0:0:
265,334,68506,2,0,P|212:325|169:318,1,70,8|2,2:2|2:2,0:0:0:0:
107,332,69130,2,0,P|117:270|122:239,1,70,2|2,2:2|2:2,0:0:0:0:
155,178,69753,6,0,P|104:177|8:181,1,140,10|2,2:2|2:2,0:0:0:0:
4,96,70688,2,0,P|67:91|96:90,1,70,2|8,2:2|2:2,0:0:0:0:
150,45,71311,1,0,2:2:0:0:
226,3,71623,2,0,P|303:3|323:1,1,70,10|0,2:2|2:2,0:0:0:0:
385,33,72247,6,0,P|371:97|361:187,1,140,10|2,2:2|2:2,0:0:0:0:
448,197,73182,1,10,2:2:0:0:
463,112,73493,2,0,P|473:65|477:37,1,70,8|0,2:2|2:2,0:0:0:0:
385,33,74117,1,0,2:2:0:0:
343,188,74766,6,0,P|265:168|192:155,1,140,0|10,0:0|2:2,0:0:0:0:
112,164,75736,2,0,P|88:213|146:297,1,140,10|0,2:2|2:2,0:0:0:0:
199,320,76706,1,0,2:2:0:0:
335,274,77353,6,0,P|398:292|425:301,1,70,10|0,2:2|2:2,0:0:0:0:
450,214,77978,1,0,2:2:0:0:
298,192,78603,6,0,P|287:158|278:124,1,70,10|0,2:2|2:2,0:0:0:0:
189,108,79228,1,0,2:2:0:0:
140,276,79853,6,0,P|69:252|-5:237,1,140,10|10,2:2|2:2,0:0:0:0:
19,153,80766,1,0,2:2:0:0:
36,68,81085,2,0,P|94:81|180:109,1,140,10|10,2:2|2:2,0:0:0:0:
236,37,82056,2,0,P|275:48|310:54,1,70,2|10,2:2|2:2,0:0:0:0:
391,29,82670,6,0,P|356:61|370:152,1,140,0|2,2:2|2:2,0:0:0:0:
432,197,83632,2,0,P|478:173|505:165,1,70,10|0,2:2|2:2,0:0:0:0:
512,254,84207,1,2,2:2:0:0:
501,343,84495,1,2,2:2:0:0:
427,287,84783,6,0,P|365:275|279:267,1,140,8|0,2:2|2:2,0:0:0:0:
225,325,85694,1,0,2:2:0:0:
139,296,85998,2,0,P|130:245|115:152,1,140,8|0,2:2|2:2,0:0:0:0:
36,134,86909,1,0,2:2:0:0:
65,56,87213,6,0,P|114:43|152:35,1,70,10|0,2:2|2:2,0:0:0:0:
205,79,87831,2,0,P|254:86|287:93,1,70,0|0,2:2|2:2,0:0:0:0:
364,76,88450,2,0,P|381:44|380:1,1,70,10|0,2:2|2:2,0:0:0:0:
292,24,89068,2,0,P|275:56|276:99,1,70,0|0,2:2|2:2,0:0:0:0:
333,159,89687,6,0,P|344:210|365:315,2,140,10|10|10,2:2|2:2|2:2,0:0:0:0:
502,204,91542,1,10,2:2:0:0:
441,263,91852,1,2,2:2:0:0:
362,234,92161,6,0,P|347:171|342:149,1,70,10|0,2:2|2:2,0:0:0:0:
256,165,92780,2,0,P|263:199|272:233,1,70,0|2,2:2|2:2,0:0:0:0:
243,315,93398,2,0,P|211:343|175:348,1,70,10|0,2:2|2:2,0:0:0:0:
103,292,94017,2,0,P|135:264|171:259,1,70,2|0,2:2|2:2,0:0:0:0:
243,315,94648,5,0,0:0:0:0:
378,261,95310,2,0,P|451:278|520:301,2,140
474,168,97299,6,0,P|494:116|470:69,2,105,10|2|0,2:2|2:2|2:2,0:0:0:0:
391,177,98565,2,0,P|336:164|299:157,1,70,8|0,2:2|2:2,0:0:0:0:
269,90,99166,1,0,2:2:0:0:
191,122,99482,1,8,2:2:0:0:
118,79,99799,6,0,P|95:131|63:208,1,140,8|2,2:2|2:2,0:0:0:0:
129,268,100749,1,2,2:2:0:0:
79,346,101065,1,10,2:2:0:0:
235,337,101512,2,0,P|278:293|273:224,1,105,2|2,2:2|2:2,0:0:0:0:
220,178,102364,6,0,P|267:169|369:160,1,140,10|2,2:2|2:2,0:0:0:0:
438,115,103366,1,2,2:2:0:0:
441,210,103631,2,0,P|490:224|526:234,1,70,8|0,2:2|2:2,0:0:0:0:
471,310,104243,2,0,P|437:300|403:290,1,70,8|0,2:2|2:2,0:0:0:0:
323,324,104855,6,0,P|253:329|184:341,1,140,8|2,2:2|2:2,0:0:0:0:
104,302,105780,1,2,2:2:0:0:
23,260,106059,2,0,P|32:206|40:171,1,70,8|2,2:2|2:2,0:0:0:0:
56,102,106562,1,2,2:2:0:0:
217,125,106998,1,2,2:2:0:0:
201,213,107323,6,0,P|188:281|174:350,1,140,10|2,2:2|2:2,0:0:0:0:
274,335,108298,2,0,P|284:286|373:243,1,140,2|0,2:2|2:2,0:0:0:0:
380,161,109178,2,0,P|383:114|401:92,1,70,8|2,2:2|2:2,0:0:0:0:
484,118,109818,6,0,P|470:200|464:287,1,140,10|2,2:2|2:2,0:0:0:0:
389,312,110760,1,10,2:2:0:0:
303,284,111074,2,0,P|230:308|142:331,1,140,8|0,2:2|2:2,0:0:0:0:
82,270,112016,1,2,2:2:0:0:
154,210,112331,6,0,P|184:172|188:141,1,70,10|0,2:2|2:2,0:0:0:0:
111,112,112959,1,10,2:2:0:0:
27,155,113318,2,0,P|2:122|14:38,1,105,10|0,2:2|2:2,0:0:0:0:
108,23,114216,2,0,P|100:70|96:98,1,70,0|0,2:2|2:2,0:0:0:0:
171,148,114882,6,0,P|209:137|249:130,1,70,10|0,2:2|2:2,0:0:0:0:
290,62,115565,1,2,2:2:0:0:
367,103,115907,1,0,2:2:0:0:
457,64,116249,6,0,P|448:122|441:166,1,70,10|0,2:2|2:2,0:0:0:0:
378,185,116975,2,0,P|383:219|388:254,1,70,2|0,2:2|2:2,0:0:0:0:
448,311,117788,6,0,P|376:295|295:284,1,140,10|10,2:2|2:2,0:0:0:0:
157,175,119148,6,0,P|104:189|82:194,1,73.4999977569581,10|0,2:2|0:0,0:0:0:0:
