osu file format v14

[General]
AudioFilename: audio.mp3
AudioLeadIn: 0
PreviewTime: 5053
Countdown: 0
SampleSet: Soft
StackLeniency: 0.5
Mode: 0
LetterboxInBreaks: 0
WidescreenStoryboard: 0

[Editor]
Bookmarks: 92041
DistanceSpacing: 1.2
BeatDivisor: 4
GridSize: 8
TimelineZoom: 1.6

[Metadata]
Title:Savoy Truffle
TitleUnicode:Savoy Truffle
Artist:The Beatles
ArtistUnicode:The Beatles
Creator:mrowswares
Version:Montelimart
Source:
Tags:trufle john lennon paul mccartney ringo starr george harrison white album british english pop rock blues 1968 60s voss apollo apo11o starcastler
BeatmapID:2788042
BeatmapSetID:1346299

[Difficulty]
HPDrainRate:5
CircleSize:4
OverallDifficulty:8
ApproachRate:9
SliderMultiplier:2.6
SliderTickRate:1

[Events]
//Background and Video events
0,0,"TheBeatles68LP.jpg",0,0
//Break Periods
2,36826,39698
//Storyboard Layer 0 (Background)
//Storyboard Layer 1 (Fail)
//Storyboard Layer 2 (Pass)
//Storyboard Layer 3 (Foreground)
//Storyboard Layer 4 (Overlay)
//Storyboard Sound Samples

[TimingPoints]
396,487.80487804878,4,2,1,69,1,0
517,465.116279069767,4,2,1,69,1,0
1484,487.80487804878,4,2,1,69,1,0
3435,492.813141683778,4,2,1,69,1,0
5192,455.062571103527,4,2,1,69,1,0
6784,494.233937397035,4,2,1,69,1,0
7896,-100,4,2,1,5,0,0
8019,-100,4,2,1,69,0,0
8143,-100,4,2,1,5,0,0
8266,-100,4,2,1,69,0,0
8390,-100,4,2,1,5,0,0
8513,-100,4,2,1,69,0,0
8760,-66.6666666666667,4,2,1,69,0,0
9131,-66.6666666666667,4,2,1,5,0,0
9255,-66.6666666666667,4,2,1,69,0,0
9378,-66.6666666666667,4,2,1,5,0,0
9502,-66.6666666666667,4,2,1,69,0,0
9625,-66.6666666666667,4,2,1,5,0,0
9749,-66.6666666666667,4,2,1,69,0,0
9872,-66.6666666666667,4,2,1,5,0,0
9996,-66.6666666666667,4,2,1,69,0,0
10120,-66.6666666666667,4,2,1,5,0,0
10243,-66.6666666666667,4,2,1,69,0,0
10490,-200,4,2,1,69,0,0
11232,500,4,2,1,69,1,0
11232,-66.6666666666667,4,2,1,69,0,0
11357,-66.6666666666667,4,2,1,5,0,0
11482,-66.6666666666667,4,2,1,69,0,0
11607,-66.6666666666667,4,2,1,5,0,0
11732,493.827160493827,4,2,1,69,1,0
11732,-66.6666666666667,4,2,1,69,0,0
11855,-66.6666666666667,4,2,1,5,0,0
11978,-66.6666666666667,4,2,1,69,0,0
12102,-66.6666666666667,4,2,1,5,0,0
12225,-66.6666666666667,4,2,1,69,0,0
12349,-66.6666666666667,4,2,1,5,0,0
12472,-66.6666666666667,4,2,1,69,0,0
12596,-66.6666666666667,4,2,1,5,0,0
12732,500,4,2,1,69,1,0
12732,-100,4,2,1,69,0,0
13357,-100,4,2,1,5,0,0
13482,-100,4,2,1,69,0,0
13607,-100,4,2,1,5,0,0
13732,-100,4,2,1,69,0,0
14843,-100,4,2,1,5,0,0
14982,-100,4,2,1,69,0,0
15107,-100,4,2,1,5,0,0
15232,-100,4,2,1,69,0,0
15357,-100,4,2,1,5,0,0
15482,-100,4,2,1,69,0,0
15607,-100,4,2,1,5,0,0
15732,-100,4,2,1,69,0,0
15857,-100,4,2,1,5,0,0
15982,-100,4,2,1,69,0,0
16107,-100,4,2,1,5,0,0
16232,-100,4,2,1,69,0,0
16482,-199.600798403194,4,2,1,69,0,0
16732,497.92531120332,4,2,1,69,1,0
17229,-66.6666666666667,4,2,1,69,0,0
17354,-66.6666666666667,4,2,1,5,0,0
17478,-66.6666666666667,4,2,1,69,0,0
17603,-66.6666666666667,4,2,1,5,0,0
17727,-66.6666666666667,4,2,1,69,0,0
17852,-66.6666666666667,4,2,1,5,0,0
17976,-66.6666666666667,4,2,1,69,0,0
18101,-66.6666666666667,4,2,1,5,0,0
18225,-66.6666666666667,4,2,1,69,0,0
18474,-200,4,2,1,69,0,0
19221,-66.6666666666667,4,2,1,69,0,0
19346,-66.6666666666667,4,2,1,5,0,0
19470,-66.6666666666667,4,2,1,69,0,0
19595,-66.6666666666667,4,2,1,5,0,0
19719,-66.6666666666667,4,2,1,69,0,0
19844,-66.6666666666667,4,2,1,5,0,0
19968,-66.6666666666667,4,2,1,69,0,0
20092,-66.6666666666667,4,2,1,5,0,0
20217,491.803278688525,4,2,1,69,1,0
20217,-66.6666666666667,4,2,1,69,0,0
20339,-66.6666666666667,4,2,1,5,0,0
20462,-66.6666666666667,4,2,1,69,0,0
20585,-66.6666666666667,4,2,1,5,0,0
20708,501.25313283208,4,2,1,69,1,0
20708,-100,4,2,1,69,0,0
21835,-100,4,2,1,5,0,0
21961,-100,4,2,1,69,0,0
22086,-100,4,2,1,5,0,0
22211,-100,4,2,1,69,0,0
22337,-100,4,2,1,5,0,0
22462,-100.502512562814,4,2,1,69,0,0
22713,505.050505050505,4,2,1,69,1,0
22839,-100,4,2,1,5,0,0
22965,-100,4,2,1,69,0,0
23723,496.894409937888,4,2,1,69,1,0
23847,-100,4,2,1,5,0,0
23971,-100,4,2,1,69,0,0
24095,-100,4,2,1,5,0,0
24219,-100,4,2,1,69,0,0
24344,-100,4,2,1,5,0,0
24468,-80,4,2,1,69,0,0
24592,-80,4,2,1,5,0,0
24716,498.338870431894,4,2,1,69,1,0
24716,-80,4,2,1,69,0,0
24840,-80,4,2,1,5,0,0
24965,-80,4,2,1,69,0,0
25089,-80,4,2,1,5,0,0
25214,-66.6666666666667,4,2,1,69,0,0
25338,-66.6666666666667,4,2,1,5,0,0
25463,-80,4,2,1,69,0,0
25588,-80,4,2,1,5,0,0
25712,-66.6666666666667,4,2,1,69,0,0
25837,-66.6666666666667,4,2,1,5,0,0
25961,-80,4,2,1,69,0,0
26086,-80,4,2,1,5,0,0
26211,-66.6666666666667,4,2,1,69,0,0
26335,-66.6666666666667,4,2,1,5,0,0
26460,-75.4716981132076,4,2,1,69,0,0
26721,491.803278688525,4,2,1,69,1,0
27458,-100,4,2,1,69,0,0
27581,-100,4,2,1,5,0,0
27704,-100,4,2,1,69,0,0
27827,-100,4,2,1,5,0,0
27950,-100,4,2,1,69,0,0
28073,-100,4,2,1,5,0,0
28196,478.08764940239,4,2,1,69,1,0
28196,-66.6666666666667,4,2,1,69,0,0
28315,-66.6666666666667,4,2,1,5,0,0
28435,-66.6666666666667,4,2,1,69,0,0
28554,-66.6666666666667,4,2,1,5,0,0
28674,495.867768595041,4,2,2,69,1,0
28674,-66.6666666666667,4,2,2,69,0,0
29417,-125,4,2,2,69,0,0
29665,504.201680672269,4,2,2,69,1,0
30673,494.845360824742,4,2,2,69,1,0
31415,-125,4,2,2,69,0,0
32652,502.828409805154,4,2,1,69,1,0
32652,-100,4,2,1,69,0,0
33029,-100,4,2,1,5,0,0
33154,-66.6666666666667,4,2,1,69,0,0
33531,-66.6666666666667,4,2,1,5,0,0
33657,-100,4,2,1,69,0,0
33783,-100,4,2,1,5,0,0
33909,-100,4,2,1,69,0,0
34034,-100,4,2,1,5,0,0
34160,-80,4,2,1,69,0,0
34650,495.867768595041,4,2,1,69,1,0
35889,491.803278688525,4,2,1,69,1,0
36626,497.512437810945,4,2,1,69,1,0
38616,500,4,2,1,69,1,0
40366,480,4,2,1,69,1,0
41326,494.845360824742,4,2,1,69,1,0
42068,497.512437810945,4,2,1,69,1,0
43187,-100,4,2,1,5,0,0
43301,-100,4,2,1,69,0,0
43424,-100,4,2,1,5,0,0
43560,-100,4,2,1,69,0,0
43684,-100,4,2,1,5,0,0
43809,-100,4,2,1,69,0,0
44058,-66.6666666666667,4,2,1,69,0,0
44431,-66.6666666666667,4,2,1,5,0,0
44555,-66.6666666666667,4,2,1,69,0,0
44679,-66.6666666666667,4,2,1,5,0,0
44804,-66.6666666666667,4,2,1,69,0,0
44928,-66.6666666666667,4,2,1,5,0,0
45053,-66.6666666666667,4,2,1,69,0,0
45177,-66.6666666666667,4,2,1,5,0,0
45301,-66.6666666666667,4,2,1,69,0,0
45426,-66.6666666666667,4,2,1,5,0,0
45550,-66.6666666666667,4,2,1,69,0,0
45799,-200.803212851406,4,2,1,69,0,0
46048,501.043841336117,4,2,1,69,1,0
46549,-66.6666666666667,4,2,1,69,0,0
46674,-66.6666666666667,4,2,1,5,0,0
46799,-66.6666666666667,4,2,1,69,0,0
46924,-66.6666666666667,4,2,1,5,0,0
47050,495.867768595041,4,2,1,69,1,0
47050,-66.6666666666667,4,2,1,69,0,0
47173,-66.6666666666667,4,2,1,5,0,0
47297,-66.6666666666667,4,2,1,69,0,0
47421,-66.6666666666667,4,2,1,5,0,0
47545,-66.6666666666667,4,2,1,69,0,0
47669,-66.6666666666667,4,2,1,5,0,0
47793,-66.6666666666667,4,2,1,69,0,0
47916,-66.6666666666667,4,2,1,5,0,0
48041,497.92531120332,4,2,1,69,1,0
48041,-100,4,2,1,69,0,0
48912,-100,4,2,1,5,0,0
49036,-100,4,2,1,69,0,0
49161,-100,4,2,1,5,0,0
49285,-100,4,2,1,69,0,0
49410,-100,4,2,1,5,0,0
49534,-100,4,2,1,69,0,0
49783,-100.200400801603,4,2,1,69,0,0
50032,504.201680672269,4,2,1,69,1,0
50158,-100,4,2,1,5,0,0
50284,-100,4,2,1,69,0,0
50410,-100,4,2,1,5,0,0
50536,-100,4,2,1,69,0,0
50662,-100,4,2,1,5,0,0
50788,-100,4,2,1,69,0,0
50914,-100,4,2,1,5,0,0
51040,-100,4,2,1,69,0,0
51166,-100,4,2,1,5,0,0
51292,-100,4,2,1,69,0,0
51418,-100,4,2,1,5,0,0
51544,-100,4,2,1,69,0,0
51670,-100,4,2,1,5,0,0
51796,-195.3125,4,2,1,69,0,0
52048,496.894409937888,4,2,1,69,1,0
52544,-66.6666666666667,4,2,1,69,0,0
52669,-66.6666666666667,4,2,1,5,0,0
52793,-66.6666666666667,4,2,1,69,0,0
52917,-66.6666666666667,4,2,1,5,0,0
53041,-66.6666666666667,4,2,1,69,0,0
53166,-66.6666666666667,4,2,1,5,0,0
53290,-66.6666666666667,4,2,1,69,0,0
53414,-66.6666666666667,4,2,1,5,0,0
53538,-66.6666666666667,4,2,1,69,0,0
53787,-200.803212851406,4,2,1,69,0,0
54035,500,4,2,1,69,1,0
54535,-66.6666666666667,4,2,1,69,0,0
54660,-66.6666666666667,4,2,1,5,0,0
54785,-66.6666666666667,4,2,1,69,0,0
54910,-66.6666666666667,4,2,1,5,0,0
55035,-66.6666666666667,4,2,1,69,0,0
55285,469.667318982387,4,2,1,69,1,0
55754,500,4,2,1,69,1,0
56004,493.421052631579,4,2,1,69,1,0
56004,-100,4,2,1,69,0,0
57114,-100,4,2,1,5,0,0
57237,-100,4,2,1,69,0,0
57360,-100,4,2,1,5,0,0
57484,-100,4,2,1,69,0,0
57607,-100,4,2,1,5,0,0
57730,-108.695652173913,4,2,1,69,0,0
58005,506.329113924051,4,2,1,69,1,0
58131,-100,4,2,1,5,0,0
58258,-100,4,2,1,69,0,0
58891,-100,4,2,1,5,0,0
59017,-100,4,2,1,69,0,0
59144,-100,4,2,1,5,0,0
59270,-100,4,2,1,69,0,0
59397,-100,4,2,1,5,0,0
59523,-100,4,2,1,69,0,0
59650,-100,4,2,1,5,0,0
59777,-80,4,2,1,69,0,0
59903,-80,4,2,1,5,0,0
60030,497.100248550124,4,2,1,69,1,0
60030,-80,4,2,1,69,0,0
60154,-80,4,2,1,5,0,0
60278,-80,4,2,1,69,0,0
60402,-80,4,2,1,5,0,0
60527,-66.6666666666667,4,2,1,69,0,0
60651,-66.6666666666667,4,2,1,5,0,0
60775,-80,4,2,1,69,0,0
60899,-80,4,2,1,5,0,0
61024,-66.6666666666667,4,2,1,69,0,0
61148,-66.6666666666667,4,2,1,5,0,0
61272,-80,4,2,1,69,0,0
61397,-80,4,2,1,5,0,0
61521,-66.6666666666667,4,2,1,69,0,0
61645,-66.6666666666667,4,2,1,5,0,0
61769,-74.0740740740741,4,2,1,69,0,0
62018,499.168053244592,4,2,1,69,1,0
62766,-100,4,2,1,69,0,0
62891,-100,4,2,1,5,0,0
63016,-100,4,2,1,69,0,0
63141,-100,4,2,1,5,0,0
63265,-100,4,2,1,69,0,0
63390,-100,4,2,1,5,0,0
63515,491.803278688525,4,2,1,69,1,0
63515,-66.6666666666667,4,2,1,69,0,0
63637,-66.6666666666667,4,2,1,5,0,0
63760,-66.6666666666667,4,2,1,69,0,0
63883,-66.6666666666667,4,2,1,5,0,0
64006,502.092050209205,4,2,2,69,1,0
64006,-66.6666666666667,4,2,2,69,0,0
66014,496.483243690525,4,2,2,69,1,0
67006,500,4,2,2,69,1,0
68006,500.625782227785,4,2,1,69,1,0
68006,-80,4,2,1,69,0,0
68381,-80,4,2,1,5,0,0
68506,-66.6666666666667,4,2,1,69,0,0
68882,-66.6666666666667,4,2,1,5,0,0
69007,-100,4,2,1,69,0,0
69132,-100,4,2,1,5,0,0
69257,-100,4,2,1,69,0,0
69382,-100,4,2,1,5,0,0
69507,-100,4,2,1,69,0,0
69633,-100,4,2,1,5,0,0
69758,-100,4,2,1,69,0,0
69883,-100,4,2,1,5,0,0
69990,489.396411092985,4,2,1,69,1,0
71947,497.92531120332,4,2,1,69,1,0
74312,-100,4,2,1,5,0,0
74436,-100,4,2,1,69,0,0
75059,-100,4,2,1,5,0,0
75183,456.273764258555,4,2,1,69,1,0
75183,-100,4,2,1,69,0,0
75639,483.870967741935,4,2,1,69,1,0
75880,502.092050209205,4,2,1,69,1,0
75880,-66.6666666666667,4,2,1,69,0,0
76633,434.782608695652,4,2,1,69,1,0
76633,-66.6666666666667,4,2,1,69,0,0
76947,-66.6666666666667,4,2,1,5,0,0
77067,480,4,2,1,69,1,0
77547,500,4,2,1,69,1,0
77797,493.827160493827,4,2,1,69,1,0
77797,-66.6666666666667,4,2,1,69,0,0
78537,447.761194029851,4,2,1,69,1,0
78537,-66.6666666666667,4,2,1,69,0,0
78872,-66.6666666666667,4,2,1,5,0,0
78984,463.320463320463,4,2,1,69,1,0
79447,474.308300395257,4,2,1,69,1,0
79684,494.335736354274,4,2,1,69,1,0
82032,-100,4,2,1,5,0,0
82155,-100,4,2,1,69,0,0
82897,456.273764258555,4,2,1,69,1,0
83353,511.727078891258,4,2,1,69,1,0
83608,502.092050209205,4,2,1,69,1,0
83608,-66.6666666666667,4,2,1,69,0,0
84361,425.531914893617,4,2,1,69,1,0
84361,-66.6666666666667,4,2,1,69,0,0
84680,-66.6666666666667,4,2,1,5,0,0
84786,466.926070038911,4,2,1,69,1,0
85252,497.92531120332,4,2,1,69,1,0
85500,495.867768595041,4,2,1,69,1,0
85500,-66.6666666666667,4,2,1,69,0,0
86243,419.58041958042,4,2,1,69,1,0
86243,-66.6666666666667,4,2,1,69,0,0
86557,-66.6666666666667,4,2,1,5,0,0
86662,489.795918367347,4,2,1,69,1,0
87151,508.474576271186,4,2,1,69,1,0
87405,495.867768595041,4,2,1,69,1,0
89388,493.015612161052,4,2,1,69,1,0
90374,469.483568075117,4,2,1,69,1,0
90491,-100,4,2,1,5,0,0
90608,-100,4,2,1,69,0,0
91312,496.585971446307,4,2,1,69,1,0
91808,498.960498960499,4,2,1,69,1,0
91808,-80,4,2,1,69,0,0
91932,-80,4,2,1,5,0,0
92057,-80,4,2,1,69,0,0
92182,-80,4,2,1,5,0,0
92306,-80,4,2,1,69,0,0
92431,-80,4,2,1,5,0,0
92556,-80,4,2,1,69,0,0
92681,-80,4,2,1,5,0,0
92805,-80,4,2,1,69,0,0
92930,-80,4,2,1,5,0,0
93055,-80,4,2,1,69,0,0
93180,-80,4,2,1,5,0,0
93304,484.848484848485,4,2,1,69,1,0
93304,-100,4,2,1,69,0,0
93425,-100,4,2,1,5,0,0
93546,-80,4,2,1,69,0,0
94031,-80,4,2,1,69,0,0
94516,463.320463320463,4,2,1,69,1,0
94516,-80,4,2,1,69,0,0
95210,497.512437810945,4,2,1,69,1,0
97200,499.583680266445,4,2,1,69,1,0
97324,-100,4,2,1,5,0,0
97449,-100,4,2,1,69,0,0
97574,-100,4,2,1,5,0,0
97699,-100,4,2,1,69,0,0
98448,505.263157894737,4,2,1,69,1,0
99205,501.672240802676,4,2,1,69,1,0
99706,-80,4,2,1,69,0,0
99832,-80,4,2,1,5,0,0
99957,-80,4,2,1,69,0,0
100082,-80,4,2,1,5,0,0
100208,-80,4,2,1,69,0,0
100333,-80,4,2,1,5,0,0
100459,-80,4,2,1,69,0,0
100584,-80,4,2,1,5,0,0
100710,-80,4,2,1,69,0,0
100835,-80,4,2,1,5,0,0
100960,-80,4,2,1,69,0,0
101086,-80,4,2,1,5,0,0
101211,488.599348534202,4,2,1,69,1,0
101455,-80,4,2,1,69,0,0
101577,-80,4,2,1,5,0,0
101943,-80,4,2,1,69,0,0
102066,-80,4,2,1,5,0,0
102188,-80,4,2,1,69,0,0
102310,-80,4,2,1,5,0,0
102432,-80,4,2,1,69,0,0
102554,-80,4,2,1,5,0,0
102676,-80,4,2,1,69,0,0
102798,-80,4,2,1,5,0,0
102921,-80,4,2,1,69,0,0
103043,-80,4,2,1,5,0,0
103165,501.462599247806,4,2,1,69,1,0
104042,-100,4,2,1,5,0,0
104167,-100,4,2,1,69,0,0
104293,-100,4,2,1,5,0,0
104418,-100,4,2,1,69,0,0
104544,-100,4,2,1,5,0,0
104669,-100,4,2,1,69,0,0
104794,-100,4,2,1,5,0,0
104920,-100,4,2,1,69,0,0
106173,495.867768595041,4,2,1,69,1,0
106296,-100,4,2,1,5,0,0
106420,-100,4,2,1,69,0,0
106544,-100,4,2,1,5,0,0
106668,-100,4,2,1,69,0,0
106792,-100,4,2,1,5,0,0
106916,-100,4,2,1,69,0,0
107164,508.474576271186,4,2,1,69,1,0
107672,492.813141683778,4,2,1,69,1,0
107672,-80,4,2,1,69,0,0
107795,-80,4,2,1,5,0,0
107918,-80,4,2,1,69,0,0
108041,-80,4,2,1,5,0,0
108164,-80,4,2,1,69,0,0
108288,-80,4,2,1,5,0,0
108411,-80,4,2,1,69,0,0
108534,-80,4,2,1,5,0,0
108657,-80,4,2,1,69,0,0
108780,-80,4,2,1,5,0,0
108904,-80,4,2,1,69,0,0
109027,-80,4,2,1,5,0,0
109150,487.80487804878,4,2,1,69,1,0
109393,-80,4,2,1,69,0,0
109515,-80,4,2,1,5,0,0
109637,-80,4,2,1,69,0,0
109759,-80,4,2,1,5,0,0
109881,-80,4,2,1,69,0,0
110003,-80,4,2,1,5,0,0
110125,-80,4,2,1,69,0,0
110247,-80,4,2,1,5,0,0
110369,-80,4,2,1,69,0,0
111101,497.92531120332,4,2,2,69,1,0
112096,491.803278688525,4,2,2,69,1,0
113079,502.092050209205,4,2,2,69,1,0
114083,494.845360824742,4,2,2,69,1,0
115072,498.960498960499,4,2,1,69,1,0
115072,-100,4,2,1,69,0,0
115446,-100,4,2,1,5,0,0
115570,-66.6666666666667,4,2,1,69,0,0
115945,-66.6666666666667,4,2,1,5,0,0
116069,-100,4,2,1,69,0,0
116194,-100,4,2,1,5,0,0
116319,-100,4,2,1,69,0,0
116444,-100,4,2,1,5,0,0
116568,-80,4,2,1,69,0,0
117057,483.870967741935,4,2,1,69,1,0
118308,528.63436123348,4,2,1,69,1,0
118796,508.474576271186,4,2,1,69,1,0
119050,502.092050209205,4,2,1,69,1,0
122188,-100,4,2,1,5,0,0
122306,459.770114942529,4,2,1,69,1,0
122765,470.588235294118,4,2,1,69,1,0
123000,505.689001264223,4,2,1,69,1,0
123000,-66.6666666666667,4,2,1,69,0,0
123758,447.761194029851,4,2,1,69,1,0
123758,-66.6666666666667,4,2,1,69,0,0
124093,-66.6666666666667,4,2,1,5,0,0
124205,451.127819548872,4,2,1,69,1,0
124656,500,4,2,1,69,1,0
124906,506.756756756757,4,2,1,69,1,0
124906,-66.6666666666667,4,2,1,69,0,0
125666,465.116279069767,4,2,1,69,1,0
125666,-66.6666666666667,4,2,1,69,0,0
126014,-66.6666666666667,4,2,1,5,0,0
126131,459.770114942529,4,2,1,69,1,0
126590,491.803278688525,4,2,1,69,1,0
126835,490.79754601227,4,2,1,69,1,0
128798,495.867768595041,4,2,1,69,1,0
129913,-100,4,2,1,5,0,0
130037,472.813238770686,4,2,1,69,1,0
130746,504.201680672269,4,2,1,69,1,0
130746,-66.6666666666667,4,2,1,69,0,0
131502,440.852314474651,4,2,1,69,1,0
131502,-66.6666666666667,4,2,1,69,0,0
131832,-66.6666666666667,4,2,1,5,0,0
131942,464.037122969838,4,2,1,69,1,0
132406,502.092050209205,4,2,1,69,1,0
132657,505.902192242833,4,2,1,69,1,0
132657,-66.6666666666667,4,2,1,69,0,0
133290,-100,4,2,1,69,0,0
133415,500,4,2,1,69,1,0
133415,-66.6666666666667,4,2,1,69,0,0
133790,-66.6666666666667,4,2,1,5,0,0
133915,507.399577167019,4,2,1,69,1,0
134676,502.092050209205,4,2,1,69,1,0
137186,499.168053244592,4,2,1,69,1,0
137809,-100,4,2,1,5,0,0
137934,-100,4,2,1,69,0,0
138059,-100,4,2,1,5,0,0
138184,-100,4,2,1,69,0,0
138309,-100,4,2,1,5,0,0
138433,-100,4,2,1,69,0,0
138558,-100,4,2,1,5,0,0
138683,495.867768595041,4,2,1,69,1,0
138683,-66.6666666666667,4,2,1,69,0,0
139054,-66.6666666666667,4,2,1,5,0,0
139178,-66.6666666666667,4,2,1,69,0,0
139302,-66.6666666666667,4,2,1,5,0,0
139426,-66.6666666666667,4,2,1,69,0,0
139550,-66.6666666666667,4,2,1,5,0,0
139674,-66.6666666666667,4,2,1,69,0,0
139798,-66.6666666666667,4,2,1,5,0,0
139922,-66.6666666666667,4,2,1,69,0,0
140046,-66.6666666666667,4,2,1,5,0,0
140170,-66.6666666666667,4,2,1,69,0,0
140418,-202.020202020202,4,2,1,69,0,0
140671,495.867768595041,4,2,1,69,1,0
141166,-66.6666666666667,4,2,1,69,0,0
141290,-66.6666666666667,4,2,1,5,0,0
141414,-66.6666666666667,4,2,1,69,0,0
141538,-66.6666666666667,4,2,1,5,0,0
141662,-66.6666666666667,4,2,1,69,0,0
141786,-66.6666666666667,4,2,1,5,0,0
141910,-66.6666666666667,4,2,1,69,0,0
142034,-66.6666666666667,4,2,1,5,0,0
142158,-66.6666666666667,4,2,1,69,0,0
142282,-66.6666666666667,4,2,1,5,0,0
142406,-66.6666666666667,4,2,1,69,0,0
142530,-66.6666666666667,4,2,1,5,0,0
142654,500.417014178482,4,2,1,69,1,0
143279,-100,4,2,1,5,0,0
143404,-100,4,2,1,69,0,0
143529,-100,4,2,1,5,0,0
143654,-100,4,2,1,69,0,0
144780,-100,4,2,1,5,0,0
144905,-100,4,2,1,69,0,0
145030,-100,4,2,1,5,0,0
145156,-100,4,2,1,69,0,0
145281,-100,4,2,1,5,0,0
145406,-100,4,2,1,69,0,0
145531,-100,4,2,1,5,0,0
145656,-100,4,2,1,69,0,0
145781,-100,4,2,1,5,0,0
145906,-100,4,2,1,69,0,0
146031,-100,4,2,1,5,0,0
146156,-100,4,2,1,69,0,0
146407,-199.203187250996,4,2,1,69,0,0
146657,495.867768595041,4,2,1,69,1,0
147152,-66.6666666666667,4,2,1,69,0,0
147276,-66.6666666666667,4,2,1,5,0,0
147400,-66.6666666666667,4,2,1,69,0,0
147524,-66.6666666666667,4,2,1,5,0,0
147648,-66.6666666666667,4,2,1,69,0,0
147772,-66.6666666666667,4,2,1,5,0,0
147896,-66.6666666666667,4,2,1,69,0,0
148020,-66.6666666666667,4,2,1,5,0,0
148144,-66.6666666666667,4,2,1,69,0,0
148392,-200,4,2,1,69,0,0
149136,-66.6666666666667,4,2,1,69,0,0
149260,-66.6666666666667,4,2,1,5,0,0
149384,-66.6666666666667,4,2,1,69,0,0
149508,-66.6666666666667,4,2,1,5,0,0
149632,-66.6666666666667,4,2,1,69,0,0
149756,-66.6666666666667,4,2,1,5,0,0
149880,-66.6666666666667,4,2,1,69,0,0
150004,-66.6666666666667,4,2,1,5,0,0
150128,-66.6666666666667,4,2,1,69,0,0
150252,-66.6666666666667,4,2,1,5,0,0
150376,-66.6666666666667,4,2,1,69,0,0
150499,-66.6666666666667,4,2,1,5,0,0
150623,497.100248550124,4,2,1,69,1,0
151741,-100,4,2,1,5,0,0
151865,-100,4,2,1,69,0,0
151990,-100,4,2,1,5,0,0
152114,-100,4,2,1,69,0,0
152238,-100,4,2,1,5,0,0
152362,-102.880658436214,4,2,1,69,0,0
152621,504.201680672269,4,2,1,69,1,0
152747,-100,4,2,1,5,0,0
152873,-100,4,2,1,69,0,0
153755,-100,4,2,1,5,0,0
153881,-100,4,2,1,69,0,0
154007,-100,4,2,1,5,0,0
154133,-100,4,2,1,69,0,0
154259,-100,4,2,1,5,0,0
154385,-80,4,2,1,69,0,0
154511,-80,4,2,1,5,0,0
154637,498.649490961978,4,2,1,69,1,0
154637,-80,4,2,1,69,0,0
154761,-80,4,2,1,5,0,0
154886,-80,4,2,1,69,0,0
155010,-80,4,2,1,5,0,0
155135,-66.6666666666667,4,2,1,69,0,0
155260,-66.6666666666667,4,2,1,5,0,0
155384,-80,4,2,1,69,0,0
155509,-80,4,2,1,5,0,0
155634,-66.6666666666667,4,2,1,69,0,0
155758,-66.6666666666667,4,2,1,5,0,0
155883,-80,4,2,1,69,0,0
156008,-80,4,2,1,5,0,0
156132,-66.6666666666667,4,2,1,69,0,0
156257,-66.6666666666667,4,2,1,5,0,0
156382,-74.0740740740741,4,2,1,69,0,0
157379,472.44094488189,4,2,1,69,1,0
157379,-100,4,2,1,69,0,0
157497,-100,4,2,1,5,0,0
157615,-80,4,2,1,69,0,0
157733,-80,4,2,1,5,0,0
157851,-80,4,2,1,69,0,0
158560,496.894409937888,4,2,2,69,1,0
162535,498.753117206983,4,2,1,69,1,0
162909,-100,4,2,1,5,0,0
163033,-66.6666666666667,4,2,1,69,0,0
163407,-66.6666666666667,4,2,1,5,0,0
163532,-100,4,2,1,69,0,0
163657,-100,4,2,1,5,0,0
163781,-100,4,2,1,69,0,0
163906,-100,4,2,1,5,0,0
164031,-100,4,2,1,69,0,0
164155,-100,4,2,1,5,0,0
164280,-100,4,2,1,69,0,0
164405,-100,4,2,1,5,0,0
164510,480,4,2,1,69,1,0
165731,491.803278688525,4,2,1,69,1,0
166222,517.241379310345,4,2,1,69,1,0
166480,492.408699220353,4,2,2,69,1,0
168449,496.894409937888,4,2,2,69,1,0
170436,-100,4,2,1,69,0,0
170809,-100,4,2,1,5,0,0
170933,-66.6666666666667,4,2,1,69,0,0
171306,-66.6666666666667,4,2,1,5,0,0
171430,-100,4,2,1,69,0,0
171554,-100,4,2,1,5,0,0
171678,-100,4,2,1,69,0,0
171803,-100,4,2,1,5,0,0
171927,-100,4,2,1,69,0,0
172410,489.795918367347,4,2,1,69,1,0

[Colours]
Combo1 : 128,128,255
Combo2 : 234,255,0
Combo3 : 255,50,0
Combo4 : 127,255,0

[HitObjects]
256,192,5192,12,2,6557,2:0:0:0:
115,103,6784,6,0,P|178:90|243:90,1,130,2|0,3:2|2:0,2:0:0:0:
411,118,7278,1,10,2:0:0:0:
411,118,7401,1,0,2:0:0:0:
411,118,7525,1,0,2:0:0:0:
171,196,7772,6,0,L|243:186,1,65,2|0,3:2|2:0,2:0:0:0:
329,85,8019,2,0,L|301:152,1,65,2|0,2:0|2:0,2:0:0:0:
346,277,8266,2,0,L|301:219,1,65,10|0,2:0|2:0,2:0:0:0:
281,190,8513,1,2,2:0:0:0:
473,51,8760,6,0,B|476:72|476:72|473:71|473:71|476:90|476:90|473:88|473:88|476:110|476:110|473:109|473:109|475:129|475:129|472:127|472:127|474:149|474:149|473:148|473:148|475:173|475:173|473:172|473:172|475:197|475:197|473:196|473:196|474:220|474:220|472:219|472:219|473:240|473:240|471:239|471:239|472:260|473:260|473:260|470:259|470:259|471:277|471:277|469:276|469:276|470:298,1,292.5,2|0,3:1|2:0,2:0:0:0:
372,376,9255,6,0,P|350:356|340:290,1,97.5,10|0,2:0|2:0,2:0:0:0:
447,326,9502,2,0,P|418:364|372:376,1,97.5,2|0,2:0|2:0,2:0:0:0:
247,281,9749,6,0,P|217:277|170:230,1,97.5,2|0,3:2|2:0,2:0:0:0:
280,197,9996,2,0,P|278:244|247:281,1,97.5,2|0,3:2|2:0,2:0:0:0:
127,352,10243,1,10,2:0:0:0:
70,33,10490,6,0,P|26:78|16:142,1,130,4|0,2:1|2:0,2:0:0:0:
167,79,11232,6,0,P|189:99|199:165,1,97.5,10|0,2:0|2:0,2:0:0:0:
91,128,11482,2,0,P|120:90|166:78,1,97.5,2|0,2:0|2:0,2:0:0:0:
302,151,11732,6,0,P|331:154|378:201,1,97.5,2|0,3:2|2:0,2:0:0:0:
271,236,11978,2,0,P|272:188|303:151,1,97.5,2|0,3:2|2:0,2:0:0:0:
452,22,12225,6,0,L|460:132,1,97.5,8|0,2:0|2:0,2:0:0:0:
466,216,12472,2,0,L|458:118,1,97.5,8|0,2:0|2:0,2:0:0:0:
271,236,12732,6,0,P|215:252|143:223,1,130,0|0,3:0|2:0,2:0:0:0:
139,42,13232,2,0,P|163:62|173:102,1,65,8|0,2:0|2:0,2:0:0:0:
253,116,13482,2,0,P|241:145|206:166,1,65,2|0,2:0|2:0,2:0:0:0:
149,228,13732,5,2,3:2:0:0:
139,42,13982,1,2,3:2:0:0:
329,36,14232,1,10,2:0:0:0:
346,219,14482,6,0,P|350:169|472:110,1,195,2|0,2:0|2:0,2:0:0:0:
466,108,14982,2,0,P|469:140|484:169,1,65,2|0,2:0|2:0,2:0:0:0:
414,222,15232,2,0,P|435:246|464:260,1,65,10|0,2:0|2:0,2:0:0:0:
395,59,15482,6,0,L|340:106,1,65,2|0,2:0|2:0,2:0:0:0:
322,238,15732,2,0,L|307:166,1,65,2|0,3:2|2:0,2:0:0:0:
204,86,15982,2,0,L|271:109,1,65,2|0,3:2|2:0,2:0:0:0:
136,199,16232,1,10,2:0:0:0:
136,199,16357,1,0,2:0:0:0:
136,199,16482,6,0,P|77:192|12:153,1,130,6|0,2:0|2:0,2:0:0:0:
117,279,17229,6,0,P|167:295|191:333,1,97.5,10|0,2:0|2:0,2:0:0:0:
281,333,17478,2,0,P|230:317|189:333,1,97.5,2|0,2:0|2:0,2:0:0:0:
51,229,17727,6,0,P|94:198|138:200,1,97.5,2|0,3:2|2:0,2:0:0:0:
190,127,17976,2,0,P|147:158|136:201,1,97.5,2|0,3:2|2:0,2:0:0:0:
279,328,18225,1,10,3:2:0:0:
279,328,18350,1,2,3:2:0:0:
279,328,18474,6,0,P|335:312|409:317,1,130,4|0,2:1|2:0,2:0:0:0:
512,249,19221,6,0,P|461:233|420:249,1,97.5,10|0,2:0|2:0,2:0:0:0:
348,195,19470,2,0,P|398:211|422:249,1,97.5,2|0,2:0|2:0,2:0:0:0:
185,322,19719,6,0,P|235:305|259:267,1,97.5,2|0,3:2|2:0,2:0:0:0:
349,269,19968,2,0,P|298:284|257:268,1,97.5,2|0,3:2|2:0,2:0:0:0:
206,52,20217,6,0,L|192:164,1,97.5,8|0,2:0|2:0,2:0:0:0:
181,245,20462,2,0,L|193:148,1,97.5,8|0,2:0|2:0,2:0:0:0:
318,22,20708,6,0,P|387:7|490:147,1,260,0|8,3:0|2:0,2:0:0:0:
491,139,21334,1,0,2:0:0:0:
491,139,21459,1,2,2:0:0:0:
316,367,21710,6,0,P|296:337|302:288,1,65,2|0,3:2|2:0,2:0:0:0:
279,184,21961,2,0,P|314:181|354:211,1,65,2|0,3:2|2:0,2:0:0:0:
455,243,22211,2,0,P|439:275|393:294,1,65,10|0,2:0|2:0,2:0:0:0:
279,184,22462,6,0,P|205:149|81:225,1,194.517613333333,2|0,2:0|2:0,2:0:0:0:
104,187,22965,1,2,2:0:0:0:
16,373,23218,1,10,2:0:0:0:
16,373,23344,1,0,2:0:0:0:
16,373,23470,1,2,2:0:0:0:
189,330,23723,6,0,L|247:360,1,65,2|0,3:2|2:0,2:0:0:0:
123,230,23971,2,0,L|120:166,1,65,2|0,3:2|2:0,2:0:0:0:
70,337,24219,2,0,L|16:373,1,65,8|0,2:0|2:0,2:0:0:0:
206,245,24468,6,0,P|243:237|289:245,1,81.25,2|0,2:1|2:0,2:0:0:0:
383,298,24716,2,0,P|422:304|462:296,1,81.25,2|0,3:2|2:0,2:0:0:0:
461,81,24965,6,0,L|380:72,1,81.25,2|0,2:0|2:0,2:0:0:0:
299,13,25214,2,0,P|274:56|283:104,1,97.5,8|0,2:0|2:0,2:0:0:0:
324,218,25463,6,0,L|404:209,1,81.25,2|0,2:0|2:0,2:0:0:0:
486,151,25712,2,0,P|510:194|502:242,1,97.5,8|0,3:2|2:0,2:0:0:0:
461,356,25961,6,0,L|380:347,1,81.25,2|0,3:2|2:0,2:0:0:0:
299,289,26211,2,0,P|274:332|283:380,1,97.5,8|0,2:0|2:0,2:0:0:0:
404,209,26460,6,0,B|444:176|512:197|511:299|458:316|319:315|270:233,1,351,4|0,3:1|2:0,2:0:0:0:
145,22,27212,1,8,2:0:0:0:
343,132,27458,6,0,P|306:123|276:128,1,65,2|0,2:0|2:0,2:0:0:0:
207,77,27704,2,0,P|231:56|262:45,1,65,2|0,3:2|2:0,2:0:0:0:
145,22,27950,2,0,P|125:54|120:84,1,65,2|0,3:2|2:0,2:0:0:0:
43,234,28196,6,0,L|39:127,1,97.5,10|0,2:0|2:0,2:0:0:0:
37,40,28435,2,0,L|40:137,1,97.5,10|0,2:0|2:0,2:0:0:0:
127,345,28674,5,6,3:1:0:0:
168,176,28921,1,0,2:0:0:0:
135,363,29169,5,10,2:1:0:0:
151,162,29417,2,0,L|137:108,1,52,0|0,2:0|2:0,2:0:0:0:
217,309,29665,5,2,3:1:0:0:
258,140,29917,1,0,3:0:0:0:
225,327,30169,5,10,2:1:0:0:
240,122,30421,1,0,2:0:0:0:
308,291,30673,5,2,3:1:0:0:
349,122,30920,1,0,2:0:0:0:
316,309,31167,5,10,2:1:0:0:
332,108,31415,2,0,L|318:54,1,52,0|0,2:0|2:0,2:0:0:0:
398,255,31662,5,2,3:1:0:0:
439,86,31910,1,0,3:0:0:0:
406,273,32157,5,10,2:1:0:0:
421,68,32404,1,0,2:0:0:0:
304,236,32652,6,0,P|385:247|397:151,1,195,6|0,3:2|2:0,2:0:0:0:
323,99,33154,2,0,B|326:120|326:120|323:119|323:119|326:138|326:138|323:136|323:136|326:158|326:158|323:157|323:157|325:177|325:177|322:175|322:175|324:197|324:197|323:196|323:196|325:221|325:221|323:220|323:220|325:245|325:245|323:244|323:244|324:268|324:268|322:267|322:267|323:288|323:288|321:287|321:287|322:308|323:308|323:308|320:307|320:307|321:325|321:325|319:324|319:324|320:346,1,292.5,4|0,2:1|2:0,2:0:0:0:
320,347,33657,6,0,L|410:356,1,65,2|0,3:2|2:0,2:0:0:0:
179,332,33909,2,0,L|269:341,1,65,2|0,3:2|2:0,2:0:0:0:
304,236,34160,6,0,L|116:259,1,162.5,8|0,2:0|2:0,2:0:0:0:
156,69,34650,5,8,2:0:0:0:
296,53,34897,1,8,2:0:0:0:
327,290,35145,1,8,2:0:0:0:
22,329,35393,1,8,2:0:0:0:
22,329,35889,5,8,3:2:0:0:
22,329,36011,1,0,3:0:0:0:
263,367,36380,1,8,3:2:0:0:
263,367,36503,1,0,3:0:0:0:
330,337,36626,5,4,2:0:0:0:
330,337,40366,5,4,2:0:0:0:
256,192,40486,12,2,41820,2:0:0:0:
371,27,42068,6,0,P|360:86|363:162,1,130,2|0,3:2|2:0,2:0:0:0:
408,305,42565,1,10,2:0:0:0:
408,305,42689,1,0,2:0:0:0:
408,305,42814,1,0,2:0:0:0:
198,318,43063,6,0,B|224:340|224:340|232:303,1,65,2|0,3:2|2:0,2:0:0:0:
251,192,43311,2,0,B|257:158|257:158|221:170,1,65,2|0,2:0|2:0,2:0:0:0:
115,209,43560,2,0,B|82:220|82:220|110:245,1,65,10|0,2:0|2:0,2:0:0:0:
190,240,43809,1,2,2:0:0:0:
390,48,44058,6,0,B|369:39|340:43|340:43|335:41|335:41|306:52|282:42|282:42|278:45|278:45|253:33|219:41|219:41|214:38|214:38|186:53|152:41|152:41|150:43|150:43|127:34|100:41|100:41,1,292.5,2|0,3:1|2:0,2:0:0:0:
48,152,44555,6,0,P|28:196|36:249,1,97.5,10|0,2:0|2:0,2:0:0:0:
139,166,44804,2,0,P|95:146|42:154,1,97.5,2|0,2:0|2:0,2:0:0:0:
262,183,45053,6,0,P|301:211|320:261,1,97.5,2|0,3:2|2:0,2:0:0:0:
190,240,45301,2,0,P|218:200|268:181,1,97.5,2|0,3:2|2:0,2:0:0:0:
472,208,45550,1,10,2:0:0:0:
307,19,45799,6,0,P|246:0|181:7,1,130,4|0,2:1|2:0,2:0:0:0:
182,7,46549,6,0,B|176:28|161:42|161:42|181:63|178:114,1,97.5,10|0,2:0|2:0,2:0:0:0:
99,176,46799,2,0,B|105:159|120:141|120:141|100:120|103:69,1,97.5,2|0,2:0|2:0,2:0:0:0:
284,110,47050,6,0,B|290:130|305:145|305:145|285:166|288:217,1,97.5,2|0,3:2|2:0,2:0:0:0:
367,279,47297,2,0,B|361:262|346:244|346:244|366:223|363:172,1,97.5,0|0,3:2|2:0,2:0:0:0:
193,301,47545,6,0,L|92:313,1,97.5,8|0,2:0|2:0,2:0:0:0:
0,325,47793,2,0,L|96:313,1,97.5,8|0,2:0|2:0,2:0:0:0:
343,353,48041,6,0,P|417:342|442:294,1,130,0|0,3:2|2:0,2:0:0:0:
461,129,48538,1,10,2:0:0:0:
461,129,48663,1,0,2:0:0:0:
461,129,48787,6,0,P|423:106|380:104,1,65,2|0,2:0|2:0,2:0:0:0:
353,12,49036,2,0,P|319:41|304:81,1,65,2|0,3:2|2:0,2:0:0:0:
208,78,49285,2,0,P|225:118|258:145,1,65,2|0,3:2|2:0,2:0:0:0:
384,268,49534,1,10,2:0:0:0:
353,12,49783,2,0,L|155:2,1,195,2|0,2:0|2:0,2:0:0:0:
158,2,50284,6,0,P|124:30|109:71,1,65,2|0,2:0|2:0,2:0:0:0:
26,60,50536,2,0,P|43:100|76:127,1,65,10|0,2:0|2:0,2:0:0:0:
280,62,50788,6,0,P|290:105|278:146,1,65,2|0,2:0|2:0,2:0:0:0:
365,208,51040,2,0,P|326:231|284:232,1,65,2|0,3:2|2:0,2:0:0:0:
38,210,51292,6,0,P|55:250|88:277,1,65,2|0,3:2|2:0,2:0:0:0:
73,382,51544,2,0,P|117:378|153:354,1,65,10|0,2:0|2:0,2:0:0:0:
303,379,51796,6,0,P|352:374|427:335,1,132.083334031715,4|0,2:0|2:0,2:0:0:0:
424,336,52544,6,0,P|436:285|426:238,1,97.5,10|0,2:0|2:0,2:0:0:0:
512,275,52793,2,0,P|500:224|509:177,1,97.5,2|0,2:0|2:0,2:0:0:0:
261,232,53041,6,0,P|273:181|263:134,1,97.5,2|0,3:2|2:0,2:0:0:0:
353,288,53290,2,0,P|341:237|350:190,1,97.5,2|0,3:2|2:0,2:0:0:0:
456,92,53538,1,8,2:0:0:0:
133,217,53787,6,0,P|196:233|261:232,1,130,4|0,2:0|2:0,2:0:0:0:
260,232,54535,6,0,P|272:181|262:134,1,97.5,10|0,2:0|2:0,2:0:0:0:
348,171,54785,2,0,P|336:120|345:73,1,97.5,2|0,2:0|2:0,2:0:0:0:
507,180,55035,1,2,3:1:0:0:
219,40,55285,5,2,3:2:0:0:
175,24,55402,1,2,3:2:0:0:
128,19,55519,1,10,3:2:0:0:
81,33,55637,1,2,3:2:0:0:
46,69,55754,1,2,3:2:0:0:
1,255,56004,6,0,L|267:231,1,260,0|8,3:0|2:0,2:0:0:0:
508,204,56744,1,0,2:0:0:0:
293,45,56990,2,0,P|311:68|319:104,1,65,2|0,3:2|2:0,2:0:0:0:
438,93,57237,2,0,P|420:116|412:152,1,65,2|0,3:2|2:0,2:0:0:0:
196,127,57484,2,0,P|224:135|251:159,1,65,10|0,2:0|2:0,2:0:0:0:
492,185,57730,6,0,P|419:191|377:300,1,195,2|0,2:0|2:0,2:0:0:0:
374,292,58258,1,2,2:0:0:0:
254,51,58511,1,10,2:0:0:0:
254,51,58637,1,0,2:0:0:0:
254,51,58764,6,0,P|285:61|314:83,1,65,2|0,2:0|2:0,2:0:0:0:
165,195,59017,2,0,P|158:163|162:127,1,65,2|0,3:2|2:0,2:0:0:0:
334,201,59270,2,0,P|309:222|276:236,1,65,2|0,3:2|2:0,2:0:0:0:
254,51,59523,2,0,P|285:61|314:83,1,65,8|0,2:0|2:0,2:0:0:0:
495,200,59777,6,0,P|444:211|414:201,1,81.25,2|0,2:1|2:0,2:0:0:0:
285,147,60030,2,0,P|246:135|207:144,1,81.25,0|0,3:0|2:0,2:0:0:0:
41,73,60278,6,0,L|48:164,1,81.25,2|0,2:0|2:0,2:0:0:0:
6,232,60527,2,0,P|54:243|100:223,1,97.5,8|0,2:0|2:0,2:0:0:0:
294,86,60775,6,0,L|203:93,1,81.25,2|0,2:0|2:0,2:0:0:0:
131,53,61024,2,0,P|120:101|140:147,1,97.5,8|0,3:2|2:0,2:0:0:0:
269,339,61272,6,0,L|262:248,1,81.25,2|0,3:2|2:0,2:0:0:0:
302,176,61521,2,0,P|254:165|208:185,1,97.5,8|0,2:0|2:0,2:0:0:0:
67,253,61769,6,0,P|39:157|168:231,1,351,4|0,3:1|2:0,2:0:0:0:
133,384,62517,1,8,2:0:0:0:
251,290,62766,2,0,L|336:285,1,65,2|0,2:0|2:0,2:0:0:0:
349,208,63016,2,0,L|284:211,1,65,2|0,3:2|2:0,2:0:0:0:
246,138,63265,2,0,L|331:133,1,65,2|0,3:2|2:0,2:0:0:0:
493,25,63515,6,0,L|497:132,1,97.5,8|0,2:0|2:0,2:0:0:0:
499,219,63760,2,0,L|496:122,1,97.5,8|0,2:0|2:0,2:0:0:0:
422,33,64006,5,6,3:1:0:0:
342,314,64257,1,0,2:0:0:0:
396,16,64508,5,10,2:1:0:0:
431,294,64759,1,0,2:0:0:0:
333,53,65010,5,2,3:1:0:0:
253,334,65261,1,0,3:0:0:0:
307,36,65512,5,10,2:1:0:0:
342,314,65763,1,0,2:0:0:0:
244,73,66014,5,2,3:1:0:0:
164,354,66262,1,0,2:0:0:0:
218,56,66510,5,10,2:1:0:0:
253,334,66758,1,0,2:0:0:0:
155,93,67006,5,2,3:1:0:0:
75,374,67256,1,0,3:0:0:0:
129,76,67506,5,10,2:1:0:0:
164,354,67756,1,0,2:0:0:0:
412,278,68006,6,0,P|305:238|313:124,1,243.75,4|0,3:2|2:0,2:0:0:0:
386,43,68506,2,0,B|377:63|381:92|381:92|378:97|378:97|388:122|380:148|380:148|382:154|382:154|372:177|379:210|379:210|377:215|377:215|388:242|379:277|379:277|382:281|382:281|373:301|379:328|379:328|376:331|376:331|376:354|379:378,1,292.5,4|0,2:1|2:0,2:0:0:0:
260,196,69007,6,0,P|242:222|231:261,1,65,2|0,3:2|2:0,2:0:0:0:
239,186,69257,2,0,P|221:212|210:251,1,65,2|0,3:2|2:0,2:0:0:0:
442,114,69507,6,0,P|460:140|471:179,1,65,10|0,2:0|2:0,2:0:0:0:
463,104,69758,2,0,P|481:130|492:169,1,65,2|0,2:0|2:0,2:0:0:0:
215,161,69990,5,8,2:0:0:0:
211,43,70234,1,8,2:0:0:0:
462,25,70479,1,8,2:0:0:0:
479,363,70724,1,8,2:0:0:0:
116,357,71213,5,8,3:2:0:0:
116,357,71335,1,0,3:0:0:0:
120,142,71702,1,8,3:2:0:0:
120,142,71825,1,0,3:0:0:0:
65,90,71947,5,4,3:2:0:0:
115,216,72195,1,2,2:0:0:0:
243,100,72444,2,0,P|186:53|125:29,1,130,10|2,2:0|2:0,2:0:0:0:
227,238,72942,1,2,3:2:0:0:
243,100,73191,1,2,3:2:0:0:
89,207,73440,2,0,P|76:258|86:335,1,130,10|0,2:0|2:0,2:0:0:0:
259,130,73938,6,0,P|322:103|404:212,1,195,0|0,3:2|2:0,2:0:0:0:
406,179,74436,2,0,P|424:103|404:33,1,130,10|0,2:0|2:0,2:0:0:0:
189,161,74934,2,0,P|152:162|116:150,1,65,2|0,3:1|2:0,2:0:0:0:
259,130,75183,5,2,3:2:0:0:
299,167,75297,1,2,3:2:0:0:
315,221,75411,1,2,3:2:0:0:
303,276,75525,1,2,3:2:0:0:
266,318,75639,1,2,3:2:0:0:
60,143,75880,6,0,B|16:108|-86:158|-24:320|135:270|139:146|223:105|322:214,1,390,6|8,3:1|2:0,2:0:0:0:
413,29,76507,1,2,2:0:0:0:
413,29,76633,2,0,B|457:16|492:51|492:51|464:120|367:138|307:80,1,292.5,6|0,3:2|2:0,2:0:0:0:
160,149,77067,5,10,3:2:0:0:
170,90,77187,1,2,3:2:0:0:
215,52,77307,1,2,3:2:0:0:
274,52,77427,1,2,3:2:0:0:
318,89,77547,1,2,3:2:0:0:
329,147,77672,1,2,3:2:0:0:
300,199,77797,6,0,B|253:240|247:341|286:380|286:380|297:298|211:247|148:274,1,390,6|8,3:1|2:0,2:0:0:0:
55,362,78414,1,2,2:0:0:0:
55,362,78537,2,0,P|66:212|40:65,1,292.5,6|0,3:2|2:0,2:0:0:0:
138,139,78984,5,10,3:2:0:0:
190,163,79099,1,2,3:2:0:0:
248,152,79215,1,2,3:2:0:0:
294,118,79331,1,2,3:2:0:0:
351,107,79447,1,2,3:2:0:0:
409,123,79565,1,2,3:2:0:0:
447,166,79684,5,6,3:2:0:0:
510,36,79931,1,2,2:0:0:0:
294,118,80178,2,0,P|277:183|300:243,1,130,10|2,2:0|2:0,2:0:0:0:
447,166,80672,1,2,3:2:0:0:
302,41,80919,1,2,3:2:0:0:
375,223,81167,2,0,L|506:209,1,130,10|0,2:0|2:0,2:0:0:0:
302,41,81661,5,0,3:2:0:0:
150,35,81908,2,0,L|82:32,1,65,2|0,2:0|2:0,2:0:0:0:
179,36,82155,2,0,P|193:79|167:156,1,130,8|0,2:0|2:0,2:0:0:0:
60,348,82650,2,0,P|38:348|-4:328,1,65,2|0,3:1|2:0,2:0:0:0:
101,271,82897,5,2,3:2:0:0:
156,275,83011,1,2,3:2:0:0:
211,279,83125,1,2,3:2:0:0:
266,283,83239,1,2,3:2:0:0:
321,287,83353,1,2,3:2:0:0:
465,159,83608,6,0,B|372:186|321:283|321:283|306:179|207:126,1,390,6|8,3:1|2:0,2:0:0:0:
126,7,84235,1,2,2:0:0:0:
126,7,84361,2,0,B|61:168|193:122|136:290,1,292.5,6|0,3:2|2:0,2:0:0:0:
194,334,84786,5,2,3:2:0:0:
240,351,84902,1,2,3:2:0:0:
288,347,85019,1,2,3:2:0:0:
336,327,85136,1,2,3:2:0:0:
372,294,85252,1,2,3:2:0:0:
403,77,85500,6,0,B|482:76|504:10|504:10|474:124|384:150|297:88,1,390,6|8,3:1|2:0,2:0:0:0:
219,5,86119,1,2,2:0:0:0:
219,5,86243,2,0,P|261:91|259:293,1,292.5,6|0,3:2|2:0,2:0:0:0:
261,284,86662,5,8,3:2:0:0:
261,284,86784,1,8,3:2:0:0:
149,222,87029,1,8,3:2:0:0:
149,222,87151,1,8,3:2:0:0:
8,343,87405,6,0,L|24:84,1,260,6|8,3:2|2:0,2:0:0:0:
149,222,88148,2,0,L|140:44,1,130,2|0,2:0|3:0,2:0:0:0:
269,291,88644,2,0,L|278:113,1,130,2|8,3:2|2:0,2:0:0:0:
207,364,89140,1,2,2:0:0:0:
392,267,89388,2,0,L|376:8,1,260,2|8,3:2|2:0,2:0:0:0:
505,306,90127,1,2,2:0:0:0:
363,135,90374,2,0,L|359:200,1,65,2|0,3:1|2:0,2:0:0:0:
269,291,90608,6,0,L|261:180,1,65,2|0,3:2|3:2,3:2:0:0:
164,358,90843,2,0,L|172:247,1,65,10|0,3:2|3:2,3:2:0:0:
68,297,91078,2,0,L|60:186,1,65,2|0,3:2|3:2,3:2:0:0:
0,367,91312,1,2,3:1:0:0:
90,88,91808,6,0,P|50:88|14:106,1,81.25,10|0,2:0|2:0,2:0:0:0:
151,15,92057,2,0,P|179:44|192:83,1,81.25,2|0,2:0|2:0,2:0:0:0:
226,176,92306,2,0,P|259:152|279:117,1,81.25,2|0,3:2|2:0,2:0:0:0:
221,269,92556,2,0,P|181:261|148:237,1,81.25,2|0,3:2|2:0,2:0:0:0:
65,181,92805,2,0,P|53:219|58:260,1,81.25,10|0,2:0|2:0,2:0:0:0:
15,105,93055,2,0,P|51:88|91:88,1,81.25,2|0,2:0|2:0,2:0:0:0:
197,18,93304,6,0,L|189:108,1,65,6|0,3:2|2:0,2:0:0:0:
316,242,93546,6,0,P|356:241|392:224,1,81.25,2|0,3:2|3:0,3:0:0:0:
366,38,93788,1,0,3:0:0:0:
366,38,93910,1,0,3:0:0:0:
366,38,94031,2,0,P|333:61|313:97,1,81.25,2|0,3:2|3:0,3:0:0:0:
238,226,94273,2,0,P|274:242|315:241,1,81.25,2|0,3:2|3:0,3:0:0:0:
464,242,94516,2,0,P|459:201|438:167,1,81.25,2|0,3:2|3:0,3:0:0:0:
261,327,94747,6,0,L|356:320,1,81.25,10|0,3:2|3:2,3:2:0:0:
423,316,94979,2,0,L|341:321,1,81.25,10|0,3:2|3:2,3:2:0:0:
186,373,95210,6,0,L|200:104,1,260,6|8,3:1|2:0,2:0:0:0:
18,274,95956,2,0,L|4:5,1,260,6|0,2:0|2:0,2:0:0:0:
237,214,96702,2,8,L|244:60,1,130,14|0,2:0|2:0,2:0:0:0:
43,168,97200,2,0,L|39:103,1,65,2|0,3:2|2:0,2:0:0:0:
266,129,97449,2,0,L|269:64,1,65,2|0,2:0|2:0,2:0:0:0:
140,7,97699,2,0,P|122:67|137:138,1,130,8|0,2:0|2:0,2:0:0:0:
274,277,98199,1,0,3:0:0:0:
492,161,98448,5,2,3:2:0:0:
443,161,98574,1,2,3:2:0:0:
400,128,98700,1,10,3:2:0:0:
351,128,98826,1,2,3:2:0:0:
306,97,98953,1,2,3:2:0:0:
257,97,99079,1,2,3:2:0:0:
210,63,99205,1,2,3:2:0:0:
95,263,99455,1,0,2:0:0:0:
293,352,99706,6,0,P|275:322|274:275,1,81.25,10|0,2:0|2:0,2:0:0:0:
415,334,99957,2,0,P|376:322|347:294,1,81.25,2|0,2:0|2:0,2:0:0:0:
412,254,100208,2,0,P|452:254|488:235,1,81.25,2|0,3:2|2:0,2:0:0:0:
430,180,100459,2,0,P|458:151|469:112,1,81.25,2|0,3:2|2:0,2:0:0:0:
369,39,100710,2,0,P|389:74|389:115,1,81.25,10|0,2:0|2:0,2:0:0:0:
246,58,100960,6,0,P|285:69|314:98,1,81.25,2|0,2:1|2:0,2:0:0:0:
282,346,101455,2,0,P|253:373|214:384,1,81.25,2|0,2:1|2:0,2:0:0:0:
15,233,101943,2,0,P|5:193|15:155,1,81.25,2|0,2:1|2:0,2:0:0:0:
231,213,102188,6,0,P|271:214|308:230,1,81.25,2|0,3:2|2:0,2:0:0:0:
142,259,102432,2,0,P|120:293|88:317,1,81.25,2|0,3:2|2:0,2:0:0:0:
146,159,102676,2,0,P|127:123|121:83,1,81.25,10|0,2:0|2:0,2:0:0:0:
231,213,102921,2,0,P|271:214|308:230,1,81.25,2|0,2:0|2:0,2:0:0:0:
446,378,103165,6,0,B|405:264|499:258|456:118,1,260,2|8,3:2|2:0,2:0:0:0:
200,89,103917,6,0,L|198:23,1,65,2|0,2:0|2:0,2:0:0:0:
338,150,104167,2,0,L|340:84,1,65,2|0,3:2|2:0,2:0:0:0:
188,99,104418,6,0,L|186:33,1,65,2|0,3:2|2:0,2:0:0:0:
347,159,104669,2,0,L|349:93,1,65,10|0,2:0|2:0,2:0:0:0:
114,230,104920,6,0,L|110:100,1,130.524333333333,2|0,2:0|3:0,2:0:0:0:
343,288,105421,2,0,L|346:158,1,130,2|8,2:0|2:0,2:0:0:0:
87,311,105923,1,0,2:0:0:0:
205,227,106173,6,0,L|203:161,1,65,2|0,3:1|2:0,2:0:0:0:
343,288,106420,2,0,L|345:222,1,65,2|0,3:1|2:0,2:0:0:0:
193,237,106668,6,0,L|191:171,1,65,10|0,2:1|2:0,2:0:0:0:
352,297,106916,2,0,L|356:150,1,130,10|0,2:1|3:0,2:0:0:0:
94,319,107418,1,0,2:0:0:0:
427,339,107672,6,0,P|400:369|362:380,1,81.25,10|0,2:0|2:0,2:0:0:0:
275,291,107918,2,0,P|312:305|352:297,1,81.25,2|0,2:0|2:0,2:0:0:0:
315,228,108164,2,0,P|294:193|296:153,1,81.25,2|0,3:2|2:0,2:0:0:0:
433,119,108411,2,0,P|396:135|375:169,1,81.25,2|0,3:2|2:0,2:0:0:0:
465,275,108657,2,0,P|468:235|449:199,1,81.25,8|0,2:0|2:0,2:0:0:0:
315,228,108904,2,0,P|347:251|387:252,1,81.25,2|0,2:0|2:0,2:0:0:0:
433,119,109150,1,6,3:2:0:0:
270,291,109393,6,0,P|237:314|197:315,1,81.25,2|0,2:0|2:0,2:0:0:0:
79,231,109637,2,0,P|92:268|124:292,1,81.25,10|0,2:0|2:0,2:0:0:0:
270,291,109881,2,0,P|301:266|314:228,1,81.25,2|0,2:1|2:0,2:0:0:0:
78,154,110125,2,0,P|66:192|78:230,1,81.25,2|0,3:1|2:0,2:0:0:0:
354,294,110369,5,2,3:2:0:0:
376,248,110491,1,2,3:2:0:0:
387,197,110613,1,10,3:2:0:0:
390,147,110735,1,2,3:2:0:0:
386,97,110857,1,2,3:2:0:0:
106,52,111101,5,6,3:1:0:0:
386,14,111349,1,0,2:0:0:0:
106,65,111598,5,10,2:1:0:0:
386,97,111847,1,0,2:0:0:0:
106,135,112096,5,2,3:1:0:0:
386,97,112341,1,0,3:0:0:0:
106,148,112587,5,10,2:1:0:0:
386,180,112833,1,0,2:0:0:0:
106,218,113079,5,2,3:1:0:0:
386,180,113330,1,0,2:0:0:0:
106,231,113581,5,10,2:1:0:0:
386,263,113832,1,0,2:0:0:0:
106,301,114083,5,2,3:1:0:0:
386,263,114330,1,0,3:0:0:0:
106,314,114577,5,10,2:1:0:0:
386,346,114825,1,0,2:0:0:0:
209,221,115072,6,0,P|121:214|132:127,1,195,6|0,3:2|2:0,2:0:0:0:
277,72,115570,6,0,B|283:100|278:138|278:138|274:130|274:130|268:164|276:192|276:192|280:185|280:185|289:224|280:256|280:256|276:249|276:249|268:289|276:322,1,292.5,4|0,2:1|2:0,2:0:0:0:
417,160,116069,6,0,L|332:165,1,65,2|0,3:2|2:0,2:0:0:0:
233,172,116319,2,0,L|148:177,1,65,2|0,3:2|2:0,2:0:0:0:
116,49,116568,6,0,L|281:72,1,162.5,10|0,2:0|2:0,2:0:0:0:
279,342,117057,5,8,2:0:0:0:
84,364,117298,1,8,2:0:0:0:
59,107,117540,1,8,2:0:0:0:
417,67,117782,1,8,2:0:0:0:
154,22,118308,5,8,3:2:0:0:
154,22,118440,1,0,3:0:0:0:
91,189,118796,1,8,3:2:0:0:
91,189,118923,1,0,3:0:0:0:
20,169,119050,6,0,P|84:153|153:152,1,130,6|0,3:2|2:0,2:0:0:0:
347,208,119552,1,10,2:0:0:0:
184,297,119803,1,2,2:0:0:0:
195,118,120054,1,2,3:2:0:0:
304,274,120305,2,0,P|244:303|180:295,1,130,2|8,3:2|2:0,2:0:0:0:
341,78,120807,1,2,2:0:0:0:
341,78,121058,6,0,L|347:217,1,130,0|0,3:0|2:0,2:0:0:0:
391,336,121560,2,0,P|451:365|515:357,1,130,8|0,2:0|2:0,2:0:0:0:
303,274,122062,2,0,P|290:303|285:335,1,65,2|0,3:1|2:0,2:0:0:0:
162,373,122306,5,2,3:2:0:0:
111,374,122420,1,2,3:2:0:0:
63,352,122535,1,10,3:2:0:0:
27,309,122650,1,2,3:2:0:0:
20,254,122765,1,2,3:2:0:0:
98,127,123000,6,0,B|172:85|127:-33|-11:16|-5:130|92:128|157:206|118:297,1,390,6|8,3:1|2:0,2:0:0:0:
176,157,123632,1,2,2:0:0:0:
176,157,123758,2,0,B|246:89|311:151|303:162|381:220|444:169,1,292.5,6|0,3:2|2:0,2:0:0:0:
490,117,124205,5,8,2:0:0:0:
490,117,124317,1,0,2:0:0:0:
381,23,124543,2,0,P|347:20|306:32,1,65,2|0,3:2|3:0,3:0:0:0:
252,55,124781,1,0,3:0:0:0:
252,55,124906,6,0,B|208:190|311:178|264:339|264:339|276:284|250:245,1,390,6|8,3:1|2:0,2:0:0:0:
175,303,125539,1,2,2:0:0:0:
175,303,125666,2,0,P|100:350|147:206,1,292.5,6|0,3:2|2:0,2:0:0:0:
175,303,126131,5,10,3:2:0:0:
224,330,126245,1,2,3:2:0:0:
281,334,126360,1,2,3:2:0:0:
333,316,126475,1,2,3:2:0:0:
375,278,126590,1,2,3:2:0:0:
423,256,126712,1,2,3:2:0:0:
477,265,126835,5,6,3:2:0:0:
333,316,127080,1,2,2:0:0:0:
379,85,127325,2,0,P|391:124|367:211,1,130,10|2,2:0|2:0,2:0:0:0:
230,87,127816,1,2,3:2:0:0:
191,263,128061,1,2,3:2:0:0:
369,208,128307,1,8,2:0:0:0:
230,87,128552,2,0,L|94:96,1,130.528666666667,2|0,2:0|3:0,2:0:0:0:
191,263,129045,5,2,3:2:0:0:
191,263,129169,1,0,3:0:0:0:
191,263,129293,1,8,3:2:0:0:
320,372,129541,1,0,2:0:0:0:
369,208,129789,2,0,P|335:198|292:205,1,65,2|0,2:1|2:0,2:0:0:0:
126,135,130037,5,2,3:2:0:0:
93,89,130155,1,2,3:2:0:0:
102,33,130273,1,2,3:2:0:0:
149,0,130391,1,2,3:2:0:0:
202,12,130509,1,2,3:2:0:0:
229,58,130628,1,2,3:2:0:0:
221,113,130746,6,0,B|155:201|153:291|153:291|255:240|343:277,1,390,4|8,3:1|2:0,2:0:0:0:
401,377,131376,1,2,2:0:0:0:
401,377,131502,2,0,B|443:385|480:374|513:315|490:247|417:249|417:249|431:279|416:312,1,292.5,6|0,3:2|2:0,2:0:0:0:
342,276,131942,5,8,3:2:0:0:
342,276,132058,1,0,3:0:0:0:
167,381,132290,2,0,P|163:356|172:317,1,65,0|0,3:0|3:0,3:0:0:0:
211,254,132531,1,0,3:0:0:0:
211,254,132657,6,0,B|242:190|188:30|59:56|59:56|20:100|32:147,1,390.00001487732,6|8,3:1|2:0,2:0:0:0:
139,186,133289,1,2,2:0:0:0:
139,186,133415,2,0,P|241:197|429:164,1,292.5,6|0,3:2|2:0,2:0:0:0:
511,55,133915,5,2,3:2:0:0:
453,53,134041,1,2,3:2:0:0:
395,50,134168,1,2,3:2:0:0:
336,48,134295,1,2,3:2:0:0:
278,45,134422,1,2,3:2:0:0:
219,42,134549,1,2,3:2:0:0:
160,40,134676,6,0,P|52:60|4:196,1,260,6|8,3:1|2:0,2:0:0:0:
37,333,135429,2,0,B|88:362|161:332|149:301|217:275|285:316,1,260,2|2,2:0|3:2,2:0:0:0:
430,383,136182,1,10,2:0:0:0:
430,383,136307,1,0,2:0:0:0:
430,383,136433,1,0,2:0:0:0:
388,210,136684,5,0,3:0:0:0:
348,369,136935,1,0,2:0:0:0:
510,325,137186,1,10,2:0:0:0:
510,325,137310,1,0,2:0:0:0:
510,325,137435,1,2,2:0:0:0:
323,156,137685,6,0,P|307:185|303:217,1,65,2|0,3:2|2:0,2:0:0:0:
372,295,137934,2,0,P|405:293|435:281,1,65,2|0,3:2|2:0,2:0:0:0:
468,183,138184,2,0,P|450:154|424:135,1,65,10|0,2:0|2:0,2:0:0:0:
323,156,138433,2,0,P|307:185|303:217,1,65,2|0,2:0|2:0,2:0:0:0:
258,383,138683,6,0,B|236:382|236:382|238:379|238:379|219:379|219:379|221:377|221:377|199:376|199:376|200:373|200:373|180:372|180:372|183:370|183:370|161:368|161:368|162:367|162:367|137:365|137:365|138:364|138:364|113:362|113:362|114:360|114:360|90:357|90:357|92:355|92:355|71:353|71:353|72:351|72:351|51:349|51:350|51:350|53:347|53:347|35:345|35:345|36:343|36:343|14:341,1,292.5,2|0,3:1|2:0,2:0:0:0:
124,227,139178,6,0,P|168:217|219:235,1,97.5,10|0,2:0|2:0,2:0:0:0:
254,296,139426,2,0,P|206:306|161:290,1,97.5,2|0,2:0|2:0,2:0:0:0:
302,216,139674,6,0,P|347:199|394:209,1,97.5,2|0,3:2|2:0,2:0:0:0:
445,269,139922,2,0,P|399:285|352:275,1,97.5,2|0,3:2|2:0,2:0:0:0:
124,227,140170,1,10,2:0:0:0:
273,373,140418,6,0,P|342:373|413:350,1,130,4|0,2:0|2:0,2:0:0:0:
486,279,141166,6,0,P|507:235|502:188,1,97.5,10|0,2:0|2:0,2:0:0:0:
448,129,141414,2,0,P|428:172|434:220,1,97.5,2|0,2:0|2:0,2:0:0:0:
263,235,141662,6,0,P|256:191|279:142,1,97.5,2|0,3:2|2:0,2:0:0:0:
343,104,141910,2,0,P|349:151|330:195,1,97.5,2|0,3:2|2:0,2:0:0:0:
196,288,142158,6,0,L|95:274,1,97.5,8|0,2:0|2:0,2:0:0:0:
2,262,142406,2,0,L|98:275,1,97.5,8|0,2:0|2:0,2:0:0:0:
277,144,142654,6,0,P|328:130|411:152,1,130,2|0,3:2|2:0,2:0:0:0:
158,14,143154,2,0,P|140:43|139:93,1,65,8|0,2:0|2:0,2:0:0:0:
49,63,143404,2,0,P|51:97|80:138,1,65,2|0,2:0|2:0,2:0:0:0:
168,209,143654,5,2,3:2:0:0:
135,73,143905,1,2,3:2:0:0:
67,255,144155,1,8,2:0:0:0:
257,230,144405,2,0,L|468:201,1,195,2|0,2:0|2:0,2:0:0:0:
494,138,144905,2,0,P|471:111|424:95,1,65,2|0,2:0|2:0,2:0:0:0:
481,19,145156,2,0,P|447:10|399:25,1,65,10|0,2:0|2:0,2:0:0:0:
300,67,145406,6,0,L|294:144,1,65,2|0,2:0|2:0,2:0:0:0:
175,245,145656,2,0,L|244:211,1,65,2|0,3:2|2:0,2:0:0:0:
391,264,145906,2,0,L|327:220,1,65,2|0,3:2|2:0,2:0:0:0:
179,108,146156,1,10,2:0:0:0:
179,108,146282,1,0,2:0:0:0:
179,108,146407,6,0,P|107:120|46:112,1,130,4|0,2:0|2:0,2:0:0:0:
40,226,147152,6,0,B|38:175|86:173|88:224,1,97.5,10|0,2:0|2:0,2:0:0:0:
94,331,147400,2,0,B|95:381|47:383|46:333,1,97.5,2|0,2:0|2:0,2:0:0:0:
200,234,147648,6,0,B|212:184|259:196|246:245,1,97.5,2|0,3:2|2:0,2:0:0:0:
226,350,147896,2,0,B|213:399|166:387|179:338,1,97.5,2|0,3:2|2:0,2:0:0:0:
87,222,148144,1,10,2:0:0:0:
315,176,148392,6,0,P|382:165|454:165,1,130,4|0,2:0|2:0,2:0:0:0:
430,18,149136,6,0,B|480:16|482:64|432:66,1,97.5,10|0,2:0|2:0,2:0:0:0:
315,71,149384,2,0,B|264:72|262:24|313:23,1,97.4999999999999,2|0,2:0|2:0,2:0:0:0:
443,164,149632,6,0,B|493:157|500:205|450:211,1,97.4999999999999,2|0,3:2|2:0,2:0:0:0:
334,232,149880,2,0,B|283:238|276:190|326:184,1,97.4999999999999,2|0,3:2|2:0,2:0:0:0:
217,61,150128,6,0,L|314:70,1,97.4999999999999,8|0,2:0|2:0,2:0:0:0:
411,79,150376,2,0,L|313:69,1,97.4999999999999,8|0,2:0|2:0,2:0:0:0:
166,8,150623,6,0,B|174:108|174:108|132:170|132:170|139:254,1,260,0|8,3:0|2:0,2:0:0:0:
139,254,151244,1,0,2:0:0:0:
139,254,151368,1,0,2:0:0:0:
183,367,151617,6,0,P|205:333|198:280,1,65,2|0,3:2|2:0,2:0:0:0:
223,165,151865,2,0,P|184:161|140:194,1,65,2|0,3:2|2:0,2:0:0:0:
29,230,152114,2,0,P|46:265|97:286,1,65,10|0,2:0|2:0,2:0:0:0:
281,332,152362,2,0,P|354:330|443:224,1,195.520823333333,2|0,2:0|2:0,2:0:0:0:
437,248,152873,1,2,2:0:0:0:
355,46,153125,1,10,2:0:0:0:
355,46,153251,1,0,2:0:0:0:
355,46,153377,1,2,2:0:0:0:
187,283,153629,6,0,P|164:251|159:207,1,65,2|0,3:2|2:0,2:0:0:0:
133,69,153881,2,0,P|172:65|212:82,1,65,2|0,3:2|2:0,2:0:0:0:
345,129,154133,2,0,P|328:164|293:191,1,65,10|0,2:0|2:0,2:0:0:0:
107,281,154385,6,0,P|144:289|190:281,1,81.25,2|0,2:1|2:0,2:0:0:0:
285,259,154637,2,0,P|324:253|364:261,1,81.25,2|0,3:2|2:0,2:0:0:0:
158,190,154886,6,0,L|47:198,1,81.25,2|0,2:0|2:0,2:0:0:0:
9,154,155135,2,0,P|-5:200|16:249,1,97.5,8|0,2:0|2:0,2:0:0:0:
243,226,155384,6,0,L|235:115,1,81.25,2|0,2:0|2:0,2:0:0:0:
279,77,155634,2,0,P|233:63|184:84,1,97.5,8|0,3:2|2:0,2:0:0:0:
212,306,155883,6,0,L|323:298,1,81.25,2|0,3:2|2:0,2:0:0:0:
361,342,156132,2,0,P|375:296|354:247,1,97.5,8|0,2:0|2:0,2:0:0:0:
279,77,156382,6,0,B|258:45|220:41|191:122|240:156|311:157|319:83|387:50|489:130|436:252,1,351,4|0,3:1|2:0,2:0:0:0:
432,384,157130,1,8,2:0:0:0:
233,301,157379,2,0,P|201:301|163:321,1,65,2|0,2:0|2:0,2:0:0:0:
39,289,157615,2,0,P|62:317|74:362,1,81.25,2|0,3:1|2:0,2:0:0:0:
128,260,157851,5,2,3:2:0:0:
157,227,157969,1,2,3:2:0:0:
176,183,158087,1,8,3:1:0:0:
174,136,158205,1,2,3:2:0:0:
160,89,158323,1,2,3:1:0:0:
129,46,158441,1,2,3:2:0:0:
86,15,158560,5,6,3:1:0:0:
128,260,158808,1,0,2:1:0:0:
75,34,159056,5,10,2:1:0:0:
117,279,159305,1,0,2:1:0:0:
132,93,159553,5,2,3:1:0:0:
377,51,159802,1,0,3:1:0:0:
143,79,160050,5,10,2:1:0:0:
388,37,160299,1,0,2:1:0:0:
209,127,160547,5,2,3:1:0:0:
281,345,160796,1,0,2:1:0:0:
201,145,161044,5,10,2:1:0:0:
273,363,161292,1,0,2:1:0:0:
260,206,161541,5,2,3:1:0:0:
505,164,161789,1,0,3:1:0:0:
266,193,162038,5,10,2:1:0:0:
511,151,162286,1,0,2:1:0:0:
292,38,162535,6,0,P|206:38|215:124,1,195,6|0,3:2|2:0,2:0:0:0:
292,38,163033,2,0,B|289:59|289:59|292:58|292:58|289:77|289:77|292:75|292:75|289:97|289:97|292:96|292:96|290:116|290:116|293:114|293:114|291:136|291:136|292:135|292:135|290:160|290:160|292:159|292:159|290:184|290:184|292:183|292:183|291:207|291:207|293:206|293:206|292:227|292:227|294:226|294:226|293:247|292:247|292:247|295:246|295:246|294:264|294:264|296:263|296:263|295:285,1,292.5,4|0,2:1|2:0,2:0:0:0:
174,243,163532,6,0,P|151:245|102:268,1,65,2|0,3:2|2:0,2:0:0:0:
181,230,163781,2,0,P|158:232|109:255,1,65,2|0,3:2|2:0,2:0:0:0:
21,150,164031,6,0,P|44:152|93:175,1,65,10|0,2:0|2:0,2:0:0:0:
14,137,164280,2,0,P|37:139|86:162,1,65,2|0,2:0|2:0,2:0:0:0:
181,230,164510,5,8,2:0:0:0:
368,207,164750,1,8,2:0:0:0:
339,0,164990,1,8,2:0:0:0:
21,30,165230,1,8,2:0:0:0:
86,89,165731,5,8,3:2:0:0:
86,89,165853,1,0,3:2:0:0:
248,34,166222,1,8,3:2:0:0:
248,34,166351,1,0,3:2:0:0:
317,54,166480,5,6,3:1:0:0:
76,11,166726,1,0,2:1:0:0:
326,46,166972,5,10,2:1:0:0:
65,19,167218,1,0,2:1:0:0:
364,135,167464,5,2,3:1:0:0:
123,92,167711,1,0,3:1:0:0:
373,127,167957,5,10,2:1:0:0:
112,100,168203,1,0,2:1:0:0:
416,206,168449,5,2,3:1:0:0:
175,163,168697,1,0,2:1:0:0:
425,198,168945,5,10,2:1:0:0:
164,171,169194,1,0,2:1:0:0:
474,277,169442,5,2,3:1:0:0:
233,234,169691,1,0,3:1:0:0:
483,269,169939,5,10,2:1:0:0:
222,242,170188,1,0,2:1:0:0:
431,181,170436,6,0,P|491:191|443:92,1,195,6|0,2:0|2:0,2:0:0:0:
371,39,170933,6,0,B|362:59|366:88|366:88|363:93|363:93|373:118|365:144|365:144|367:150|367:150|353:179|364:206|364:206|362:211|362:211|373:238|364:273|364:273|367:277|367:277|358:297|364:324|364:324|361:327|361:327|361:350|365:365,1,292.5,4|0,2:1|2:0,2:0:0:0:
225,354,171430,6,0,L|145:345,1,65,2|0,3:2|2:0,2:0:0:0:
78,335,171678,2,0,L|-2:326,1,65,2|0,3:2|2:0,2:0:0:0:
200,236,171927,6,0,L|54:251,1,130,10|0,2:0|2:0,2:0:0:0:
246,18,172410,5,8,2:0:0:0:
9,102,172654,1,8,2:0:0:0:
93,362,172899,1,8,2:0:0:0:
461,213,173144,1,8,2:0:0:0:
