osu file format v14

[General]
AudioFilename: audio.mp3
AudioLeadIn: 0
PreviewTime: 5053
Countdown: 0
SampleSet: Soft
StackLeniency: 0.4
Mode: 0
LetterboxInBreaks: 0
WidescreenStoryboard: 1

[Editor]
Bookmarks: 92041
DistanceSpacing: 1.2
BeatDivisor: 4
GridSize: 32
TimelineZoom: 1.6

[Metadata]
Title:Savoy Truffle
TitleUnicode:Savoy Truffle
Artist:The Beatles
ArtistUnicode:The Beatles
Creator:mrowswares
Version:Hard
Source:
Tags:trufle john lennon paul mccartney ringo starr george harrison white album british english pop rock blues 1968 60s voss apollo apo11o starcastler
BeatmapID:2835250
BeatmapSetID:1346299

[Difficulty]
HPDrainRate:4
CircleSize:3.8
OverallDifficulty:7
ApproachRate:8
SliderMultiplier:1.6
SliderTickRate:1

[Events]
//Background and Video events
0,0,"TheBeatles68LP.jpg",0,0
//Break Periods
2,36826,39548
//Storyboard Layer 0 (Background)
//Storyboard Layer 1 (Fail)
//Storyboard Layer 2 (Pass)
//Storyboard Layer 3 (Foreground)
//Storyboard Layer 4 (Overlay)
//Storyboard Sound Samples

[TimingPoints]
396,487.80487804878,4,2,1,69,1,0
517,465.116279069767,4,2,1,69,1,0
1484,487.80487804878,4,2,1,69,1,0
3435,492.813141683778,4,2,1,69,1,0
5192,455.062571103527,4,2,1,69,1,0
6784,494.233937397035,4,2,1,69,1,0
11232,500,4,2,1,69,1,0
11732,493.827160493827,4,2,1,69,1,0
12732,500,4,2,1,69,1,0
16732,497.92531120332,4,2,1,69,1,0
20217,491.803278688525,4,2,1,69,1,0
20708,501.25313283208,4,2,1,69,1,0
22713,505.050505050505,4,2,1,69,1,0
23723,496.894409937888,4,2,1,69,1,0
24716,498.338870431894,4,2,1,69,1,0
26460,-101.522842639594,4,2,1,69,0,0
26721,491.803278688525,4,2,1,69,1,0
28196,478.08764940239,4,2,1,69,1,0
28674,495.867768595041,4,2,2,69,1,0
29665,504.201680672269,4,2,2,69,1,0
30673,494.845360824742,4,2,2,69,1,0
32652,502.828409805154,4,2,1,69,1,0
34650,495.867768595041,4,2,1,69,1,0
35889,491.803278688525,4,2,1,69,1,0
36626,497.512437810945,4,2,1,69,1,0
38616,500,4,2,1,69,1,0
40366,480,4,2,1,69,1,0
41326,494.845360824742,4,2,1,69,1,0
42068,497.512437810945,4,2,1,69,1,0
46048,501.043841336117,4,2,1,69,1,0
47050,495.867768595041,4,2,1,69,1,0
48041,497.92531120332,4,2,1,69,1,0
49783,-101.010101010101,4,2,1,69,0,0
50032,504.201680672269,4,2,1,69,1,0
52048,496.894409937888,4,2,1,69,1,0
53787,-100.200400801603,4,2,1,69,0,0
54035,500,4,2,1,69,1,0
55285,469.667318982387,4,2,1,69,1,0
55754,500,4,2,1,69,1,0
56004,493.421052631579,4,2,1,69,1,0
57730,-106.951871657754,4,2,1,69,0,0
58005,506.329113924051,4,2,1,69,1,0
60030,497.100248550124,4,2,1,69,1,0
62018,499.168053244592,4,2,1,69,1,0
63515,491.803278688525,4,2,1,69,1,0
64006,502.092050209205,4,2,2,69,1,0
66014,496.483243690525,4,2,2,69,1,0
67006,500,4,2,2,69,1,0
68006,500.625782227785,4,2,1,69,1,0
69990,489.396411092985,4,2,1,69,1,0
71947,497.92531120332,4,2,1,69,1,0
75183,456.273764258555,4,2,1,69,1,0
75639,483.870967741935,4,2,1,69,1,0
75880,502.092050209205,4,2,1,69,1,0
75880,-76.9230769230769,4,2,1,69,0,0
76633,434.782608695652,4,2,1,69,1,0
77067,480,4,2,1,69,1,0
77547,500,4,2,1,69,1,0
77797,493.827160493827,4,2,1,69,1,0
77797,-76.9230769230769,4,2,1,69,0,0
78537,447.761194029851,4,2,1,69,1,0
78984,463.320463320463,4,2,1,69,1,0
79447,474.308300395257,4,2,1,69,1,0
79684,494.335736354274,4,2,1,69,1,0
82897,456.273764258555,4,2,1,69,1,0
83353,511.727078891258,4,2,1,69,1,0
83608,502.092050209205,4,2,1,69,1,0
83608,-76.9230769230769,4,2,1,69,0,0
84361,425.531914893617,4,2,1,69,1,0
84786,466.926070038911,4,2,1,69,1,0
85252,497.92531120332,4,2,1,69,1,0
85500,495.867768595041,4,2,1,69,1,0
85500,-76.9230769230769,4,2,1,69,0,0
86243,419.58041958042,4,2,1,69,1,0
86662,489.795918367347,4,2,1,69,1,0
87151,508.474576271186,4,2,1,69,1,0
87405,495.867768595041,4,2,1,69,1,0
89388,493.015612161052,4,2,1,69,1,0
90374,469.483568075117,4,2,1,69,1,0
91312,496.585971446307,4,2,1,69,1,0
91808,498.960498960499,4,2,1,69,1,0
93304,484.848484848485,4,2,1,69,1,0
94516,463.320463320463,4,2,1,69,1,0
95210,497.512437810945,4,2,1,69,1,0
97200,499.583680266445,4,2,1,69,1,0
98448,505.263157894737,4,2,1,69,1,0
99205,501.672240802676,4,2,1,69,1,0
101211,488.599348534202,4,2,1,69,1,0
103165,501.462599247806,4,2,1,69,1,0
106173,495.867768595041,4,2,1,69,1,0
107164,508.474576271186,4,2,1,69,1,0
107672,492.813141683778,4,2,1,69,1,0
109150,487.80487804878,4,2,1,69,1,0
111101,497.92531120332,4,2,2,69,1,0
112096,491.803278688525,4,2,2,69,1,0
113079,502.092050209205,4,2,2,69,1,0
114083,494.845360824742,4,2,2,69,1,0
115072,498.960498960499,4,2,1,69,1,0
117057,483.870967741935,4,2,1,69,1,0
118308,528.63436123348,4,2,1,69,1,0
118796,508.474576271186,4,2,1,69,1,0
119050,502.092050209205,4,2,1,69,1,0
122306,459.770114942529,4,2,1,69,1,0
122765,470.588235294118,4,2,1,69,1,0
123000,505.689001264223,4,2,1,69,1,0
123000,-76.9230769230769,4,2,1,69,0,0
123758,447.761194029851,4,2,1,69,1,0
124205,451.127819548872,4,2,1,69,1,0
124656,500,4,2,1,69,1,0
124906,506.756756756757,4,2,1,69,1,0
124906,-76.9230769230769,4,2,1,69,0,0
125666,465.116279069767,4,2,1,69,1,0
126131,459.770114942529,4,2,1,69,1,0
126590,491.803278688525,4,2,1,69,1,0
126835,490.79754601227,4,2,1,69,1,0
128798,495.867768595041,4,2,1,69,1,0
130037,472.813238770686,4,2,1,69,1,0
130746,504.201680672269,4,2,1,69,1,0
131502,440.852314474651,4,2,1,69,1,0
131942,464.037122969838,4,2,1,69,1,0
132406,502.092050209205,4,2,1,69,1,0
132657,505.902192242833,4,2,1,69,1,0
133415,500,4,2,1,69,1,0
133915,507.399577167019,4,2,1,69,1,0
134676,502.092050209205,4,2,1,69,1,0
137186,499.168053244592,4,2,1,69,1,0
138683,495.867768595041,4,2,1,69,1,0
140671,495.867768595041,4,2,1,69,1,0
142654,500.417014178482,4,2,1,69,1,0
146657,495.867768595041,4,2,1,69,1,0
150623,497.100248550124,4,2,1,69,1,0
152362,-102.880658436214,4,2,1,69,0,0
152621,504.201680672269,4,2,1,69,1,0
154637,498.649490961978,4,2,1,69,1,0
157379,472.44094488189,4,2,1,69,1,0
158560,496.894409937888,4,2,2,69,1,0
162535,498.753117206983,4,2,1,69,1,0
164510,480,4,2,1,69,1,0
165731,491.803278688525,4,2,1,69,1,0
166222,517.241379310345,4,2,1,69,1,0
166480,492.408699220353,4,2,2,69,1,0
168449,496.894409937888,4,2,2,69,1,0
170436,-100,4,2,1,69,0,0
172410,489.795918367347,4,2,1,69,1,0

[Colours]
Combo1 : 128,128,255
Combo2 : 234,255,0
Combo3 : 255,50,0
Combo4 : 127,255,0

[HitObjects]
256,192,5192,12,2,6557,2:0:0:0:
232,321,6784,6,0,L|151:327,1,80,2|0,3:2|2:0,2:0:0:0:
62,339,7278,1,10,2:0:0:0:
62,339,7401,1,0,2:0:0:0:
62,339,7525,1,0,2:0:0:0:
101,250,7772,5,2,3:2:0:0:
28,186,8019,1,2,2:0:0:0:
66,96,8266,1,10,2:0:0:0:
163,104,8513,1,2,2:0:0:0:
185,199,8760,6,0,P|256:215|334:172,1,160,2|10,3:1|2:0,2:0:0:0:
330,176,9502,1,2,2:0:0:0:
423,149,9749,2,0,P|414:188|421:242,1,80,2|2,3:2|3:2,2:0:0:0:
416,227,10243,1,10,2:0:0:0:
473,306,10490,1,4,2:1:0:0:
497,16,11232,5,10,2:0:0:0:
400,2,11482,1,2,2:0:0:0:
325,65,11732,2,0,P|285:68|245:62,1,80,2|2,3:2|3:2,2:0:0:0:
161,13,12225,2,0,P|120:9|80:15,1,80,8|8,2:0|2:0,2:0:0:0:
1,72,12732,1,0,3:0:0:0:
178,149,13232,5,8,2:0:0:0:
178,149,13357,1,0,2:0:0:0:
178,149,13482,1,2,2:0:0:0:
272,124,13732,1,2,3:2:0:0:
298,219,13982,1,2,3:2:0:0:
393,193,14232,1,10,2:0:0:0:
368,98,14482,6,0,P|370:180|413:251,1,160,2|2,2:0|2:0,2:0:0:0:
408,246,15232,1,10,2:0:0:0:
433,344,15482,2,0,P|471:331|500:302,1,80,2|2,2:0|3:2,2:0:0:0:
411,249,15982,2,0,L|296:262,1,80,2|10,3:2|2:0,2:0:0:0:
231,272,16482,1,6,2:0:0:0:
41,44,17229,5,10,2:0:0:0:
130,8,17478,1,2,2:0:0:0:
212,58,17727,2,0,P|219:100|213:142,1,80,2|2,3:2|3:2,2:0:0:0:
214,136,18225,1,10,3:2:0:0:
286,201,18474,2,0,P|271:265|290:363,1,160,4|0,2:1|2:0,2:0:0:0:
192,377,19221,6,0,L|104:370,1,80,10|2,2:0|2:0,2:0:0:0:
61,287,19719,2,0,L|149:280,1,80,2|2,3:2|3:2,2:0:0:0:
193,198,20217,1,8,2:0:0:0:
106,153,20462,1,8,2:0:0:0:
17,192,20708,1,0,3:0:0:0:
194,293,21209,5,10,2:0:0:0:
194,293,21334,1,0,2:0:0:0:
194,293,21459,1,0,2:0:0:0:
280,250,21710,1,2,3:2:0:0:
207,186,21961,1,2,3:2:0:0:
245,96,22211,1,10,2:0:0:0:
342,104,22462,1,2,2:0:0:0:
388,304,22965,6,0,P|429:299|465:281,1,80,2|10,2:0|2:0,0:0:0:0:
500,191,23470,1,2,2:0:0:0:
471,98,23723,2,0,L|475:11,1,80,2|2,3:2|3:2,2:0:0:0:
388,63,24219,2,0,L|384:143,1,80,8|2,2:0|2:1,2:0:0:0:
383,241,24716,1,2,3:2:0:0:
243,375,25214,5,8,2:0:0:0:
331,335,25463,1,2,2:0:0:0:
254,275,25712,1,8,3:2:0:0:
166,315,25961,1,2,3:2:0:0:
243,375,26211,1,8,2:0:0:0:
254,275,26460,6,0,B|258:226|258:226|208:116,1,160,4|0,3:1|2:0,2:0:0:0:
165,44,27212,1,8,2:0:0:0:
165,44,27458,2,0,B|242:23|241:81|326:59,1,160,2|2,2:0|3:2,2:0:0:0:
412,25,28196,1,10,2:0:0:0:
412,25,28435,1,10,2:0:0:0:
390,119,28674,5,6,3:1:0:0:
485,135,28921,1,0,2:0:0:0:
388,137,29169,1,10,2:1:0:0:
483,153,29417,1,0,2:0:0:0:
421,228,29665,1,2,3:1:0:0:
244,147,30169,6,0,P|208:142|162:159,1,80,10|0,2:1|2:0,0:0:0:0:
346,227,30920,5,0,2:0:0:0:
441,243,31167,1,10,2:1:0:0:
344,245,31415,1,0,2:0:0:0:
439,261,31662,1,2,3:1:0:0:
377,336,31910,1,0,3:0:0:0:
200,255,32404,6,0,P|164:250|118:267,1,80,0|6,2:0|3:2,0:0:0:0:
213,92,33154,6,0,P|168:138|321:199,1,320,4|8,2:1|2:0,2:0:0:0:
193,344,34650,5,8,2:0:0:0:
193,344,34897,1,8,2:0:0:0:
97,357,35145,1,8,2:0:0:0:
97,357,35393,1,8,2:0:0:0:
7,184,35889,6,0,L|12:232,1,40,8|0,3:2|3:0,0:0:0:0:
107,114,36380,2,0,L|102:162,1,40,8|0,3:2|3:0,0:0:0:0:
133,191,36626,1,4,2:0:0:0:
198,77,40366,5,4,2:0:0:0:
256,192,40606,12,2,41820,2:0:0:0:
243,9,42068,6,0,P|296:4|343:14,1,80,2|0,3:2|2:0,2:0:0:0:
409,71,42565,1,10,2:0:0:0:
409,71,42689,1,0,2:0:0:0:
409,71,42814,1,0,2:0:0:0:
451,158,43063,5,2,3:2:0:0:
354,150,43311,1,2,2:0:0:0:
316,240,43560,1,10,2:0:0:0:
389,304,43809,1,2,2:0:0:0:
472,254,44058,6,0,P|432:288|468:380,1,160,2|10,3:1|2:0,2:0:0:0:
463,377,44804,1,2,2:0:0:0:
367,378,45053,2,0,P|330:371|286:381,1,80,2|2,3:2|3:2,2:0:0:0:
289,379,45550,1,10,2:0:0:0:
199,339,45799,1,4,2:1:0:0:
8,119,46549,5,10,2:0:0:0:
71,192,46799,1,2,2:0:0:0:
17,272,47050,2,0,L|29:356,1,80,2|0,3:2|3:2,2:0:0:0:
121,380,47545,2,0,L|132:300,1,80,8|8,2:0|2:0,2:0:0:0:
223,264,48041,1,0,3:2:0:0:
118,113,48538,5,10,2:0:0:0:
118,113,48663,1,0,2:0:0:0:
118,113,48787,1,2,2:0:0:0:
118,209,49036,1,2,3:2:0:0:
201,158,49285,2,0,P|217:202|211:246,1,80,2|10,3:2|2:0,2:0:0:0:
143,301,49783,6,0,B|182:318|221:295|213:275|257:259|301:280,1,160,2|2,2:0|2:0,2:0:0:0:
384,240,50536,1,10,2:0:0:0:
478,210,50788,2,0,B|439:227|400:204|408:184|364:168|320:189,1,160,2|2,2:0|3:2,2:0:0:0:
327,185,51544,1,10,2:0:0:0:
298,90,51796,1,4,2:0:0:0:
5,101,52544,5,10,2:0:0:0:
92,58,52793,1,2,2:0:0:0:
172,111,53041,2,0,P|212:121|254:114,1,80,2|2,3:2|3:2,2:0:0:0:
249,115,53538,1,8,2:0:0:0:
337,72,53787,2,0,P|396:62|497:84,1,160,4|0,2:0|2:0,2:0:0:0:
432,158,54535,6,0,P|391:173|341:170,1,80,10|2,2:0|2:0,2:0:0:0:
261,142,55035,1,2,3:1:0:0:
193,211,55285,1,2,3:2:0:0:
193,211,55402,1,2,3:2:0:0:
193,211,55519,2,0,B|154:214|154:214|151:218|151:218|147:215|147:215|105:218,1,80,10|2,3:2|3:2,0:0:0:0:
19,228,56004,1,0,3:0:0:0:
172,108,56497,5,8,2:0:0:0:
1,15,56990,1,2,3:2:0:0:
84,63,57237,1,2,3:2:0:0:
166,11,57484,1,10,2:0:0:0:
240,70,57730,6,0,B|276:85|276:85|333:50|397:87,1,160,2|2,2:0|2:0,2:0:0:0:
391,83,58511,1,8,2:0:0:0:
489,64,58764,1,2,2:0:0:0:
489,64,59017,2,0,L|479:151,1,80,2|2,3:2|3:2,2:0:0:0:
386,179,59523,2,0,L|396:266,1,80,8|2,2:0|2:1,2:0:0:0:
475,319,60030,1,0,3:0:0:0:
301,225,60527,5,8,2:0:0:0:
386,179,60775,1,2,2:0:0:0:
467,230,61024,1,8,3:2:0:0:
382,276,61272,1,2,3:2:0:0:
386,179,61521,1,8,2:0:0:0:
464,122,61769,6,0,B|442:131|442:131|296:118,1,160,4|0,3:1|2:0,2:0:0:0:
212,137,62517,1,8,2:0:0:0:
212,137,62766,2,0,P|228:201|233:323,1,160,2|2,2:0|3:2,2:0:0:0:
166,365,63515,1,8,2:0:0:0:
166,365,63760,1,8,2:0:0:0:
101,293,64006,5,6,3:1:0:0:
48,374,64257,1,0,2:0:0:0:
86,279,64508,1,10,2:1:0:0:
40,364,64759,1,0,2:0:0:0:
64,266,65010,1,2,3:1:0:0:
252,267,65512,6,0,P|289:271|339:261,1,80,10|0,2:1|2:0,0:0:0:0:
152,188,66262,5,0,2:0:0:0:
99,269,66510,1,10,2:1:0:0:
137,179,66758,1,0,2:0:0:0:
91,264,67006,1,2,3:1:0:0:
106,168,67256,1,0,3:0:0:0:
303,162,67756,6,0,P|340:166|390:156,1,80,0|4,2:0|3:2,0:0:0:0:
234,284,68506,6,0,P|262:152|122:169,1,320,4|10,2:1|2:0,2:0:0:0:
17,14,69990,5,8,2:0:0:0:
17,14,70234,1,8,2:0:0:0:
18,109,70479,1,8,2:0:0:0:
18,109,70724,1,8,2:0:0:0:
168,224,71213,6,0,L|159:173,1,40,8|0,3:2|3:0,0:0:0:0:
278,102,71702,2,0,L|287:51,1,40,8|0,3:2|3:0,0:0:0:0:
323,33,71947,6,0,P|367:26|421:34,2,80,4|2|10,3:2|2:0|2:0,0:0:0:0:
233,74,72693,1,2,2:0:0:0:
151,130,72942,2,0,P|110:136|69:133,2,80,2|2|10,3:2|3:2|2:0,0:0:0:0:
233,74,73689,1,0,2:0:0:0:
292,148,73938,2,0,L|465:165,2,160,0|10|2,3:2|2:0|3:1,2:0:0:0:
226,210,75183,5,2,3:2:0:0:
226,210,75297,1,2,3:2:0:0:
226,210,75411,2,0,L|137:226,1,80,2|2,3:2|3:2,0:0:0:0:
97,119,75880,6,0,L|92:329,1,207.999990478516,6|8,3:1|2:0,2:0:0:0:
92,326,76633,1,6,3:2:0:0:
257,317,77067,5,10,3:2:0:0:
257,317,77187,1,2,3:2:0:0:
257,317,77307,2,0,P|290:295|317:260,1,80,2|2,3:2|3:2,0:0:0:0:
222,177,77797,6,0,L|217:398,1,207.999990478516,6|8,3:1|2:0,2:0:0:0:
217,384,78537,1,6,3:2:0:0:
398,375,78984,5,10,3:2:0:0:
411,373,79099,1,2,3:2:0:0:
424,371,79215,1,2,3:2:0:0:
437,369,79331,1,2,3:2:0:0:
450,367,79447,1,2,3:2:0:0:
508,296,79684,6,0,P|510:245|513:212,2,80,6|2|10,3:2|2:0|2:0,0:0:0:0:
424,248,80425,1,2,2:0:0:0:
356,179,80672,2,0,P|354:128|351:95,2,80,2|2|10,3:2|3:2|2:0,0:0:0:0:
448,150,81414,1,0,2:0:0:0:
499,68,81661,2,0,P|461:23|360:7,2,160,0|8|2,3:2|2:0|3:1,0:0:0:0:
448,150,82897,5,2,3:2:0:0:
448,150,83011,1,2,3:2:0:0:
448,150,83125,2,0,L|353:134,1,80,2|2,3:2|3:2,0:0:0:0:
294,16,83608,6,0,L|49:10,1,207.999990478516,6|8,3:1|2:0,2:0:0:0:
86,11,84361,1,6,3:2:0:0:
10,168,84786,5,2,3:2:0:0:
10,168,84902,1,2,3:2:0:0:
10,168,85019,2,0,P|4:210|15:253,1,80,2|2,3:2|3:2,0:0:0:0:
131,186,85500,6,0,L|347:181,1,207.999990478516,6|8,3:1|2:0,2:0:0:0:
338,181,86243,1,6,3:2:0:0:
431,40,86662,6,0,L|425:0,1,40,8|8,3:2|3:2,0:0:0:0:
335,38,87029,2,0,L|329:78,1,40,8|8,3:2|3:2,0:0:0:0:
229,46,87405,6,0,P|164:31|130:113,1,160,6|8,3:2|2:0,2:0:0:0:
33,127,88148,2,0,P|98:112|132:194,1,160,2|2,2:0|3:2,2:0:0:0:
227,211,88892,1,8,2:0:0:0:
382,96,89388,2,0,P|317:81|283:163,1,160,2|8,3:2|2:0,2:0:0:0:
409,276,90374,5,2,3:1:0:0:
401,369,90608,1,0,3:2:0:0:
401,369,90726,1,0,3:0:0:0:
401,369,90843,2,0,L|449:376,2,40,10|0|2,3:2|0:0|3:2,0:0:0:0:
311,354,91312,1,2,3:1:0:0:
130,288,91808,5,10,2:0:0:0:
37,267,92057,1,2,2:0:0:0:
65,358,92306,1,2,3:2:0:0:
130,288,92556,1,2,3:2:0:0:
102,197,92805,1,10,2:0:0:0:
167,127,93055,1,2,2:0:0:0:
364,101,93546,1,2,3:2:0:0:
167,127,94031,1,2,3:2:0:0:
195,218,94273,1,2,3:2:0:0:
130,288,94516,1,2,3:2:0:0:
102,197,94747,1,10,3:2:0:0:
195,218,94979,1,10,3:2:0:0:
223,309,95210,6,0,P|274:317|315:227,1,160,6|8,3:1|2:0,2:0:0:0:
225,224,95956,2,0,P|276:232|317:142,1,160,6|0,2:0|2:0,2:0:0:0:
222,133,96702,2,8,P|273:141|314:51,1,160,14|2,2:0|3:2,2:0:0:0:
316,56,97449,1,2,2:0:0:0:
68,89,98448,5,2,3:2:0:0:
66,104,98574,1,2,3:2:0:0:
64,119,98700,1,10,3:2:0:0:
62,134,98826,1,2,3:2:0:0:
61,148,98953,2,0,L|68:235,1,80,2|2,3:2|3:2,0:0:0:0:
238,327,99706,5,10,2:0:0:0:
198,239,99957,1,2,2:0:0:0:
142,318,100208,1,2,3:2:0:0:
100,231,100459,1,2,3:2:0:0:
60,143,100710,1,10,2:0:0:0:
6,222,100960,5,2,2:1:0:0:
116,65,101455,1,2,2:1:0:0:
198,239,101943,1,2,2:1:0:0:
158,151,102188,1,2,3:2:0:0:
254,160,102432,1,2,3:2:0:0:
198,239,102676,1,10,2:0:0:0:
142,318,102921,1,2,2:0:0:0:
238,327,103165,2,0,L|425:345,1,160,2|8,3:2|2:0,2:0:0:0:
496,354,103917,5,2,2:0:0:0:
496,354,104167,2,0,P|500:326|462:288,1,80,2|2,3:2|3:2,2:0:0:0:
445,194,104669,1,10,2:0:0:0:
445,194,104920,2,0,P|401:226|328:157,1,160,2|2,2:0|2:0,2:0:0:0:
327,169,105672,1,8,2:0:0:0:
486,40,106173,5,2,3:1:0:0:
486,40,106420,1,2,3:1:0:0:
486,40,106668,1,10,2:1:0:0:
486,40,106916,1,10,2:1:0:0:
486,40,107164,1,0,3:0:0:0:
294,25,107672,5,10,2:0:0:0:
198,16,107918,1,2,2:0:0:0:
239,104,108164,1,2,3:2:0:0:
178,178,108411,1,2,3:2:0:0:
137,91,108657,1,8,2:0:0:0:
82,170,108904,1,2,2:0:0:0:
119,262,109150,5,6,3:2:0:0:
23,254,109393,1,2,2:0:0:0:
64,341,109637,1,10,2:0:0:0:
119,262,109881,1,2,2:1:0:0:
161,347,110125,1,2,3:0:0:0:
215,268,110369,5,2,3:2:0:0:
232,262,110491,1,2,3:2:0:0:
249,256,110613,1,10,3:2:0:0:
266,250,110735,1,2,3:2:0:0:
283,244,110857,1,2,3:2:0:0:
285,147,111101,5,6,3:1:0:0:
192,119,111349,1,0,2:0:0:0:
287,135,111598,1,10,2:1:0:0:
190,128,111847,1,0,2:0:0:0:
287,120,112096,1,2,3:1:0:0:
119,23,112587,6,0,P|81:13|31:13,1,80,10|0,2:1|2:0,0:0:0:0:
39,206,113330,5,0,2:0:0:0:
132,178,113581,1,10,2:1:0:0:
37,194,113832,1,0,2:0:0:0:
134,187,114083,1,2,3:1:0:0:
37,179,114330,1,0,3:0:0:0:
205,82,114825,6,0,P|243:72|293:72,1,80,0|6,2:0|3:2,0:0:0:0:
384,237,115570,6,0,P|412:182|265:209,1,320,4|10,2:1|2:0,2:0:0:0:
308,378,117057,5,8,2:0:0:0:
308,378,117298,1,8,2:0:0:0:
399,350,117540,1,8,2:0:0:0:
399,350,117782,1,8,2:0:0:0:
494,175,118308,6,0,L|431:161,1,40,8|0,3:2|3:0,0:0:0:0:
317,184,118796,2,0,L|248:197,1,40,8|0,3:2|3:0,0:0:0:0:
231,160,119050,6,0,P|218:118|223:78,2,80,6|0|10,3:2|2:0|2:0,2:0:0:0:
296,233,119803,1,2,2:0:0:0:
364,303,120054,2,0,P|377:345|372:385,2,80,2|2|8,3:2|3:2|2:0,0:0:0:0:
296,233,120807,1,2,2:0:0:0:
336,143,121058,2,0,P|350:80|426:12,2,160,0|8|2,3:0|2:0|3:1,2:0:0:0:
402,214,122306,5,2,3:2:0:0:
397,231,122420,1,2,3:2:0:0:
392,248,122535,2,0,L|361:336,1,80,10|2,3:2|3:2,0:0:0:0:
257,380,123000,6,0,L|227:132,1,207.999990478516,6|8,3:1|2:0,2:0:0:0:
232,173,123758,1,6,3:2:0:0:
337,24,124205,5,8,2:0:0:0:
435,179,124656,1,0,3:0:0:0:
323,116,124906,6,0,L|350:336,1,207.999990478516,6|8,3:1|2:0,2:0:0:0:
348,322,125666,1,6,3:2:0:0:
174,329,126131,5,10,3:2:0:0:
159,326,126245,1,2,3:2:0:0:
144,323,126360,1,2,3:2:0:0:
129,320,126475,1,2,3:2:0:0:
114,317,126590,1,2,3:2:0:0:
19,313,126835,6,0,P|7:347|18:388,2,80,6|2|10,3:2|2:0|2:0,0:0:0:0:
60,226,127571,1,2,2:0:0:0:
105,141,127816,2,0,P|117:103|114:63,2,80,2|2|8,3:2|3:2|2:0,0:0:0:0:
156,221,128552,1,2,2:0:0:0:
215,296,128798,2,0,L|401:320,2,160,0|8|2,3:0|3:2|2:1,0:0:0:0:
119,317,130037,5,2,3:2:0:0:
100,316,130155,1,2,3:2:0:0:
81,314,130273,2,0,L|-7:290,1,80,2|2,3:2|3:2,0:0:0:0:
1,383,130746,6,0,L|163:369,1,160,6|8,3:2|2:0,2:0:0:0:
160,369,131502,1,6,2:0:0:0:
302,211,131942,5,8,3:2:0:0:
237,34,132406,1,2,3:2:0:0:
237,34,132531,1,2,3:2:0:0:
237,34,132657,6,0,L|396:48,1,160,6|8,3:1|2:0,2:0:0:0:
396,48,133415,1,6,3:2:0:0:
504,246,133915,5,2,3:2:0:0:
487,243,134041,1,2,3:2:0:0:
470,240,134168,1,2,3:2:0:0:
453,237,134295,1,2,3:2:0:0:
436,234,134422,1,2,3:2:0:0:
349,285,134676,6,0,P|330:210|378:149,1,160,6|8,3:1|2:0,2:0:0:0:
469,113,135429,2,0,B|430:130|391:107|399:87|355:71|311:92,1,160,2|2,2:0|3:2,2:0:0:0:
318,88,136182,5,10,2:0:0:0:
129,21,136684,2,0,P|113:68|118:103,1,80,0|0,3:0|2:0,0:0:0:0:
171,193,137186,1,10,2:0:0:0:
171,193,137310,1,0,2:0:0:0:
171,193,137435,1,2,2:0:0:0:
220,107,137685,5,2,3:2:0:0:
315,90,137934,1,2,3:2:0:0:
359,175,138184,1,10,2:0:0:0:
292,243,138433,1,2,2:0:0:0:
206,200,138683,6,0,P|165:187|57:248,1,160,2|10,3:1|2:0,2:0:0:0:
64,234,139426,1,2,2:0:0:0:
10,153,139674,2,0,P|0:111|7:69,1,80,2|2,3:2|3:2,2:0:0:0:
4,74,140170,1,10,2:0:0:0:
72,4,140418,1,4,2:0:0:0:
221,260,141166,5,10,2:0:0:0:
296,320,141414,1,2,2:0:0:0:
392,309,141662,2,0,P|397:269|390:229,1,80,2|2,3:2|3:2,2:0:0:0:
317,166,142158,2,0,P|310:126|317:86,1,80,8|8,2:0|2:0,2:0:0:0:
371,5,142654,1,2,3:2:0:0:
499,150,143154,6,0,L|507:235,1,80,8|2,2:0|2:0,2:0:0:0:
455,313,143654,1,2,3:2:0:0:
361,287,143905,1,2,3:2:0:0:
386,193,144155,1,8,2:0:0:0:
479,219,144405,6,0,P|494:290|473:381,1,160,2|2,2:0|2:0,2:0:0:0:
476,374,145156,1,10,2:0:0:0:
394,320,145406,2,0,P|355:311|313:322,1,80,2|2,2:0|3:2,2:0:0:0:
227,364,145906,2,0,P|187:374|147:366,1,80,2|10,3:2|2:0,2:0:0:0:
58,322,146407,1,4,2:0:0:0:
244,96,147152,6,0,P|251:135|241:180,1,80,10|2,2:0|2:0,2:0:0:0:
256,271,147648,2,0,P|219:253|179:249,1,80,2|2,3:2|3:2,2:0:0:0:
180,248,148144,1,10,2:0:0:0:
89,286,148392,1,4,2:0:0:0:
232,32,149136,6,0,P|225:71|235:116,1,80,10|2,2:0|2:0,2:0:0:0:
222,206,149632,2,0,P|258:188|298:184,1,80,2|2,3:2|3:2,2:0:0:0:
297,183,150128,1,8,2:0:0:0:
387,222,150376,1,8,2:0:0:0:
406,315,150623,1,0,3:0:0:0:
369,120,151120,5,10,2:0:0:0:
369,120,151244,1,0,2:0:0:0:
369,120,151368,1,0,2:0:0:0:
278,79,151617,1,2,3:2:0:0:
234,167,151865,1,2,3:2:0:0:
320,214,152114,1,10,2:0:0:0:
264,296,152362,6,0,P|216:276|118:318,1,160,2|2,2:0|2:0,2:0:0:0:
39,375,153125,1,10,2:0:0:0:
4,282,153377,2,0,P|-5:242|3:202,1,80,2|2,2:0|3:2,0:0:0:0:
93,161,153881,2,0,P|101:200|92:240,1,80,2|10,3:2|2:0,2:0:0:0:
173,306,154385,1,2,2:1:0:0:
173,306,154637,1,2,3:2:0:0:
369,296,155135,5,8,2:0:0:0:
281,256,155384,1,2,2:0:0:0:
358,196,155634,1,8,3:2:0:0:
446,236,155883,1,2,3:2:0:0:
369,296,156132,1,8,2:0:0:0:
358,196,156382,6,0,B|354:147|354:147|404:37,1,160,4|0,3:1|2:0,2:0:0:0:
399,46,157130,1,8,2:0:0:0:
489,6,157379,1,2,2:0:0:0:
478,102,157615,1,2,3:1:0:0:
400,44,157851,1,2,3:2:0:0:
386,46,157969,1,2,3:2:0:0:
372,48,158087,1,8,3:1:0:0:
358,50,158205,1,2,3:2:0:0:
344,52,158323,1,2,3:1:0:0:
256,20,158560,5,6,3:1:0:0:
261,116,158808,1,0,2:1:0:0:
255,14,159056,1,10,2:1:0:0:
261,121,159305,1,0,2:1:0:0:
255,8,159553,1,2,3:1:0:0:
135,160,160050,6,0,P|85:164|44:150,1,80,10|0,2:1|2:1,0:0:0:0:
244,201,160796,5,0,2:1:0:0:
249,297,161044,1,10,2:1:0:0:
244,196,161292,1,0,2:1:0:0:
249,303,161541,1,2,3:1:0:0:
243,189,161789,1,0,3:1:0:0:
128,346,162286,6,0,P|77:353|35:339,1,80,0|6,2:1|3:2,0:0:0:0:
33,145,163033,6,0,P|16:200|153:142,1,320,4|10,2:1|2:0,2:0:0:0:
277,13,164510,5,8,2:0:0:0:
277,13,164750,1,8,2:0:0:0:
374,11,164990,1,8,2:0:0:0:
374,11,165230,1,8,2:0:0:0:
462,186,165731,6,0,L|467:232,1,40,8|0,3:2|3:2,0:0:0:0:
349,310,166222,2,0,L|340:356,1,40,8|0,3:2|3:2,0:0:0:0:
304,380,166480,5,6,3:1:0:0:
210,364,166726,1,0,2:1:0:0:
292,378,166972,1,10,2:1:0:0:
198,362,167218,1,0,2:1:0:0:
280,376,167464,1,2,3:1:0:0:
122,260,167957,6,0,P|115:209|127:171,1,80,10|0,2:1|2:1,0:0:0:0:
291,279,168697,5,0,2:1:0:0:
385,263,168945,1,10,2:1:0:0:
303,277,169194,1,0,2:1:0:0:
397,261,169442,1,2,3:1:0:0:
315,275,169691,1,0,3:1:0:0:
350,185,169939,5,10,2:1:0:0:
350,185,170188,2,0,P|357:134|345:96,1,80,0|6,2:1|2:0,0:0:0:0:
158,74,170933,6,0,P|273:140|155:203,1,320,4|10,2:1|2:0,2:0:0:0:
67,44,172410,5,8,2:0:0:0:
67,44,172654,1,8,2:0:0:0:
76,141,172899,1,8,2:0:0:0:
76,141,173144,1,8,2:0:0:0:
