osu file format v14

[General]
AudioFilename: audio.mp3
AudioLeadIn: 0
PreviewTime: 9845
Countdown: 0
SampleSet: Normal
StackLeniency: 0.4
Mode: 0
LetterboxInBreaks: 0
WidescreenStoryboard: 0

[Editor]
Bookmarks: 35988,117315
DistanceSpacing: 1.8
BeatDivisor: 8
GridSize: 8
TimelineZoom: 2.1

[Metadata]
Title:A Hard Day's Night
TitleUnicode:A Hard Day's Night
Artist:The Beatles
ArtistUnicode:The Beatles
Creator:Apo11o
Version:Working Like A Dog
Source:A Hard Day's Night
Tags:english pop rock respirte fsjallink mismagius blue dragon john lennon paul mccartney george harrison ringo starr days
BeatmapID:3659108
BeatmapSetID:1786226

[Difficulty]
HPDrainRate:5
CircleSize:4
OverallDifficulty:9
ApproachRate:9
SliderMultiplier:2.33
SliderTickRate:1

[Events]
//Background and Video events
0,0,"hard day's night.jpg",0,0
//Break Periods
//Storyboard Layer 0 (Background)
//Storyboard Layer 1 (Fail)
//Storyboard Layer 2 (Pass)
//Storyboard Layer 3 (Foreground)
//Storyboard Layer 4 (Overlay)
//Storyboard Sound Samples

[TimingPoints]
556,500,4,1,2,37,1,0
556,-70.1754385964912,4,1,2,37,0,0
3056,437.956204379562,4,1,1,60,1,0
3712,424.628450106157,4,1,1,60,1,0
4561,-75.187969924812,4,1,1,60,0,0
5410,-100,4,1,1,60,0,0
5622,-75.187969924812,4,1,1,60,0,0
6259,-100,4,1,1,60,0,0
6472,-75.187969924812,4,1,1,60,0,0
7109,421.052631578947,4,1,1,60,1,0
7109,-75.187969924812,4,1,1,60,0,0
7424,-100,4,1,1,60,0,0
8161,-75.187969924812,4,1,1,60,0,0
8793,-100,4,1,1,60,0,0
10056,-75.187969924812,4,1,1,60,0,0
10266,-100,4,1,1,60,0,0
10477,427.350427350427,4,1,1,60,1,0
11331,-75.187969924812,4,1,1,60,0,0
12186,-100,4,1,1,60,0,0
12613,-75.187969924812,4,1,1,60,0,0
14323,-100,4,1,1,60,0,0
14964,-75.187969924812,4,1,1,60,0,0
15605,-100,4,1,1,60,0,0
16673,-75.187969924812,4,1,1,60,0,0
17314,428.571428571429,4,1,1,60,1,0
17314,-75.187969924812,4,1,1,60,0,0
20099,-100,4,1,1,60,0,0
24171,429.491768074445,4,1,1,60,1,0
25029,-75.187969924812,4,1,1,60,0,0
25888,-100,4,1,1,60,0,0
26103,-75.187969924812,4,1,1,60,0,0
26533,-100,4,1,1,60,0,0
26962,-75.187969924812,4,1,1,60,0,0
28036,-100,4,1,1,60,0,0
28680,-75.187969924812,4,1,1,60,0,0
29324,-100,4,1,1,60,0,0
30613,-75.187969924812,4,1,1,60,0,0
31042,430.10752688172,4,1,1,60,1,0
31042,-75.187969924812,4,1,1,60,0,0
32762,-100,4,1,1,60,0,0
33192,-75.187969924812,4,1,1,60,0,0
33622,-100,4,1,1,60,0,0
33837,-75.187969924812,4,1,1,60,0,0
34912,-100,4,1,1,60,0,0
35558,-75.187969924812,4,1,1,60,0,0
36203,-100,4,1,1,60,0,0
37278,-75.187969924812,4,1,1,60,0,0
37923,434.782608695652,4,1,1,60,1,0
37923,-75.187969924812,4,1,1,60,0,0
40749,-100,4,1,1,60,0,0
41401,431.654676258993,4,1,1,60,1,0
44854,432.588320115357,4,1,3,60,1,0
44854,-75.187969924812,4,1,3,60,0,0
55236,-66.6666666666667,4,1,3,60,0,0
58047,-75.187969924812,4,1,3,60,0,0
58696,433.212996389892,4,1,1,60,1,0
59562,-75.187969924812,4,1,1,60,0,0
61295,-100,4,1,1,60,0,0
61511,-75.187969924812,4,1,1,60,0,0
62378,-100,4,1,1,60,0,0
63136,-75.187969924812,4,1,1,60,0,0
64760,-100,4,1,1,60,0,0
65194,-75.187969924812,4,1,1,60,0,0
65410,-100,4,1,1,60,0,0
65627,435.413642960813,4,1,1,60,1,0
66497,-75.187969924812,4,1,1,60,0,0
68239,-100,4,1,1,60,0,0
68674,-75.187969924812,4,1,1,60,0,0
68892,-100,4,1,1,60,0,0
69110,-75.187969924812,4,1,1,60,0,0
69328,-100,4,1,1,60,0,0
71940,-75.187969924812,4,1,1,60,0,0
73464,-100,4,1,1,60,0,0
73682,-75.187969924812,4,1,1,60,0,0
75206,-100,4,1,1,60,0,0
78471,-66.6666666666667,4,1,1,60,0,0
79560,434.153400868307,4,1,1,60,1,0
79560,-133.333333333333,4,1,1,60,0,0
80428,-75.187969924812,4,1,1,60,0,0
81079,-133.333333333333,4,1,1,60,0,0
84769,-133.333333333333,4,1,1,60,0,0
87374,-75.187969924812,4,1,1,60,0,0
88025,-133.333333333333,4,1,1,60,0,0
92801,-75.187969924812,4,1,1,60,0,0
93452,437.31778425656,4,1,1,60,1,0
94545,-75.187969924812,4,1,1,60,0,0
96294,-100,4,1,1,60,0,0
96950,436.046511627907,4,1,1,60,1,0
100438,432.276657060519,4,1,3,60,1,0
100438,-75.187969924812,4,1,3,60,0,0
107354,436.363636363636,4,1,3,60,1,0
107354,-75.187969924812,4,1,3,60,0,0
110844,428.571428571429,4,1,1,60,1,0
110844,-66.6666666666667,4,1,1,60,0,1
111272,-75.187969924812,4,1,1,60,0,1
114272,434.782608695652,4,1,1,60,1,0
115141,-75.187969924812,4,1,1,60,0,0
116011,-100,4,1,1,60,0,0
117098,-75.187969924812,4,1,1,60,0,0
118185,-100,4,1,1,60,0,0
118837,-75.187969924812,4,1,1,60,0,0
121228,-100,4,1,1,60,0,0
122098,-75.187969924812,4,1,1,60,0,0
125141,-100,4,1,1,60,0,0
127532,-75.187969924812,4,1,1,60,0,0
128185,439.56043956044,4,1,1,60,1,0
135217,437.956204379562,4,1,1,60,1,0
140472,433.212996389892,4,1,2,60,1,0
140472,-100,4,1,2,60,0,0
140580,-100,4,1,1,60,0,0
142204,430.10752688172,4,1,1,50,1,0
142204,-100,4,1,1,50,0,0
143924,-100,4,1,1,40,0,0
145644,-100,4,1,1,30,0,0
147365,-100,4,1,1,20,0,0
149085,-100,4,1,1,5,0,0

[Colours]
Combo1 : 255,46,46
Combo2 : 110,217,234
Combo3 : 234,127,127
Combo4 : 197,127,234

[HitObjects]
461,238,556,6,2,B|465:212|492:196|519:196|519:196|519:196|519:196|511:167|486:148|459:144|459:144|452:115|464:85|486:70|486:70|486:70|486:70|462:51|431:51|406:62|406:62|384:42|377:12|386:-13|386:-13|386:-13|386:-13|355:-13|330:4|317:27|317:27|287:24|263:5|254:-21|254:-21|254:-22|254:-22|230:-4|220:24|224:51|224:51|197:67|167:64|143:48|143:48|143:48|143:48|133:75|142:106|163:125|163:125|149:152|124:169|95:169|95:169|95:169|95:169|104:197|130:217|157:221|157:221|163:250|149:280|128:295|128:295|128:296|128:296|152:314|183:316|208:302|208:302|231:323|237:353|228:380|228:380|228:380|228:380|259:380|285:362|298:338|298:338|327:341|351:362|359:389|359:389|359:389|359:389|384:371|396:342|390:314|390:314|416:298|449:301|470:319|470:319|470:319|470:319|480:290|471:259|452:238,1,1660.12501583219,14|2,3:1|0:0,0:0:0:0:
282,40,3712,6,0,L|80:45,1,174.75,6|0,3:1|0:0,0:0:0:0:
21,47,4136,2,0,P|14:77|20:104,1,58.25,8|0,0:0|0:0,0:0:0:0:
71,172,4348,2,0,P|76:200|69:228,1,58.25
30,332,4561,6,0,P|13:309|2:259,1,77.4724968082315,2|0,3:1|0:0,0:0:0:0:
139,304,4773,2,0,P|138:275|159:228,1,77.4724968082315,0|0,3:0|0:0,0:0:0:0:
231,355,4985,2,0,P|247:331|291:305,1,77.4724968082315,8|0,0:0|0:0,0:0:0:0:
399,272,5198,2,0,P|426:261|476:266,1,77.4724968082315,2|0,3:1|0:0,0:0:0:0:
376,384,5410,6,0,L|353:320,1,58.25,0|0,3:1|0:0,0:0:0:0:
319,227,5622,1,2,0:0:0:0:
319,227,5728,1,0,0:0:0:0:
319,227,5835,2,0,L|292:149,1,77.4724968082315,8|0,0:0|0:0,0:0:0:0:
268,73,6047,1,2,0:0:0:0:
268,73,6153,1,0,0:0:0:0:
268,73,6260,2,0,L|247:7,1,58.25,0|0,3:1|0:0,0:0:0:0:
412,33,6472,6,0,P|450:33|484:50,1,77.4724968082315,2|0,0:0|0:0,0:0:0:0:
373,164,6684,2,0,P|353:130|351:92,1,77.4724968082315,10|0,0:0|0:0,0:0:0:0:
507,133,6896,2,0,P|487:166|455:187,1,77.4724968082315,2|0,3:1|0:0,0:0:0:0:
506,347,7109,6,0,P|486:313|454:292,1,77.4724968082315,2|0,3:1|0:0,0:0:0:0:
382,363,7319,1,2,0:0:0:0:
382,363,7424,1,0,0:0:0:0:
382,363,7530,2,2,L|143:354,1,233,8|0,0:0|3:0,0:0:0:0:
92,299,8056,5,0,0:0:0:0:
92,299,8161,2,0,L|70:224,1,77.4724968082315,2|0,0:0|0:0,0:0:0:0:
220,265,8372,2,0,L|166:320,1,77.4724968082315,8|0,0:0|0:0,0:0:0:0:
123,164,8582,2,0,L|198:182,1,77.4724968082315,2|0,3:1|0:0,0:0:0:0:
276,183,8793,6,0,P|291:158|298:130,1,58.25,2|0,3:1|0:0,0:0:0:0:
208,71,9003,2,0,P|218:97|220:126,1,58.25
123,164,9214,2,0,P|138:139|145:111,1,58.25,8|0,0:0|0:0,0:0:0:0:
58,53,9424,1,2,0:0:0:0:
58,53,9530,1,0,0:0:0:0:
58,53,9635,2,0,P|68:79|70:108,1,58.25,0|0,3:2|0:0,0:0:0:0:
12,229,9845,6,0,L|90:222,1,58.25,2|0,3:1|0:0,0:0:0:0:
174,215,10056,2,0,L|260:208,1,77.4724968082315,10|0,0:0|0:0,0:0:0:0:
349,200,10266,2,0,L|427:193,1,58.25,2|0,3:1|0:0,0:0:0:0:
471,384,10477,6,0,P|513:312|473:239,1,174.75,6|0,3:1|0:0,0:0:0:0:
407,194,10904,2,0,P|387:172|378:145,1,58.25,8|0,0:0|0:0,0:0:0:0:
378,66,11118,2,0,P|392:40|415:23,1,58.25
230,93,11331,6,0,P|268:89|305:101,1,77.4724968082315,2|0,3:1|0:0,0:0:0:0:
377,144,11545,2,0,P|416:148|452:136,1,77.4724968082315,2|0,3:1|0:0,0:0:0:0:
223,187,11759,2,0,P|261:183|298:195,1,77.4724968082315,10|0,0:1|0:0,0:0:0:0:
370,238,11973,2,0,P|409:242|445:230,1,77.4724968082315,2|0,3:1|0:0,0:0:0:0:
396,369,12186,6,0,L|323:363,1,58.25,0|0,3:2|0:0,0:0:0:0:
241,363,12400,1,2,0:0:0:0:
241,363,12506,1,0,0:0:0:0:
241,363,12613,2,0,L|161:357,1,77.4724968082315,10|0,0:0|0:0,0:0:0:0:
80,359,12827,1,0,0:0:0:0:
80,359,12934,1,0,0:0:0:0:
80,359,13041,2,0,L|1:352,1,77.4724968082315,0|0,3:2|0:0,0:0:0:0:
194,287,13254,6,0,P|226:271|256:238,1,77.4724968082315,2|0,0:0|0:0,0:0:0:0:
49,263,13468,2,0,P|81:284|118:292,1,77.4724968082315,10|0,0:0|0:0,0:0:0:0:
148,148,13682,2,0,L|151:225,1,77.4724968082315,2|0,3:1|0:0,0:0:0:0:
146,77,13895,6,0,L|142:0,1,77.4724968082315,2|0,3:1|0:0,0:0:0:0:
36,124,14109,1,2,0:0:0:0:
36,124,14216,1,0,0:0:0:0:
36,124,14323,2,2,P|149:114|268:117,1,233,8|0,0:0|3:0,0:0:0:0:
293,36,14857,5,0,0:0:0:0:
293,35,14964,2,0,P|325:15|364:14,1,77.4724968082315,2|0,0:0|0:0,0:0:0:0:
322,168,15177,2,0,P|288:149|268:116,1,77.4724968082315,10|0,0:0|0:0,0:0:0:0:
425,81,15391,2,0,P|425:119|407:153,1,77.4724968082315,2|0,3:1|0:0,0:0:0:0:
354,244,15605,6,0,P|338:269|332:298,1,58.25,2|0,3:1|0:0,0:0:0:0:
259,349,15818,2,0,P|248:322|246:294,1,58.25,0|0,0:1|0:0,0:0:0:0:
183,238,16032,2,0,P|167:262|161:291,1,58.25,8|0,0:1|0:0,0:0:0:0:
87,331,16246,1,2,0:0:0:0:
87,331,16353,1,0,0:0:0:0:
87,331,16459,2,0,P|76:304|74:276,1,58.25,0|0,3:1|0:0,0:0:0:0:
183,238,16673,6,0,P|218:252|255:246,1,77.4724968082315,2|0,0:0|0:0,0:0:0:0:
341,213,16887,2,0,P|366:183|372:146,1,77.4724968082315,10|0,0:0|0:0,0:0:0:0:
367,57,17100,2,0,P|347:24|313:6,1,77.4724968082315,2|0,3:1|0:0,0:0:0:0:
175,1,17314,6,0,L|186:90,1,77.4724968082315,6|0,3:1|0:0,0:0:0:0:
315,106,17528,2,0,L|304:195,1,77.4724968082315,2|0,0:0|0:0,0:0:0:0:
198,226,17742,2,0,L|209:315,1,77.4724968082315,10|0,0:0|0:0,0:0:0:0:
394,384,17956,2,0,P|316:378|239:374,1,154.944993616463,2|0,0:1|3:1,0:0:0:0:
207,302,18278,1,0,0:0:0:0:
207,302,18385,6,0,P|171:316|134:310,1,77.4724968082315,2|0,0:0|0:0,0:0:0:0:
47,276,18599,2,0,P|21:246|15:209,1,77.4724968082315,10|0,0:0|0:0,0:0:0:0:
22,120,18814,2,0,P|41:87|75:69,1,77.4724968082315,2|0,3:1|0:0,0:0:0:0:
312,3,19028,6,0,L|301:92,1,77.4724968082315,6|0,3:1|0:0,0:0:0:0:
165,110,19242,2,0,L|176:199,1,77.4724968082315,2|0,0:0|0:0,0:0:0:0:
321,229,19456,2,0,L|310:318,1,77.4724968082315,10|0,0:0|0:0,0:0:0:0:
118,377,19671,2,0,P|47:335|46:254,1,154.944993616463,2|0,0:0|3:0,0:0:0:0:
18,195,19992,5,0,0:0:0:0:
18,195,20099,2,0,L|11:101,1,58.25,2|0,0:0|0:0,0:0:0:0:
92,83,20314,2,0,L|87:24,1,58.25,10|0,0:0|0:0,0:0:0:0:
198,168,20528,2,0,L|193:109,1,58.25,2|0,3:1|0:0,0:0:0:0:
253,228,20742,6,0,L|442:249,1,174.75,6|0,3:1|0:0,0:0:0:0:
479,195,21171,2,0,P|506:145|491:90,1,116.5,8|0,0:0|0:0,0:0:0:0:
364,38,21492,1,0,0:0:0:0:
364,38,21599,2,0,L|349:168,2,116.5,2|0|8,3:1|3:0|0:0,0:0:0:0:
227,59,22242,2,0,P|199:108|214:163,1,116.5,2|0,0:0|3:0,0:0:0:0:
335,311,22671,1,2,0:0:0:0:
351,153,22885,2,0,L|364:38,1,116.5,8|2,0:0|0:0,0:0:0:0:
364,37,23314,5,2,3:1:0:0:
364,37,23421,1,0,0:0:0:0:
364,37,23528,1,0,0:0:0:0:
459,24,23742,1,10,0:1:0:0:
459,24,23849,1,0,0:0:0:0:
459,24,23956,1,2,0:0:0:0:
437,103,24171,6,0,P|415:187|428:273,1,174.75,6|0,3:1|0:0,0:0:0:0:
474,334,24600,2,0,P|489:359|512:377,1,58.25,8|0,0:0|0:0,0:0:0:0:
355,384,24815,2,0,P|385:365|403:338,1,58.25
500,249,25029,6,0,P|466:254|425:274,1,77.4724968082315,2|0,3:1|0:0,0:0:0:0:
464,152,25244,2,0,P|430:146|384:152,1,77.4724968082315,0|0,3:0|0:0,0:0:0:0:
495,57,25459,2,0,P|464:41|419:33,1,77.4724968082315,8|0,0:0|0:0,0:0:0:0:
314,32,25674,2,0,P|279:36|238:56,1,77.4724968082315,2|0,3:1|0:0,0:0:0:0:
143,2,25888,6,0,L|149:86,1,58.25,0|0,3:1|0:0,0:0:0:0:
158,150,26103,1,2,0:0:0:0:
158,150,26211,1,0,0:0:0:0:
158,150,26318,2,0,L|165:240,1,77.4724968082315,8|0,0:0|0:0,0:0:0:0:
170,318,26533,1,2,0:0:0:0:
170,318,26640,1,0,0:0:0:0:
170,318,26747,2,0,L|176:402,1,58.25,0|0,3:0|0:0,0:0:0:0:
306,287,26962,6,0,P|267:285|232:271,1,77.4724968082315,2|0,0:1|0:0,0:0:0:0:
352,140,27177,2,0,P|370:174|375:212,1,77.4724968082315,10|0,0:0|0:0,0:0:0:0:
197,181,27392,2,0,P|218:149|249:126,1,77.4724968082315,2|0,3:1|0:0,0:0:0:0:
183,55,27606,6,0,P|162:87|131:110,1,77.4724968082315,2|0,3:1|0:0,0:0:0:0:
88,29,27821,1,2,0:0:0:0:
88,29,27929,1,0,0:0:0:0:
88,29,28036,2,2,L|99:277,1,233,8|0,0:1|3:0,0:0:0:0:
12,271,28573,5,0,0:0:0:0:
12,271,28680,2,0,P|22:307|50:334,1,77.4724968082315,2|0,0:0|0:0,0:0:0:0:
149,333,28895,2,0,P|175:305|184:267,1,77.4724968082315,10|0,0:0|0:0,0:0:0:0:
135,183,29110,2,0,P|97:174|60:184,1,77.4724968082315,2|0,3:1|0:0,0:0:0:0:
184,267,29324,6,0,B|246:291|296:255|268:227|339:175|394:207,1,233,2|8,3:1|0:0,0:0:0:0:
360,278,29861,1,0,0:0:0:0:
360,278,29969,2,0,P|349:313|354:348,1,58.25,2|0,0:0|0:0,0:0:0:0:
452,366,30183,2,0,P|435:342|426:314,1,58.25,0|0,3:0|0:0,0:0:0:0:
511,248,30398,2,0,P|500:283|505:318,1,58.25
346,334,30613,6,0,L|261:329,1,77.4724968082315,10|0,0:0|0:0,0:0:0:0:
148,195,30828,2,0,P|186:185|223:195,1,77.4724968082315,2|0,3:1|0:0,0:0:0:0:
82,314,31042,2,0,L|-3:309,1,77.4724968082315,2|0,3:1|0:0,0:0:0:0:
181,342,31257,2,0,L|184:264,1,77.4724968082315,2|0,0:0|0:0,0:0:0:0:
191,113,31472,2,0,L|194:35,1,77.4724968082315,10|0,0:0|0:0,0:0:0:0:
91,240,31687,2,0,P|70:211|60:167,1,77.4724968082315,2|0,0:0|0:0,0:0:0:0:
277,253,31902,2,0,P|307:217|314:174,1,77.4724968082315,2|0,3:1|0:0,0:0:0:0:
270,39,32117,2,0,P|192:7|109:42,1,154.944993616463,2|8,3:1|0:0,0:0:0:0:
148,195,32439,1,0,0:0:0:0:
148,195,32547,2,0,P|188:203|228:194,1,77.4724968082315,2|0,3:1|0:0,0:0:0:0:
349,18,32762,6,0,L|360:84,1,58.25,0|0,3:1|0:0,0:0:0:0:
380,163,32977,1,2,0:0:0:0:
380,163,33085,1,0,0:0:0:0:
380,163,33192,2,0,L|392:239,1,77.4724968082315,8|0,0:0|0:0,0:0:0:0:
413,327,33407,1,2,0:0:0:0:
413,327,33515,1,0,0:0:0:0:
413,327,33622,2,0,L|426:397,1,58.25,0|0,3:0|0:0,0:0:0:0:
331,291,33837,6,0,P|308:261|267:240,1,77.4724968082315,2|0,0:1|0:0,0:0:0:0:
170,351,34052,2,0,P|207:346|246:321,1,77.4724968082315,10|0,0:0|0:0,0:0:0:0:
194,187,34267,2,0,P|179:221|181:267,1,77.4724968082315,2|0,3:1|0:0,0:0:0:0:
269,167,34482,6,0,P|260:148|261:85,1,77.4724968082315,2|0,3:1|0:0,0:0:0:0:
138,99,34697,1,2,0:0:0:0:
138,99,34805,1,0,0:0:0:0:
138,99,34912,2,2,B|240:88|240:88|255:83|255:83|272:85|272:85|369:75,1,233,8|0,0:0|3:0,0:0:0:0:
468,31,35450,5,0,0:0:0:0:
467,30,35558,2,0,P|480:65|477:105,1,77.4724968082315,2|0,3:1|0:0,0:0:0:0:
328,122,35773,2,0,P|314:86|317:47,1,77.4724968082315,10|0,0:0|0:0,0:0:0:0:
411,174,35988,2,0,L|426:281,1,77.4724968082315,2|0,3:1|0:0,0:0:0:0:
324,316,36203,6,0,P|296:325|267:328,1,58.25,2|0,3:1|0:0,0:0:0:0:
226,226,36418,2,0,P|250:240|278:249,1,58.25,2|0,0:0|0:0,0:0:0:0:
339,156,36633,2,0,P|311:165|282:168,1,58.25,8|0,0:0|0:0,0:0:0:0:
239,67,36848,1,2,0:0:0:0:
239,67,36955,1,0,0:0:0:0:
239,67,37063,2,0,P|263:81|291:90,1,58.25,0|0,3:1|0:0,0:0:0:0:
464,130,37278,6,0,P|443:97|413:73,1,77.4724968082315,2|0,0:0|0:0,0:0:0:0:
316,74,37493,2,0,P|280:59|241:58,1,77.4724968082315,10|0,0:0|0:0,0:0:0:0:
159,118,37708,2,0,P|121:127|89:148,1,77.4724968082315,2|0,3:1|0:0,0:0:0:0:
4,321,37923,6,0,L|93:328,1,77.4724968082315,6|0,3:1|0:0,0:0:0:0:
107,225,38140,2,0,L|196:218,1,77.4724968082315,2|0,0:0|0:0,0:0:0:0:
234,334,38357,2,0,L|323:341,1,77.4724968082315,10|0,0:0|0:0,0:0:0:0:
351,207,38575,2,0,L|517:199,1,154.944993616463,2|0,0:0|3:0,0:0:0:0:
464,130,38901,1,0,0:0:0:0:
464,130,39009,6,0,P|446:94|419:67,1,77.4724968082315,2|0,0:0|0:0,0:0:0:0:
322,58,39227,2,0,P|287:39|249:34,1,77.4724968082315,10|0,0:0|0:0,0:0:0:0:
161,86,39444,2,0,P|122:90|88:108,1,77.4724968082315,2|0,3:1|0:0,0:0:0:0:
5,330,39662,6,0,L|94:337,1,77.4724968082315,6|0,3:1|0:0,0:0:0:0:
111,212,39879,2,0,L|200:205,1,77.4724968082315,2|0,0:0|0:0,0:0:0:0:
244,356,40096,2,0,L|333:363,1,77.4724968082315,10|0,0:0|0:0,0:0:0:0:
346,193,40314,2,0,L|512:185,1,154.944993616463,2|0,0:0|3:0,0:0:0:0:
279,153,40640,5,0,0:0:0:0:
279,153,40749,2,0,P|298:131|324:117,1,58.25,2|0,0:0|0:0,0:0:0:0:
197,19,40966,2,0,L|204:77,1,58.25,10|0,0:0|0:0,0:0:0:0:
153,172,41183,2,0,P|127:159|98:155,1,58.25,2|0,3:1|0:0,0:0:0:0:
22,263,41401,6,0,L|16:76,1,174.75,6|0,3:1|0:0,0:0:0:0:
12,17,41832,2,0,P|66:-1|122:9,1,116.5,8|0,0:0|0:0,0:0:0:0:
191,61,42156,1,0,0:0:0:0:
191,61,42264,2,0,P|247:73|303:58,1,116.5,2|0,3:1|3:1,0:0:0:0:
422,10,42695,1,8,0:0:0:0:
397,133,42911,2,0,P|375:187|387:247,1,116.5,2|0,3:1|3:0,0:0:0:0:
384,242,43343,5,2,0:0:0:0:
384,242,43451,1,0,0:0:0:0:
384,242,43559,1,8,0:0:0:0:
444,355,43775,1,2,0:0:0:0:
444,355,43883,1,0,0:0:0:0:
444,355,43990,2,0,P|420:366|380:367,1,58.25,2|0,3:1|0:0,0:0:0:0:
328,323,44206,2,0,P|293:275|297:217,1,116.5,2|8,3:1|0:0,0:0:0:0:
346,161,44530,1,0,0:0:0:0:
346,161,44638,2,0,P|369:149|410:149,1,58.25,2|0,3:1|0:0,0:0:0:0:
269,146,44854,5,6,3:1:0:0:
269,146,44962,1,0,0:0:0:0:
269,146,45070,2,0,P|231:137|194:147,1,77.4724968082315
96,115,45286,1,10,0:1:0:0:
96,115,45394,1,0,0:0:0:0:
96,115,45502,2,0,P|87:152|97:189,1,77.4724968082315
65,280,45719,1,2,3:1:0:0:
65,280,45827,1,0,0:0:0:0:
65,280,45935,2,0,P|102:288|139:278,1,77.4724968082315,0|0,3:1|0:0,0:0:0:0:
238,311,46151,1,10,0:1:0:0:
238,311,46259,1,0,0:0:0:0:
238,311,46367,2,0,P|246:273|236:236,1,77.4724968082315,0|0,3:0|0:0,0:0:0:0:
103,342,46584,6,0,P|75:315|63:278,1,77.4724968082315,2|0,3:1|0:0,0:0:0:0:
210,259,46800,2,0,P|175:276|137:276,1,77.4724968082315,0|0,0:1|0:0,0:0:0:0:
164,131,47016,2,0,P|170:168|158:205,1,77.4724968082315,10|0,0:1|0:0,0:0:0:0:
28,135,47233,1,0,0:0:0:0:
28,135,47341,1,0,0:0:0:0:
28,135,47449,6,0,P|65:140|97:163,1,77.4724968082315,2|0,3:1|0:0,0:0:0:0:
191,29,47665,2,0,L|174:105,1,77.4724968082315,0|0,3:1|0:0,0:0:0:0:
227,191,47882,1,10,0:0:0:0:
227,191,47990,1,0,0:0:0:0:
227,191,48098,2,0,P|259:170|298:168,1,77.4724968082315,0|0,3:1|0:0,0:0:0:0:
427,274,48314,5,6,3:1:0:0:
427,274,48422,1,0,0:0:0:0:
427,274,48531,2,0,L|504:272,1,77.4724968082315
296,273,48747,1,10,0:1:0:0:
296,273,48855,1,0,0:0:0:0:
296,273,48964,2,0,L|218:274,1,77.4724968082315
466,192,49179,6,0,P|476:157|458:110,1,77.4724968082315,2|0,3:1|0:0,0:0:0:0:
252,124,49396,2,0,P|242:159|260:206,1,77.4724968082315,0|0,3:0|0:0,0:0:0:0:
363,324,49612,2,0,L|360:246,1,77.4724968082315,10|0,0:0|0:0,0:0:0:0:
352,53,49828,2,0,L|354:130,1,77.4724968082315,0|0,3:0|0:0,0:0:0:0:
268,300,50045,5,2,3:1:0:0:
268,300,50153,1,0,0:0:0:0:
268,300,50261,2,0,P|230:309|193:299,1,77.4724968082315
95,331,50477,1,10,0:1:0:0:
95,331,50585,1,0,0:0:0:0:
95,331,50693,2,0,P|86:294|96:257,1,77.4724968082315
131,179,50910,6,0,P|141:142|132:104,1,77.4724968082315,2|0,3:1|0:0,0:0:0:0:
201,214,51126,2,0,P|220:145|197:58,1,154.944993616463,0|10,3:1|0:0,0:0:0:0:
128,26,51450,1,0,0:0:0:0:
128,26,51559,2,0,L|16:23,1,77.4724968082315,0|0,3:1|0:0,0:0:0:0:
267,12,51775,5,6,3:1:0:0:
267,12,51883,1,0,0:0:0:0:
267,12,51991,2,0,L|354:14,1,77.4724968082315
380,130,52208,1,10,0:1:0:0:
380,130,52316,1,0,0:0:0:0:
380,130,52424,2,0,L|293:132,1,77.4724968082315
252,233,52640,1,2,3:1:0:0:
252,233,52748,1,0,0:0:0:0:
252,233,52856,2,0,L|339:235,1,77.4724968082315,0|0,3:0|0:0,0:0:0:0:
381,344,53073,1,10,0:1:0:0:
381,344,53181,1,0,0:0:0:0:
381,344,53289,2,0,L|294:346,1,77.4724968082315,0|0,3:0|0:0,0:0:0:0:
489,384,53505,6,0,P|501:356|488:309,1,77.4724968082315,2|0,3:1|0:0,0:0:0:0:
423,241,53722,2,0,P|411:204|424:168,1,77.4724968082315
482,90,53938,2,0,P|494:54|483:17,1,77.4724968082315,10|0,0:0|0:0,0:0:0:0:
388,52,54154,2,0,L|224:48,1,154.944993616463,0|2,0:0|3:1,0:0:0:0:
304,127,54479,1,0,0:0:0:0:
304,127,54587,2,0,L|302:214,1,77.4724968082315,0|0,3:1|0:0,0:0:0:0:
299,351,54803,2,0,L|300:273,1,77.4724968082315,10|0,0:0|0:0,0:0:0:0:
304,127,55019,2,0,L|305:49,1,77.4724968082315,0|0,3:0|0:0,0:0:0:0:
370,158,55236,6,2,P|300:201|234:153,1,174.750006666184,6|0,3:1|0:0,0:0:0:0:
212,69,55560,1,0,0:0:0:0:
212,69,55668,2,0,P|183:36|142:20,1,87.3750033330919,10|0,0:0|0:0,0:0:0:0:
125,200,55885,2,0,P|167:191|201:164,1,87.3750033330919
49,66,56101,2,0,P|35:107|45:152,1,87.3750033330919,2|0,3:1|0:0,0:0:0:0:
117,278,56317,1,0,0:0:0:0:
117,278,56425,1,0,0:0:0:0:
117,278,56533,2,0,P|124:320|111:361,1,87.3750033330919,10|0,0:0|0:0,0:0:0:0:
47,312,56750,6,2,L|249:319,1,174.750006666184,4|2,3:1|3:1,0:0:0:0:
291,249,57074,1,0,0:0:0:0:
291,249,57182,2,0,P|336:240|379:252,1,87.3750033330919
371,376,57399,2,0,P|326:385|283:373,1,87.3750033330919,10|0,0:0|0:0,0:0:0:0:
422,183,57615,2,2,P|339:157|253:172,1,174.750006666184,4|2,3:1|3:1,0:0:0:0:
455,257,57939,5,0,0:0:0:0:
455,257,58047,2,0,P|486:230|497:188,1,77.4724968082315
462,120,58264,2,0,P|423:106|381:118,1,77.4724968082315,10|0,0:0|0:0,0:0:0:0:
343,177,58480,2,0,P|350:217|381:247,1,77.4724968082315
512,58,58696,6,0,P|429:31|344:46,1,174.75,6|0,3:1|0:0,0:0:0:0:
322,151,59129,2,0,P|296:141|272:123,1,58.25,8|0,0:0|0:0,0:0:0:0:
251,0,59345,2,0,P|244:15|240:61,1,58.25
86,36,59562,6,0,P|123:24|162:24,1,77.4724968082315,2|0,3:1|0:0,0:0:0:0:
138,180,59779,2,0,P|161:149|192:126,1,77.4724968082315,0|0,3:0|0:0,0:0:0:0:
280,254,59995,2,0,P|279:215|291:179,1,77.4724968082315,8|0,0:0|0:0,0:0:0:0:
397,196,60212,2,0,P|397:234|386:271,1,77.4724968082315,2|0,0:0|0:0,0:0:0:0:
397,362,60428,5,0,3:0:0:0:
353,378,60537,1,0,3:0:0:0:
306,376,60645,1,2,3:1:0:0:
268,348,60753,1,0,3:0:0:0:
238,311,60862,1,8,3:1:0:0:
202,281,60970,1,0,3:0:0:0:
157,269,61078,1,2,3:1:0:0:
112,280,61186,1,0,3:0:0:0:
77,311,61295,2,0,P|48:319|13:317,1,58.25,0|0,3:0|0:0,0:0:0:0:
195,209,61511,6,0,P|213:187|225:135,1,77.4724968082315,2|0,3:1|0:0,0:0:0:0:
41,157,61728,2,0,P|51:183|90:219,1,77.4724968082315,10|0,0:0|0:0,0:0:0:0:
161,50,61945,2,0,P|132:45|81:61,1,77.4724968082315,2|0,3:1|0:0,0:0:0:0:
225,140,62161,6,0,P|254:145|305:129,1,77.4724968082315,2|0,3:1|0:0,0:0:0:0:
343,14,62378,1,2,0:0:0:0:
343,14,62486,1,0,0:0:0:0:
343,14,62594,2,2,B|322:73|322:73|336:252|335:242,1,233,10|0,0:0|3:0,0:0:0:0:
288,338,63136,1,0,0:0:0:0:
288,338,63244,2,0,P|252:346|198:328,1,77.4724968082315,2|0,3:1|0:0,0:0:0:0:
401,329,63461,2,0,P|437:328|486:299,1,77.4724968082315,10|0,0:0|0:0,0:0:0:0:
335,242,63677,2,0,L|329:154,1,77.4724968082315,2|0,3:1|0:0,0:0:0:0:
418,36,63894,5,0,3:0:0:0:
459,48,64002,1,0,3:0:0:0:
492,90,64111,1,2,3:1:0:0:
458,132,64218,1,0,3:0:0:0:
418,144,64327,1,8,3:1:0:0:
459,155,64435,1,0,3:0:0:0:
492,198,64544,1,2,3:1:0:0:
461,242,64651,1,0,3:0:0:0:
418,252,64760,2,0,P|400:269|388:299,1,58.25,0|0,3:0|0:0,0:0:0:0:
482,384,64977,6,0,L|423:380,1,58.25,2|0,3:1|0:0,0:0:0:0:
340,375,65194,2,0,L|263:368,1,77.4724968082315,10|0,0:1|0:0,0:0:0:0:
181,363,65410,2,0,L|122:359,1,58.25,2|0,3:1|0:0,0:0:0:0:
40,354,65627,6,0,P|1:278|26:196,1,174.75,6|0,3:1|0:0,0:0:0:0:
35,119,66062,2,0,P|41:89|38:59,1,58.25,8|0,0:0|0:0,0:0:0:0:
105,174,66280,2,0,P|136:160|159:137,1,58.25
163,29,66497,6,0,P|204:5|250:1,1,77.4724968082315,2|0,3:1|0:0,0:0:0:0:
350,39,66715,2,0,P|385:70|403:113,1,77.4724968082315,0|0,3:0|0:0,0:0:0:0:
398,219,66933,2,0,P|378:262|344:292,1,77.4724968082315,8|0,0:0|0:0,0:0:0:0:
241,320,67150,2,0,P|193:315|154:291,1,77.4724968082315,2|0,3:1|0:0,0:0:0:0:
96,201,67368,5,0,3:1:0:0:
106,155,67477,1,0,3:1:0:0:
137,120,67586,1,2,3:1:0:0:
182,111,67695,1,0,3:1:0:0:
225,127,67804,1,8,3:1:0:0:
256,160,67912,1,0,3:1:0:0:
267,204,68021,1,2,3:1:0:0:
249,247,68130,1,0,3:1:0:0:
216,279,68239,2,0,P|189:280|149:265,1,58.25,0|0,3:1|0:1,3:1:0:0:
137,120,68457,6,0,P|145:99|185:63,1,58.25,2|0,3:1|0:0,0:0:0:0:
265,53,68674,2,0,B|296:52|296:52|305:54|305:54|316:51|316:51|342:49,1,77.4724968082315,10|0,0:0|0:0,0:0:0:0:
436,54,68892,2,0,P|461:70|489:106,1,58.25,2|0,3:1|0:0,0:0:0:0:
308,141,69110,6,0,L|312:218,1,77.4724968082315,2|0,3:1|0:0,0:0:0:0:
405,289,69328,1,2,0:0:0:0:
405,289,69436,1,0,0:0:0:0:
405,289,69545,2,2,P|312:230|223:294,1,233,8|0,0:0|3:0,0:1:0:0:
260,383,70089,1,0,0:0:0:0:
260,383,70198,2,0,L|399:378,1,116.5,2|8,3:1|0:0,0:0:0:0:
460,352,70525,1,0,0:0:0:0:
460,352,70634,2,0,P|482:325|484:288,1,58.25,2|0,3:1|0:0,0:0:0:0:
455,230,70851,6,0,B|472:147|443:62|443:62|435:99|415:120,1,233,2|8,3:1|0:0,0:0:0:0:
361,56,71396,1,0,0:0:0:0:
361,56,71505,2,0,P|335:45|300:39,1,58.25,2|0,0:0|0:0,0:0:0:0:
166,130,71722,1,0,3:0:0:0:
166,130,71831,1,0,0:0:0:0:
166,130,71940,6,0,P|127:141|77:127,1,77.4724968082315,2|0,3:1|0:0,0:0:0:0:
256,0,72158,2,0,L|256:91,1,77.4724968082315,10|0,0:0|0:0,0:0:0:0:
345,129,72375,2,0,P|382:140|420:134,1,77.4724968082315,2|0,3:1|0:0,0:0:0:0:
387,283,72593,5,6,3:1:0:0:
366,275,72702,1,0,0:0:0:0:
311,279,72811,5,2,0:0:0:0:
290,271,72920,1,0,0:0:0:0:
236,275,73029,5,10,0:0:0:0:
215,267,73138,1,0,0:0:0:0:
161,271,73246,5,2,0:0:0:0:
140,263,73355,1,0,0:0:0:0:
86,267,73464,6,0,P|60:256|36:232,1,58.25,0|0,3:0|0:0,0:0:0:0:
166,63,73682,6,0,P|127:52|77:66,1,77.4724968082315,2|0,3:1|0:0,0:0:0:0:
256,193,73899,2,0,L|256:102,1,77.4724968082315,10|0,0:0|0:0,0:0:0:0:
345,63,74117,2,0,P|381:52|419:58,1,77.4724968082315,2|0,3:1|0:0,0:0:0:0:
435,258,74335,5,6,3:1:0:0:
409,242,74444,1,0,0:0:0:0:
342,261,74553,5,2,0:0:0:0:
317,247,74661,1,0,0:0:0:0:
251,266,74771,5,10,0:0:0:0:
227,251,74879,1,0,0:0:0:0:
161,271,74988,5,2,0:0:0:0:
137,255,75096,1,0,0:0:0:0:
71,276,75206,6,0,P|43:268|21:249,1,58.25,0|0,3:0|0:0,0:0:0:0:
176,174,75423,6,0,L|172:101,1,58.25,2|0,3:1|0:0,0:0:0:0:
87,201,75641,2,0,L|83:128,1,58.25,10|0,0:1|0:0,0:0:0:0:
262,194,75859,2,0,L|258:121,1,58.25,2|0,3:1|0:0,0:0:0:0:
97,29,76076,6,0,P|34:47|14:149,1,174.75,4|0,3:1|0:0,0:0:0:0:
87,201,76512,2,0,P|110:255|101:311,1,116.5,8|0,0:0|0:0,0:0:0:0:
21,365,76838,1,0,0:0:0:0:
21,365,76947,2,0,P|-1:311|7:255,2,116.5,2|0|8,3:1|3:0|0:0,0:0:0:0:
87,201,77600,1,2,3:1:0:0:
168,362,77818,2,0,P|198:345|231:343,1,58.25,0|0,3:1|0:0,0:0:0:0:
296,370,78036,1,0,0:0:0:0:
296,370,78145,1,0,0:0:0:0:
296,370,78253,2,0,P|324:365|349:350,1,58.25,8|0,0:0|0:0,0:0:0:0:
512,383,78471,6,2,P|381:373|-8:363,1,524.250019998551,6|8,3:1|0:0,0:1:0:0:
421,273,79342,1,0,3:0:0:0:
267,113,79560,6,0,P|258:173|257:297,1,174.750006666184,6|8,3:1|0:0,0:0:0:0:
256,286,80211,1,2,0:0:0:0:
177,190,80428,6,0,L|168:103,1,77.4724968082315,2|0,3:1|0:0,0:0:0:0:
351,236,80645,2,0,L|360:149,1,77.4724968082315,2|0,3:1|0:0,0:0:0:0:
168,292,80862,2,0,L|160:214,1,77.4724968082315,10|0,0:0|0:0,0:0:0:0:
268,334,81079,6,0,P|271:235|272:54,1,262.125009999276,2|8,3:1|0:0,0:0:0:0:
272,71,82164,1,0,3:0:0:0:
272,71,82273,1,0,0:0:0:0:
272,71,82381,1,0,3:0:0:0:
202,115,82599,1,8,0:0:0:0:
202,115,82708,1,0,0:0:0:0:
202,115,82816,1,0,3:0:0:0:
367,19,83033,5,6,3:1:0:0:
423,30,83141,1,2,3:1:0:0:
478,39,83250,1,2,3:1:0:0:
444,81,83358,5,2,3:1:0:0:
387,69,83466,1,10,3:1:0:0:
332,60,83575,1,2,3:1:0:0:
353,109,83684,5,2,3:1:0:0:
408,122,83792,1,2,3:1:0:0:
465,135,83901,1,2,3:1:0:0:
429,175,84010,5,2,3:1:0:0:
373,164,84118,1,2,3:1:0:0:
324,155,84227,1,2,3:1:0:0:
339,211,84335,5,10,3:1:0:0:
396,222,84443,1,2,3:1:0:0:
361,268,84552,1,2,3:1:0:0:
512,271,84769,6,0,P|260:210|0:188,1,524.250019998551,6|8,3:1|0:0,0:0:0:0:
0,188,86506,6,0,P|58:184|188:163,1,174.750006666184,6|8,3:1|0:0,0:0:0:0:
173,166,87157,1,2,0:0:0:0:
202,65,87374,6,0,L|114:97,1,77.4724968082315,2|0,3:1|0:0,0:0:0:0:
242,261,87591,2,0,L|143:245,1,77.4724968082315,2|0,3:1|0:0,0:0:0:0:
279,96,87808,2,0,L|196:81,1,77.4724968082315,10|0,0:1|0:0,0:0:0:0:
249,285,88025,6,0,P|315:250|498:177,1,262.125009999276,2|8,3:1|0:0,0:0:0:0:
488,179,89111,5,0,3:0:0:0:
488,179,89219,1,0,0:0:0:0:
488,179,89328,1,0,3:0:0:0:
416,126,89545,1,8,0:0:0:0:
416,126,89653,1,0,0:0:0:0:
416,126,89762,1,0,3:0:0:0:
269,20,89979,5,6,3:1:0:0:
211,30,90088,1,2,3:1:0:0:
154,41,90196,1,2,3:1:0:0:
192,82,90305,5,2,3:1:0:0:
250,71,90414,1,10,3:1:0:0:
307,60,90522,1,2,3:1:0:0:
284,111,90630,5,2,3:1:0:0:
225,124,90739,1,2,3:1:0:0:
164,132,90847,1,2,3:1:0:0:
202,176,90956,5,2,3:1:0:0:
264,165,91065,1,2,3:1:0:0:
320,156,91173,1,2,3:1:0:0:
293,209,91282,5,10,3:1:0:0:
238,221,91391,1,2,3:1:0:0:
277,268,91499,1,2,3:1:0:0:
137,376,91716,6,0,P|214:364|499:332,1,349.500013332367,6|0,3:1|3:0,0:0:0:0:
483,333,92801,6,0,P|439:321|380:310,1,77.4724968082315,2|0,3:1|0:0,0:0:0:0:
487,228,93018,2,0,L|396:231,1,77.4724968082315,10|0,0:0|0:0,0:0:0:0:
480,124,93235,2,0,P|435:136|376:147,1,77.4724968082315,2|0,3:1|0:0,0:0:0:0:
285,57,93452,5,6,3:1:0:0:
213,90,93561,1,0,0:0:0:0:
183,155,93670,1,2,0:0:0:0:
221,223,93779,1,0,0:0:0:0:
294,243,93889,1,10,0:0:0:0:
343,304,93998,1,0,0:0:0:0:
302,371,94107,1,6,0:0:0:0:
271,371,94217,1,0,0:0:0:0:
240,371,94326,1,0,3:1:0:0:
209,371,94435,1,0,0:0:0:0:
146,340,94545,6,0,P|108:348|70:358,1,77.4724968082315,2|0,3:1|0:0,0:0:0:0:
141,253,94762,2,0,L|63:255,1,77.4724968082315,10|0,0:0|0:0,0:0:0:0:
142,168,94982,2,0,P|104:159|66:149,1,77.4724968082315,2|0,3:1|0:0,0:0:0:0:
257,57,95201,5,6,3:1:0:0:
329,90,95310,1,0,0:0:0:0:
359,155,95419,1,2,0:0:0:0:
321,223,95528,1,0,0:0:0:0:
248,243,95638,1,10,0:0:0:0:
199,304,95747,1,0,0:0:0:0:
240,371,95857,1,6,0:0:0:0:
271,371,95966,1,0,0:0:0:0:
302,371,96075,1,0,3:1:0:0:
333,371,96184,1,0,0:0:0:0:
408,364,96294,6,0,P|437:369|471:382,1,58.25,2|0,3:1|0:0,0:0:0:0:
417,275,96513,2,0,P|452:274|490:279,1,58.25,10|0,0:0|0:0,0:0:0:0:
413,185,96731,2,0,P|453:173|478:170,1,58.25,2|0,3:1|0:0,0:0:0:0:
405,90,96950,6,0,P|318:80|231:73,1,174.75,6|0,3:1|0:0,0:0:0:0:
152,90,97386,2,0,L|139:186,1,58.25,8|0,0:0|0:0,0:0:0:0:
75,78,97604,2,0,L|67:135,1,58.25
97,210,97822,1,2,3:1:0:0:
123,19,98040,1,0,3:1:0:0:
13,203,98258,1,10,0:0:0:0:
125,0,98476,1,0,3:1:0:0:
178,219,98694,2,0,B|145:240|145:240|42:232|42:232|12:206,1,174.75,0|0,3:1|0:0,0:0:0:0:
113,102,99130,2,0,L|108:161,1,58.25,8|0,0:0|0:0,0:0:0:0:
85,335,99348,5,0,3:1:0:0:
115,351,99457,1,0,3:1:0:0:
149,356,99566,1,2,3:1:0:0:
182,346,99675,1,0,3:1:0:0:
211,326,99784,1,2,3:1:0:0:
234,299,99893,1,0,3:1:0:0:
258,274,100002,1,8,3:1:0:0:
290,261,100111,1,0,3:1:0:0:
324,261,100220,1,2,3:1:0:0:
356,273,100329,1,0,3:1:0:0:
380,296,100438,6,0,P|419:303|455:291,1,77.4724968082315,6|0,3:1|0:0,0:0:0:0:
400,144,100654,1,0,0:0:0:0:
400,144,100762,1,0,0:0:0:0:
400,144,100870,2,0,L|411:249,1,77.4724968082315,10|0,0:0|0:0,0:0:0:0:
421,63,101086,1,0,0:0:0:0:
421,63,101194,1,0,0:0:0:0:
421,63,101302,2,0,P|382:56|346:68,1,77.4724968082315,2|0,3:1|0:0,0:0:0:0:
245,200,101518,1,0,3:0:0:0:
245,200,101626,1,0,0:0:0:0:
245,200,101734,2,0,L|351:191,1,77.4724968082315,10|0,0:0|0:0,0:0:0:0:
400,144,101950,2,0,L|477:137,1,77.4724968082315,0|0,3:0|0:0,0:0:0:0:
245,55,102167,6,0,P|269:79|285:121,1,77.4724968082315,2|0,3:1|0:0,0:0:0:0:
196,197,102383,2,0,P|206:160|201:121,1,77.4724968082315
55,124,102599,2,0,P|92:130|124:152,1,77.4724968082315,10|0,0:1|0:0,0:0:0:0:
105,273,102815,1,0,0:0:0:0:
105,273,102923,1,0,0:0:0:0:
105,273,103031,6,0,P|91:236|65:208,1,77.4724968082315,2|0,3:1|0:0,0:0:0:0:
174,355,103247,2,0,L|181:277,1,77.4724968082315,0|0,3:1|0:0,0:0:0:0:
303,219,103463,1,10,0:0:0:0:
303,219,103572,1,0,0:0:0:0:
303,219,103680,2,0,P|277:247|264:284,1,77.4724968082315,0|0,3:1|0:0,0:0:0:0:
348,377,103896,6,2,B|502:334|497:335,1,154.944993616463,2|0,3:1|0:0,0:1:0:0:
362,295,104220,1,0,0:0:0:0:
362,295,104328,2,0,L|450:270,1,77.4724968082315,10|0,0:0|0:0,0:0:0:0:
413,189,104544,2,0,L|325:214,1,77.4724968082315,0|0,0:0|0:0,0:1:0:0:
426,99,104760,2,0,B|430:97|276:140,1,154.944993616463,2|0,3:1|3:0,0:2:0:0:
243,59,105084,1,0,0:0:0:0:
243,59,105193,2,0,P|209:78|191:113,1,77.4724968082315,10|0,0:0|0:0,0:0:0:0:
263,233,105409,2,0,P|226:219|202:188,1,77.4724968082315,0|0,3:0|0:0,0:0:0:0:
202,313,105625,6,0,P|264:269|341:269,1,154.944993616463,2|0,3:1|0:0,0:0:0:0:
299,364,105949,1,0,0:0:0:0:
299,364,106057,2,0,L|68:329,1,232.417490424694,10|0,0:0|0:0,0:0:0:0:
231,134,106489,6,0,P|218:104|176:71,1,77.4724968082315,2|0,3:1|0:0,0:0:0:0:
45,181,106706,2,0,P|57:210|99:243,1,77.4724968082315,0|0,3:1|0:0,0:0:0:0:
114,65,106922,2,0,P|84:77|51:119,1,77.4724968082315,10|0,0:0|0:0,0:0:0:0:
162,250,107139,2,0,P|191:237|224:195,1,77.4724968082315,0|0,3:1|0:0,0:0:0:0:
281,45,107354,5,6,3:1:0:0:
281,45,107463,1,0,0:0:0:0:
280,45,107572,2,0,P|316:31|354:34,1,77.4724968082315
507,146,107790,1,10,0:1:0:0:
507,146,107899,1,0,0:0:0:0:
508,146,108008,2,0,P|471:159|433:156,1,77.4724968082315
285,251,108226,1,2,3:1:0:0:
285,251,108335,1,0,0:0:0:0:
284,251,108444,2,0,P|320:237|358:240,1,77.4724968082315,0|0,3:0|0:0,0:0:0:0:
511,352,108662,1,10,0:1:0:0:
511,352,108771,1,0,0:0:0:0:
512,352,108880,2,0,P|475:365|437:362,1,77.4724968082315,0|0,3:0|0:0,0:0:0:0:
281,328,109099,6,0,L|293:159,1,154.944993616463,2|0,3:1|0:0,0:0:0:0:
338,74,109426,1,0,0:0:0:0:
338,74,109535,2,0,B|300:57|300:57|260:68,1,77.4724968082315,10|0,0:0|0:0,0:0:0:0:
214,158,109754,2,0,L|380:170,1,154.944993616463,0|2,0:0|3:1,0:0:0:0:
303,5,110081,1,0,0:0:0:0:
303,5,110190,2,0,L|299:90,1,77.4724968082315,0|0,3:1|0:0,0:0:0:0:
291,173,110408,2,0,L|287:258,1,77.4724968082315,10|0,0:0|0:0,0:0:0:0:
287,250,110844,6,2,P|276:161|261:-11,1,262.125009999276,6|0,3:1|0:0,3:1:0:0:
188,134,111272,6,0,L|100:140,1,77.4724968082315,8|0,3:1|0:0,0:0:0:0:
324,250,111486,6,0,L|412:244,1,77.4724968082315,0|0,3:1|0:0,0:0:0:0:
173,115,111701,6,0,L|85:121,1,77.4724968082315,8|0,3:1|0:0,0:0:0:0:
339,269,111915,6,0,L|427:263,1,77.4724968082315,0|0,3:0|0:0,0:0:0:0:
158,96,112129,6,0,L|70:102,1,77.4724968082315,8|0,3:1|0:0,0:0:0:0:
354,288,112344,6,0,L|431:282,1,77.4724968082315,2|0,3:1|0:0,0:0:0:0:
62,207,112558,6,0,L|161:198,1,77.4724968082315,12|0,3:1|0:0,0:0:0:0:
450,177,112772,6,0,L|363:188,1,77.4724968082315,0|0,3:1|0:0,0:0:0:0:
17,189,112986,6,0,L|127:203,1,77.4724968082315,8|0,3:1|0:0,0:0:0:0:
486,198,113201,6,0,L|370:187,1,77.4724968082315,6|0,3:1|0:0,0:0:0:0:
86,353,113415,6,0,L|73:263,1,77.4724968082315,8|0,3:1|0:0,0:0:0:0:
426,31,113629,6,0,L|439:121,1,77.4724968082315,10|0,3:1|0:0,0:0:0:0:
449,368,113844,6,0,L|352:357,1,77.4724968082315,10|0,3:1|0:0,0:0:0:0:
63,16,114058,6,0,L|160:27,1,77.4724968082315,10|0,3:1|0:0,0:0:0:0:
256,384,114272,6,0,B|215:302|298:302|256:218,1,174.75,6|0,3:1|0:0,0:0:0:0:
188,172,114706,2,0,P|168:151|161:123,1,58.25,10|0,0:0|0:0,0:0:0:0:
261,137,114924,2,0,P|254:108|235:88,1,58.25
323,347,115141,6,0,P|363:333|394:294,1,77.4724968082315,2|0,3:1|0:0,0:0:0:0:
388,117,115358,2,0,P|355:89|306:82,1,77.4724968082315,0|0,3:0|0:0,0:0:0:0:
167,183,115576,2,0,P|159:224|177:270,1,77.4724968082315,8|0,0:0|0:0,0:0:0:0:
432,250,115793,2,0,P|439:208|421:162,1,77.4724968082315,2|0,3:1|0:0,0:0:0:0:
292,59,116011,5,0,3:1:0:0:
236,54,116119,1,0,3:1:0:0:
183,70,116228,1,2,3:1:0:0:
151,116,116337,1,0,3:1:0:0:
132,167,116445,1,8,3:1:0:0:
135,222,116554,1,0,3:1:0:0:
159,271,116663,1,2,3:1:0:0:
203,305,116772,1,0,3:1:0:0:
257,309,116880,1,0,3:1:0:0:
309,288,116989,1,0,3:1:0:0:
349,250,117098,6,0,P|361:231|413:199,1,77.4724968082315,2|0,3:1|0:0,0:0:0:0:
261,125,117315,2,0,L|248:202,1,77.4724968082315,10|0,0:0|0:0,0:0:0:0:
135,222,117532,2,0,P|119:193|84:163,1,77.4724968082315,2|0,3:1|0:0,0:0:0:0:
156,297,117750,6,0,P|158:335|147:372,1,77.4724968082315,2|0,3:1|0:0,0:0:0:0:
56,323,117967,1,2,0:0:0:0:
56,323,118076,1,0,0:0:0:0:
56,323,118185,2,2,L|230:327,1,174.75,8|0,0:0|0:0,0:0:0:0:
304,276,118619,1,0,3:0:0:0:
304,276,118728,1,0,0:0:0:0:
304,276,118837,2,0,B|312:292|312:292|387:297,1,77.4724968082315,2|0,3:1|0:0,0:0:0:0:
294,384,119054,2,0,B|303:369|303:369|378:373,1,77.4724968082315,10|0,0:0|0:0,0:0:0:0:
510,346,119272,2,0,L|432:339,1,77.4724968082315,2|0,3:1|0:0,0:0:0:0:
359,227,119489,5,0,3:1:0:0:
363,166,119598,1,0,3:1:0:0:
368,105,119706,1,2,3:1:0:0:
311,80,119816,1,0,3:1:0:0:
256,55,119925,1,8,3:1:0:0:
213,98,120033,1,0,3:1:0:0:
171,142,120142,1,2,3:1:0:0:
197,196,120250,1,0,3:1:0:0:
224,253,120359,1,0,3:1:0:0:
283,246,120467,1,0,3:1:0:0:
338,237,120576,6,0,P|374:220|412:216,1,77.4724968082315,2|0,3:1|0:0,0:0:0:0:
253,147,120793,2,0,P|272:112|301:86,1,77.4724968082315,10|0,0:1|0:0,0:0:0:0:
148,122,121011,2,0,P|142:82|151:44,1,77.4724968082315,2|0,3:1|0:0,0:0:0:0:
71,0,121228,6,0,P|41:73|56:162,1,174.75,6|0,3:1|0:0,0:0:0:0:
2,295,121663,2,0,L|24:242,1,58.25,8|0,0:0|0:0,0:0:0:0:
156,261,121880,2,0,L|121:215,1,58.25
58,382,122098,6,0,L|149:369,1,77.4724968082315,2|0,3:1|0:0,0:0:0:0:
238,355,122315,2,0,L|329:342,1,77.4724968082315,0|0,3:1|0:0,0:0:0:0:
393,225,122532,2,0,L|302:212,1,77.4724968082315,8|0,0:1|0:0,0:0:0:0:
220,97,122750,2,0,L|311:84,1,77.4724968082315,2|0,3:1|0:0,0:0:0:0:
366,256,122967,5,0,3:1:0:0:
360,320,123076,1,0,3:1:0:0:
313,362,123185,1,0,3:1:0:0:
253,338,123293,1,0,3:1:0:0:
227,280,123402,1,8,3:1:0:0:
208,339,123511,1,0,3:1:0:0:
157,374,123619,1,0,3:1:0:0:
102,340,123728,1,0,3:1:0:0:
77,288,123837,1,0,3:1:0:0:
55,345,123945,1,0,3:1:0:0:
9,383,124054,6,0,P|45:367|77:335,1,77.4724968082315,2|0,3:1|0:0,0:0:0:0:
97,246,124272,2,0,P|116:211|123:167,1,77.4724968082315,10|0,0:0|0:0,0:0:0:0:
74,106,124489,2,0,P|69:66|49:26,1,77.4724968082315,2|0,3:1|0:0,0:0:0:0:
180,110,124706,6,0,P|195:74|220:44,1,77.4724968082315,2|0,3:1|0:0,0:0:0:0:
210,201,124924,1,2,0:0:0:0:
210,201,125032,1,0,0:0:0:0:
210,201,125141,2,2,B|244:187|244:187|441:212,1,233,8|0,0:0|3:0,0:1:0:0:
402,112,125685,1,0,0:0:0:0:
402,112,125793,2,2,P|349:132|320:181,1,116.5,2|8,3:1|0:0,0:1:0:0:
483,69,126119,1,0,0:0:0:0:
483,69,126228,2,0,P|492:90|496:127,1,58.25,2|0,3:1|0:0,0:0:0:0:
395,24,126445,6,0,L|198:19,1,174.75,0|0,3:1|0:0,0:0:0:0:
220,19,126880,1,8,0:0:0:0:
10,17,127098,1,0,0:0:0:0:
115,192,127315,1,0,3:0:0:0:
47,313,127532,6,0,P|81:296|109:269,1,77.4724968082315,2|0,3:1|0:0,0:0:0:0:
231,272,127750,2,0,P|226:233|209:199,1,77.4724968082315,10|0,0:1|0:0,0:0:0:0:
256,102,127967,2,0,P|218:94|179:100,1,77.4724968082315,2|0,3:1|0:0,0:0:0:0:
25,101,128185,5,6,3:1:0:0:
27,116,128294,1,0,0:0:0:0:
103,125,128404,5,2,0:0:0:0:
95,138,128513,1,0,0:0:0:0:
149,191,128624,5,10,0:1:0:0:
134,196,128733,1,0,0:1:0:0:
140,270,128844,5,2,0:0:0:0:
124,265,128953,1,0,0:0:0:0:
108,260,129064,1,0,3:0:0:0:
92,255,129174,1,0,0:0:0:0:
38,314,129283,5,2,3:1:0:0:
84,373,129393,1,0,3:1:0:0:
160,369,129503,1,10,3:1:0:0:
219,316,129613,1,0,3:1:0:0:
261,251,129723,1,2,3:1:0:0:
335,237,129833,1,0,3:1:0:0:
401,267,129943,5,4,3:1:0:0:
403,254,130053,1,0,0:0:0:0:
480,265,130163,5,2,0:0:0:0:
474,254,130273,1,0,0:0:0:0:
506,192,130382,5,10,0:0:0:0:
495,187,130492,1,0,0:0:0:0:
501,113,130602,5,2,0:0:0:0:
490,116,130712,1,0,0:0:0:0:
479,119,130822,1,0,3:2:0:0:
468,122,130932,1,0,0:0:0:0:
406,80,131042,5,2,3:1:0:0:
354,62,131152,1,0,3:1:0:0:
299,73,131261,1,10,3:1:0:0:
257,105,131371,1,0,3:1:0:0:
214,133,131481,1,2,3:1:0:0:
161,120,131591,1,0,3:1:0:0:
77,54,131701,6,0,B|92:33|92:33|240:38,1,174.75,6|0,3:1|0:0,0:0:0:0:
322,43,132141,2,0,P|343:103|325:164,1,116.5,8|0,0:0|0:0,0:0:0:0:
298,240,132470,1,0,0:0:0:0:
298,240,132580,2,0,P|274:292|274:350,1,116.5,2|0,3:1|3:0,0:0:0:0:
457,307,133020,1,8,0:0:0:0:
298,240,133239,2,0,P|245:216|187:216,1,116.5,2|0,3:1|3:0,0:0:0:0:
187,215,133679,5,0,0:0:0:0:
187,215,133789,1,0,0:0:0:0:
187,215,133899,1,8,0:0:0:0:
302,364,134119,1,0,0:0:0:0:
346,380,134228,1,0,0:0:0:0:
393,368,134338,1,0,3:0:0:0:
426,328,134448,1,0,3:0:0:0:
430,280,134558,1,2,3:1:0:0:
404,235,134668,1,0,3:0:0:0:
357,215,134778,1,10,3:1:0:0:
305,234,134888,1,0,3:0:0:0:
273,273,134998,2,0,P|266:298|266:332,1,58.25,2|0,3:1|3:0,0:0:0:0:
178,376,135217,6,0,P|167:289|194:207,1,174.75,2|0,3:1|0:0,0:0:0:0:
238,139,135654,2,0,P|256:73|229:12,1,116.5,8|0,0:0|0:0,0:0:0:0:
166,87,135983,1,0,0:0:0:0:
166,87,136092,2,0,L|333:89,1,116.5,2|2,3:1|3:1,0:0:0:0:
471,95,136530,1,8,0:0:0:0:
282,88,136749,2,0,L|166:87,1,116.5,2|2,3:1|3:1,0:0:0:0:
166,87,137187,5,0,0:0:0:0:
166,87,137297,1,0,0:0:0:0:
166,87,137406,1,8,0:0:0:0:
215,212,137625,1,0,0:0:0:0:
215,212,137735,1,0,0:0:0:0:
215,212,137844,1,0,3:1:0:0:
261,186,137954,1,0,3:0:0:0:
312,167,138063,5,2,3:1:0:0:
356,199,138173,1,0,3:1:0:0:
411,210,138282,1,10,3:1:0:0:
460,184,138392,1,0,3:1:0:0:
478,131,138501,1,2,3:1:0:0:
461,76,138611,1,0,3:1:0:0:
407,59,138720,5,6,3:1:0:0:
374,115,138830,1,0,3:1:0:0:
395,176,138939,1,0,3:1:0:0:
451,207,139049,1,0,3:1:0:0:
482,264,139158,1,8,3:1:0:0:
455,324,139268,1,0,3:1:0:0:
396,352,139377,1,0,3:1:0:0:
335,328,139487,1,0,3:1:0:0:
306,270,139596,5,6,3:1:0:0:
373,236,139706,1,0,3:1:0:0:
363,162,139815,1,2,3:1:0:0:
290,145,139925,1,0,3:1:0:0:
252,208,140034,1,10,3:1:0:0:
179,187,140144,1,0,3:1:0:0:
177,113,140253,1,6,3:1:0:0:
247,88,140362,1,0,3:1:0:0:
293,148,140472,1,12,3:1:0:0:
256,192,140580,12,0,149085,0:0:0:0:
