osu file format v14

[General]
AudioFilename: audio.mp3
AudioLeadIn: 0
PreviewTime: 9845
Countdown: 0
SampleSet: Normal
StackLeniency: 0.4
Mode: 0
LetterboxInBreaks: 0
WidescreenStoryboard: 1

[Editor]
Bookmarks: 35988,117315
DistanceSpacing: 1.2
BeatDivisor: 4
GridSize: 8
TimelineZoom: 2.1

[Metadata]
Title:A Hard Day's Night
TitleUnicode:A Hard Day's Night
Artist:The Beatles
ArtistUnicode:The Beatles
Creator:Apo11o
Version:Resp's Insane
Source:A Hard Day's Night
Tags:english pop rock respirte fsjallink mismagius blue dragon john lennon paul mccartney george harrison ringo starr days
BeatmapID:3693365
BeatmapSetID:1786226

[Difficulty]
HPDrainRate:5
CircleSize:4.2
OverallDifficulty:8
ApproachRate:8
SliderMultiplier:2
SliderTickRate:1

[Events]
//Background and Video events
0,0,"hard day's night.jpg",0,0
//Break Periods
//Storyboard Layer 0 (Background)
//Storyboard Layer 1 (Fail)
//Storyboard Layer 2 (Pass)
//Storyboard Layer 3 (Foreground)
//Storyboard Layer 4 (Overlay)
//Storyboard Sound Samples

[TimingPoints]
556,500,4,1,2,37,1,0
556,-76.9230769230769,4,1,2,37,0,0
3056,437.956204379562,4,1,1,60,1,0
3712,424.628450106157,4,1,1,60,1,0
3712,-83.3333333333333,4,1,1,60,0,0
4030,-83.3333333333333,4,1,1,60,0,0
4136,-83.3333333333333,4,1,1,60,0,0
4455,-83.3333333333333,4,1,1,60,0,0
4561,-83.3333333333333,4,1,1,60,0,0
7109,421.052631578947,4,1,1,60,1,0
7109,-83.3333333333333,4,1,1,60,0,0
7845,-83.3333333333333,4,1,1,60,0,0
7951,-83.3333333333333,4,1,1,60,0,0
10477,427.350427350427,4,1,1,60,1,0
10477,-83.3333333333333,4,1,1,60,0,0
10797,-83.3333333333333,4,1,1,60,0,0
10903,-83.3333333333333,4,1,1,60,0,0
11224,-83.3333333333333,4,1,1,60,0,0
11330,-83.3333333333333,4,1,1,60,0,0
14643,-83.3333333333333,4,1,1,60,0,0
14750,-83.3333333333333,4,1,1,60,0,0
17314,428.571428571429,4,1,1,60,1,0
17314,-71.4285714285714,4,1,1,60,0,0
19028,-62.5,4,1,1,60,0,0
20742,-83.3333333333333,4,1,1,60,0,0
24171,429.491768074445,4,1,1,60,1,0
24171,-83.3333333333333,4,1,1,60,0,0
24493,-83.3333333333333,4,1,1,60,0,0
24600,-83.3333333333333,4,1,1,60,0,0
24922,-83.3333333333333,4,1,1,60,0,0
25029,-83.3333333333333,4,1,1,60,0,0
28358,-83.3333333333333,4,1,1,60,0,0
28465,-83.3333333333333,4,1,1,60,0,0
31042,430.10752688172,4,1,1,60,1,0
31042,-83.3333333333333,4,1,1,60,0,0
35235,-83.3333333333333,4,1,1,60,0,0
35343,-83.3333333333333,4,1,1,60,0,0
37923,434.782608695652,4,1,1,60,1,0
37923,-71.4285714285714,4,1,1,60,0,0
39662,-62.5,4,1,1,60,0,0
41401,431.654676258993,4,1,1,60,1,0
41401,-83.3333333333333,4,1,1,60,0,0
44854,432.588320115357,4,1,3,60,1,0
44854,-76.9230769230769,4,1,3,60,0,0
55236,-66.6666666666667,4,1,3,60,0,0
58696,433.212996389892,4,1,1,60,1,0
58696,-83.3333333333333,4,1,1,60,0,0
59020,-83.3333333333333,4,1,1,60,0,0
59129,-83.3333333333333,4,1,1,60,0,0
59454,-83.3333333333333,4,1,1,60,0,0
59562,-83.3333333333333,4,1,1,60,0,0
62919,-83.3333333333333,4,1,1,60,0,0
63028,-83.3333333333333,4,1,1,60,0,0
65627,435.413642960813,4,1,1,60,1,0
65627,-83.3333333333333,4,1,1,60,0,0
65953,-83.3333333333333,4,1,1,60,0,0
66062,-83.3333333333333,4,1,1,60,0,0
66388,-83.3333333333333,4,1,1,60,0,0
66497,-83.3333333333333,4,1,1,60,0,0
69872,-83.3333333333333,4,1,1,60,0,0
69981,-83.3333333333333,4,1,1,60,0,0
70198,-100,4,1,1,60,0,0
70851,-125,4,1,1,60,0,0
71287,-83.3333333333333,4,1,1,60,0,0
72593,-71.4285714285714,4,1,1,60,0,0
74335,-62.5,4,1,1,60,0,0
76076,-83.3333333333333,4,1,1,60,0,0
78471,-55.5555555555556,4,1,1,60,0,0
79124,-83.3333333333333,4,1,1,60,0,0
79560,434.153400868307,4,1,1,60,1,0
79560,-71.4285714285714,4,1,1,60,0,0
83033,-58.8235294117647,4,1,1,60,0,0
84769,-71.4285714285714,4,1,1,60,0,0
89979,-58.8235294117647,4,1,1,60,0,0
91716,-71.4285714285714,4,1,1,60,0,0
93452,437.31778425656,4,1,1,60,1,0
93452,-71.4285714285714,4,1,1,60,0,0
95201,-62.5,4,1,1,60,0,0
96950,436.046511627907,4,1,1,60,1,0
96950,-83.3333333333333,4,1,1,60,0,0
100438,432.276657060519,4,1,3,60,1,0
100438,-76.9230769230769,4,1,3,60,0,0
107354,436.363636363636,4,1,3,60,1,0
107354,-76.9230769230769,4,1,3,60,0,0
110844,428.571428571429,4,1,1,60,1,0
110844,-66.6666666666667,4,1,1,60,0,0
114272,434.782608695652,4,1,1,60,1,0
114272,-83.3333333333333,4,1,1,60,0,0
114598,-83.3333333333333,4,1,1,60,0,0
114706,-83.3333333333333,4,1,1,60,0,0
115032,-83.3333333333333,4,1,1,60,0,0
115141,-83.3333333333333,4,1,1,60,0,0
118511,-83.3333333333333,4,1,1,60,0,0
118619,-83.3333333333333,4,1,1,60,0,0
121554,-83.3333333333333,4,1,1,60,0,0
121663,-83.3333333333333,4,1,1,60,0,0
121989,-83.3333333333333,4,1,1,60,0,0
122098,-83.3333333333333,4,1,1,60,0,0
125467,-83.3333333333333,4,1,1,60,0,0
125576,-83.3333333333333,4,1,1,60,0,0
128185,439.56043956044,4,1,1,60,1,0
128185,-71.4285714285714,4,1,1,60,0,0
129943,-62.5,4,1,1,60,0,0
131701,-83.3333333333333,4,1,1,60,0,0
135217,437.956204379562,4,1,1,60,1,0
135217,-83.3333333333333,4,1,1,60,0,0
140472,433.212996389892,4,1,2,60,1,0
140580,-100,4,1,1,60,0,0
142204,430.10752688172,4,1,1,50,1,0
143924,-100,4,1,1,40,0,0
145644,-100,4,1,1,30,0,0
149085,-100,4,1,1,5,0,0

[Colours]
Combo1 : 255,46,46
Combo2 : 110,217,234
Combo3 : 234,127,127
Combo4 : 197,127,234

[HitObjects]
40,163,556,6,2,B|87:41|257:-40|408:43|469:176|469:176|291:201|256:370|256:370|245:227|122:217|122:217|159:146|221:105|287:122|327:157,1,1299.99994049073,14|2,3:1|0:0,0:0:0:0:
471,338,3712,6,0,B|430:293|430:293|454:169,1,179.999994506836,6|0,3:1|0:0,0:0:0:0:
345,74,4136,2,0,B|385:118|385:118|361:242,1,179.999994506836,8|0,0:0|0:0,0:0:0:0:
338,354,4561,1,2,3:1:0:0:
263,203,4773,1,0,3:0:0:0:
146,323,4985,1,8,0:0:0:0:
341,260,5198,1,2,3:1:0:0:
341,260,5410,5,0,3:1:0:0:
177,186,5622,2,0,L|150:48,1,119.999996337891,2|8,0:0|0:0,0:0:0:0:
50,130,6047,2,0,L|77:-8,1,119.999996337891,2|0,0:0|3:1,0:0:0:0:
177,186,6472,1,2,0:0:0:0:
153,68,6684,1,10,0:0:0:0:
30,207,6896,1,2,3:1:0:0:
30,207,7109,5,2,3:1:0:0:
238,109,7319,1,2,0:0:0:0:
119,231,7530,2,2,B|56:295|56:295|121:358,1,179.999994506836,8|0,0:0|0:0,0:0:0:0:
200,293,7951,1,0,3:0:0:0:
23,370,8161,1,2,0:0:0:0:
119,231,8372,1,8,0:0:0:0:
281,363,8582,1,2,3:1:0:0:
281,363,8793,5,2,3:1:0:0:
433,267,9003,2,0,L|296:280,1,119.999996337891,0|8,0:0|0:0,0:0:0:0:
226,195,9424,2,0,L|345:183,1,119.999996337891,2|0,0:0|3:2,0:0:0:0:
510,257,9845,1,2,3:1:0:0:
345,183,10056,1,10,0:0:0:0:
433,352,10266,1,2,3:1:0:0:
473,166,10477,6,0,B|499:49|499:49|450:-9,1,179.999994506836,6|0,3:1|0:0,0:0:0:0:
370,20,10904,2,0,B|408:67|408:67|382:183,1,179.999994506836,8|0,0:0|0:0,0:0:0:0:
350,299,11331,1,2,3:1:0:0:
192,358,11545,1,2,3:1:0:0:
244,198,11759,1,10,0:1:0:0:
292,384,11972,1,2,3:1:0:0:
292,384,12186,5,0,3:2:0:0:
115,306,12400,2,0,L|142:168,1,119.999996337891,2|10,0:0|0:0,0:0:0:0:
23,225,12827,2,0,L|-4:87,1,119.999996337891,0|0,0:0|3:2,0:0:0:0:
115,306,13254,1,2,0:0:0:0:
138,188,13468,1,10,0:0:0:0:
6,327,13682,1,2,3:1:0:0:
6,327,13895,5,2,3:1:0:0:
227,254,14109,1,2,0:0:0:0:
104,109,14323,2,2,B|170:47|170:47|211:136,1,179.999994506836,8|0,0:0|0:0,0:0:0:0:
138,188,14750,1,0,3:0:0:0:
82,12,14964,1,2,0:0:0:0:
208,128,15177,1,10,0:0:0:0:
359,6,15391,1,2,3:1:0:0:
359,6,15605,5,2,3:1:0:0:
511,102,15818,2,0,L|374:89,1,119.999996337891,0|8,0:1|0:1,0:0:0:0:
304,174,16246,2,0,L|423:186,1,119.999996337891,2|0,0:0|3:1,0:0:0:0:
300,82,16673,1,2,0:0:0:0:
231,208,16887,1,10,0:0:0:0:
322,348,17100,1,2,3:1:0:0:
423,186,17314,6,0,L|431:102,1,69.9999978637696,6|0,3:1|0:0,0:0:0:0:
353,258,17528,2,0,L|344:174,1,69.9999978637696,2|0,0:0|0:0,0:0:0:0:
425,329,17742,2,0,L|433:245,1,69.9999978637696,10|0,0:0|0:0,0:0:0:0:
322,348,17956,2,0,B|269:328|269:328|163:350,1,139.999995727539,2|0,0:1|3:1,0:0:0:0:
78,369,18385,5,2,0:0:0:0:
20,241,18599,1,10,0:0:0:0:
90,87,18814,1,2,3:1:0:0:
253,187,19028,6,0,L|265:91,1,80,6|0,3:1|0:0,0:0:0:0:
171,277,19242,2,0,L|159:181,1,80,2|0,0:0|0:0,0:0:0:0:
253,367,19456,2,0,L|265:271,1,80,10|0,0:0|0:0,0:0:0:0:
355,243,19671,2,0,B|458:235|458:235|498:280,1,160,2|0,0:0|3:0,0:0:0:0:
406,332,20099,1,2,0:0:0:0:
452,161,20314,1,10,0:0:0:0:
332,250,20528,1,2,3:1:0:0:
332,250,20742,5,6,3:1:0:0:
163,189,20956,2,0,B|251:159|251:159|238:258|238:258|180:280,1,239.999992675781
56,326,21599,2,0,L|78:197,1,119.999996337891,2|0,3:1|3:0,0:0:0:0:
137,340,22028,1,8,0:0:0:0:
4,169,22242,1,2,0:0:0:0:
4,169,22456,5,0,3:0:0:0:
126,62,22671,2,0,L|-3:40,2,119.999996337891,2|8|2,0:0|0:0|0:0,0:0:0:0:
220,166,23314,1,2,3:1:0:0:
220,166,23421,1,0,0:0:0:0:
220,166,23528,1,0,0:0:0:0:
220,166,23635,1,0,0:0:0:0:
220,166,23742,2,0,L|349:144,1,119.999996337891,10|2,0:1|0:0,0:0:0:0:
467,37,24171,6,0,B|415:85|415:85|449:210,1,179.999994506836,6|0,3:1|0:0,0:0:0:0:
358,231,24600,2,0,B|409:279|409:279|375:404,1,179.999994506836,8|0,0:0|0:0,0:0:0:0:
310,308,25029,1,2,3:1:0:0:
443,190,25244,1,0,3:0:0:0:
509,349,25459,1,8,0:0:0:0:
343,218,25674,1,2,3:1:0:0:
343,218,25888,5,0,3:1:0:0:
232,128,26103,2,0,L|257:260,1,119.999996337891,2|8,0:0|0:0,0:0:0:0:
140,209,26533,2,0,L|113:347,1,119.999996337891,2|0,0:0|3:0,0:0:0:0:
255,245,26962,1,2,0:1:0:0:
232,128,27177,1,10,0:0:0:0:
328,308,27392,1,2,3:1:0:0:
328,308,27606,5,2,3:1:0:0:
140,209,27821,1,2,0:0:0:0:
302,91,28036,2,2,B|367:85|367:85|386:94|386:94|402:82|402:82|479:75,1,179.999994506836,8|0,0:1|0:0,0:0:0:0:
378,8,28465,1,0,3:0:0:0:
439,166,28680,1,2,0:0:0:0:
490,75,28895,1,10,0:0:0:0:
355,212,29110,1,2,3:1:0:0:
355,212,29324,5,2,3:1:0:0:
429,363,29539,2,0,L|438:221,1,119.999996337891,0|8,0:0|0:0,0:0:0:0:
343,88,29969,1,2,0:0:0:0:
343,88,30183,2,0,L|350:207,1,119.999996337891,0|0,3:0|0:0,0:0:0:0:
358,309,30613,1,10,0:0:0:0:
440,154,30828,1,2,3:1:0:0:
440,154,31042,5,2,3:1:0:0:
241,211,31257,1,2,0:0:0:0:
221,118,31472,1,10,0:0:0:0:
22,175,31687,1,2,0:0:0:0:
22,175,31902,1,2,3:1:0:0:
140,246,32117,2,0,L|119:127,1,119.999996337891,2|8,3:1|0:0,0:0:0:0:
260,84,32547,1,2,3:1:0:0:
260,84,32762,5,0,3:1:0:0:
237,207,32977,2,0,L|216:325,1,119.999996337891,2|8,0:0|0:0,0:0:0:0:
332,158,33407,2,0,L|353:276,1,119.999996337891,2|0,0:0|3:0,0:0:0:0:
237,207,33837,1,2,0:1:0:0:
215,325,34052,1,10,0:0:0:0:
357,280,34267,1,2,3:1:0:0:
357,280,34482,5,2,3:1:0:0:
122,249,34697,1,2,0:0:0:0:
260,84,34912,2,2,B|325:90|325:90|344:81|344:81|360:93|360:93|437:100,1,179.999994506836,8|0,0:0|0:0,0:0:0:0:
336,163,35343,1,0,3:0:0:0:
286,12,35558,1,2,3:1:0:0:
433,99,35773,1,10,0:0:0:0:
196,136,35988,1,2,3:1:0:0:
196,136,36203,5,2,3:1:0:0:
95,50,36418,2,0,L|113:197,1,119.999996337891,2|8,0:0|0:0,0:0:0:0:
231,320,36848,2,0,L|249:173,1,119.999996337891,2|0,0:0|3:1,0:0:0:0:
124,252,37278,1,2,0:0:0:0:
227,352,37493,1,10,0:0:0:0:
392,318,37708,1,2,3:1:0:0:
437,158,37923,6,0,L|507:144,1,69.9999978637696,6|0,3:1|0:0,0:0:0:0:
367,228,38140,2,0,L|437:242,1,69.9999978637696,2|0,0:0|0:0,0:0:0:0:
297,158,38357,2,0,L|367:144,1,69.9999978637696,10|0,0:0|0:0,0:0:0:0:
227,228,38575,2,0,B|207:127|207:127|237:88,1,139.999995727539,2|0,0:0|3:0,0:0:0:0:
307,16,39009,1,2,0:0:0:0:
167,5,39227,1,10,0:0:0:0:
61,135,39444,1,2,3:1:0:0:
169,293,39662,6,0,L|79:312,1,80,6|0,3:1|0:0,0:0:0:0:
251,219,39879,2,0,L|161:200,1,80,2|0,0:0|0:0,0:0:0:0:
333,293,40096,2,0,L|243:312,1,80,10|0,0:0|0:0,0:0:0:0:
415,219,40314,2,0,B|455:289|455:289|421:364,1,160,2|0,0:0|3:0,0:0:0:0:
346,290,40749,1,2,0:0:0:0:
512,227,40966,1,10,0:0:0:0:
342,374,41183,1,2,3:1:0:0:
342,374,41401,5,6,3:1:0:0:
280,227,41616,2,0,B|249:140|249:140|290:92|290:92|261:3,1,239.999992675781
384,32,42264,2,0,L|376:164,1,119.999996337891,2|0,3:1|3:1,0:0:0:0:
473,61,42695,1,8,0:0:0:0:
281,94,42911,1,2,3:1:0:0:
281,94,43127,5,0,3:0:0:0:
376,151,43343,2,0,L|383:31,2,119.999996337891,2|8|2,0:0|0:0|0:0,0:0:0:0:
375,162,43883,1,0,0:0:0:0:
374,174,43990,1,2,3:1:0:0:
221,290,44206,1,2,3:1:0:0:
360,252,44422,1,8,0:0:0:0:
277,203,44638,1,2,3:1:0:0:
88,318,44854,6,0,P|58:246|82:160,1,129.999994049073,6|0,3:1|0:0,0:0:0:0:
117,77,45286,2,0,P|189:47|275:71,1,129.999994049073,10|0,0:1|0:0,0:0:0:0:
358,106,45611,1,0,0:0:0:0:
358,106,45719,2,0,P|388:178|364:264,1,129.999994049073,2|0,3:1|3:1,0:0:0:0:
329,347,46151,2,0,P|257:377|171:353,1,129.999994049073,10|0,0:1|3:0,0:0:0:0:
149,239,46584,5,2,3:1:0:0:
250,286,46800,1,0,0:1:0:0:
297,185,47016,1,10,0:1:0:0:
196,138,47233,2,0,B|163:129|131:143|140:154|104:176|64:166,1,129.999994049073,0|2,0:0|3:1,0:0:0:0:
1,114,47665,1,0,3:1:0:0:
184,233,47882,2,0,B|216:224|248:238|239:249|275:271|315:261,1,129.999994049073,10|0,0:0|3:1,0:0:0:0:
424,318,48314,6,0,P|454:246|430:160,1,129.999994049073,6|0,3:1|0:0,0:0:0:0:
395,77,48746,2,0,P|323:47|237:71,1,129.999994049073,10|0,0:1|0:0,0:0:0:0:
154,106,49071,1,0,0:0:0:0:
154,106,49179,2,0,P|124:178|148:264,2,129.999994049073,2|0|10,3:1|3:0|0:0,0:0:0:0:
272,52,49828,6,0,P|337:48|395:77,1,129.999994049073,0|2,3:0|3:1,0:0:0:0:
448,195,50261,1,0,0:0:0:0:
448,195,50477,2,0,P|452:260|424:318,1,129.999994049073,10|0,0:1|0:0,0:0:0:0:
305,371,50802,1,0,0:0:0:0:
305,371,50910,2,0,P|240:375|183:347,1,129.999994049073,2|0,3:1|3:1,0:0:0:0:
317,140,51342,1,10,0:0:0:0:
260,283,51559,1,0,3:1:0:0:
88,318,51775,6,0,P|58:246|82:160,1,129.999994049073,6|0,3:1|0:0,0:0:0:0:
117,77,52207,2,0,P|189:47|275:71,1,129.999994049073,10|0,0:1|0:0,0:0:0:0:
358,106,52532,1,0,0:0:0:0:
358,106,52640,2,0,P|388:178|364:264,1,129.999994049073,2|0,3:1|3:0,0:0:0:0:
329,347,53072,2,0,P|257:377|171:353,1,129.999994049073,10|0,0:1|3:0,0:0:0:0:
149,239,53505,5,2,3:1:0:0:
250,286,53721,1,0,0:0:0:0:
297,185,53937,1,10,0:0:0:0:
196,138,54154,2,0,B|169:115|143:108|102:122|91:152|111:166|133:153,1,129.999994049073,0|2,0:0|3:1,0:0:0:0:
91,296,54586,1,0,3:1:0:0:
231,245,54803,2,0,B|258:268|284:275|325:261|336:231|316:217|294:230,1,129.999994049073,10|0,0:0|3:0,0:0:0:0:
451,53,55236,6,2,P|373:20|280:46,1,150.000005722046,6|0,3:1|0:0,0:0:0:0:
190,84,55667,2,0,P|157:161|183:254,1,150.000005722046,10|0,0:0|0:0,0:0:0:0:
222,344,55992,1,0,0:0:0:0:
222,344,56100,2,0,P|299:376|392:350,2,150.000005722046,2|0|10,3:1|0:0|0:0,0:0:0:0:
481,312,56750,6,2,P|514:243|509:166,1,150.000005722046,4|2,3:1|3:1,0:0:0:0:
318,27,57182,1,0,0:0:0:0:
318,27,57398,2,0,P|394:22|463:55,1,150.000005722046,10|4,0:0|3:1,0:0:0:0:
511,171,57723,1,0,0:0:0:0:
511,171,57831,1,2,3:1:0:0:
481,312,58047,1,0,0:0:0:0:
362,366,58263,1,10,0:0:0:0:
222,344,58480,1,0,0:0:0:0:
330,189,58696,6,0,B|356:72|356:72|307:14,1,179.999994506836,6|0,3:1|0:0,0:0:0:0:
238,27,59129,2,0,B|199:72|199:72|225:189,1,179.999994506836,8|0,0:0|0:0,0:0:0:0:
277,255,59562,1,2,3:1:0:0:
409,190,59779,1,0,3:0:0:0:
292,335,59995,1,8,0:0:0:0:
147,190,60212,1,2,0:0:0:0:
147,190,60428,5,0,3:0:0:0:
38,304,60645,2,0,L|16:148,1,119.999996337891,2|8,3:1|3:1,0:0:0:0:
126,331,61078,2,0,L|148:175,1,119.999996337891,2|0,3:1|3:0,0:0:0:0:
160,93,61511,1,2,3:1:0:0:
16,184,61728,1,10,0:0:0:0:
79,22,61945,1,2,3:1:0:0:
79,22,62161,5,2,3:1:0:0:
236,185,62378,1,2,0:0:0:0:
349,159,62594,2,2,B|310:115|310:115|248:129|248:129|235:194,1,179.999994506836,10|0,0:0|0:0,0:0:0:0:
310,240,63028,1,0,3:0:0:0:
448,143,63244,1,2,3:1:0:0:
507,247,63461,1,10,0:0:0:0:
349,159,63677,1,2,3:1:0:0:
349,159,63894,5,0,3:0:0:0:
205,260,64111,2,0,L|80:244,1,119.999996337891,2|8,3:1|3:1,0:0:0:0:
152,359,64544,2,0,L|277:343,1,119.999996337891,2|0,3:1|3:0,0:0:0:0:
379,329,64977,1,2,3:1:0:0:
452,223,65194,1,10,0:1:0:0:
284,271,65410,1,2,3:1:0:0:
133,145,65627,6,0,B|178:100|178:100|303:138,1,179.999994506836,6|0,3:1|0:0,0:0:0:0:
457,118,66062,2,0,B|393:112|393:112|322:221,1,179.999994506836,8|0,0:0|0:0,0:0:0:0:
371,297,66497,1,2,3:1:0:0:
441,199,66715,1,0,3:0:0:0:
322,65,66933,1,8,0:0:0:0:
252,163,67150,1,2,3:1:0:0:
252,163,67368,5,0,3:1:0:0:
176,271,67586,2,0,L|155:134,1,119.999996337891,2|8,3:1|3:1,0:0:0:0:
41,186,68021,2,0,L|62:49,1,119.999996337891,2|0,3:1|3:1,0:0:0:0:
87,252,68457,1,2,3:1:0:0:
157,152,68674,1,10,0:0:0:0:
223,314,68892,1,2,3:1:0:0:
223,314,69110,5,2,3:1:0:0:
331,157,69328,1,2,0:0:0:0:
411,292,69545,2,2,B|430:318|430:318|311:311|311:311|335:285,1,179.999994506836,8|0,0:0|0:0,0:1:0:0:
373,227,69981,1,0,3:0:0:0:
491,146,70198,2,0,L|500:269,1,100,2|8,3:1|0:0,0:0:0:0:
449,76,70634,1,2,3:1:0:0:
449,76,70851,6,0,L|491:62,2,40,2|0|0,3:1|0:0|0:0,0:0:0:0:
335,117,71287,1,8,0:0:0:0:
221,156,71505,2,0,L|102:122,1,119.999996337891,2|0,0:0|3:0,0:0:0:0:
27,31,71940,1,2,3:1:0:0:
0,172,72158,1,10,0:0:0:0:
108,299,72375,1,2,3:1:0:0:
303,310,72593,6,0,L|224:287,1,69.9999978637696,6|0,3:1|0:0,0:0:0:0:
271,166,72811,2,0,L|309:224,1,69.9999978637696,2|0,0:0|0:0,0:0:0:0:
369,163,73029,2,0,L|376:93,1,69.9999978637696,10|0,0:0|0:0,0:0:0:0:
504,106,73246,2,0,B|457:150|457:150|483:255,1,139.999995727539,2|0,0:0|3:0,0:0:0:0:
506,331,73682,1,2,3:1:0:0:
377,277,73899,1,10,0:0:0:0:
349,111,74117,1,2,3:1:0:0:
510,6,74335,6,0,L|428:24,1,80,6|0,3:1|0:0,0:0:0:0:
419,148,74552,2,0,L|344:109,1,80,2|0,0:0|0:0,0:0:0:0:
258,198,74770,2,0,L|226:120,1,80,10|0,0:0|0:0,0:0:0:0:
126,56,74988,2,0,B|104:126|104:126|141:215,1,160,2|0,0:0|3:0,0:0:0:0:
101,329,75423,1,2,3:1:0:0:
249,270,75641,1,10,0:1:0:0:
334,365,75859,1,2,3:1:0:0:
334,365,76076,5,4,3:1:0:0:
438,265,76294,2,0,B|483:213|483:213|449:144|449:144|384:217,1,239.999992675781
270,319,76947,2,0,L|262:156,1,119.999996337891,2|0,3:1|3:0,0:0:0:0:
305,89,77383,1,8,0:0:0:0:
133,217,77600,1,2,3:1:0:0:
133,217,77818,5,0,3:1:0:0:
73,139,78036,1,0,0:0:0:0:
73,139,78145,1,0,0:0:0:0:
73,139,78253,1,8,0:0:0:0:
208,302,78471,2,2,B|294:288|294:288|384:131|384:131|483:109,1,359.999989013672,6|0,3:1|0:0,0:1:0:0:
462,207,79015,1,0,0:0:0:0:
462,207,79124,2,0,B|427:235|427:235|442:328,1,119.999996337891,8|0,0:0|3:0,0:0:0:0:
493,33,79560,6,0,B|423:3|360:33|375:54|318:96|223:64,1,279.999991455078,6|8,3:1|0:0,0:0:0:0:
130,2,80211,1,2,0:0:0:0:
197,188,80428,1,2,3:1:0:0:
226,65,80645,1,2,3:1:0:0:
104,111,80862,1,10,0:0:0:0:
236,293,81079,6,0,B|295:176|401:144|492:213|481:299|419:345|328:322,1,419.999987182618,2|8,3:1|0:0,0:0:0:0:
349,327,82164,1,0,3:0:0:0:
349,327,82381,1,0,3:0:0:0:
395,121,82599,1,8,0:0:0:0:
56,177,83033,6,0,B|70:135|70:135|90:181,1,85.0000016212464,6|2,3:1|3:1,0:0:0:0:
122,256,83250,1,2,3:1:0:0:
122,256,83358,2,0,B|136:297|136:297|156:251,1,85.0000016212464,2|10,3:1|3:1,0:0:0:0:
188,177,83575,1,2,3:1:0:0:
188,177,83683,2,0,B|202:135|202:135|222:181,1,85.0000016212464,2|2,3:1|3:1,0:0:0:0:
254,256,83901,1,2,3:1:0:0:
254,256,84009,2,0,B|268:297|268:297|288:251,1,85.0000016212464,2|2,3:1|3:1,0:0:0:0:
320,177,84227,1,2,3:1:0:0:
320,177,84335,2,0,B|334:135|334:135|354:181,1,85.0000016212464,10|2,3:1|3:1,0:0:0:0:
386,256,84552,1,2,3:1:0:0:
51,237,84769,6,0,P|148:208|355:197,2,279.999991455078,6|8|0,3:1|0:0|3:0,0:0:0:0:
10,310,85855,1,0,3:0:0:0:
110,126,86072,2,0,P|115:70|26:104,1,139.999995727539,8|0,0:0|0:0,0:0:0:0:
201,118,86506,6,0,B|265:131|324:91|310:22|387:-18|459:10,1,279.999991455078,6|8,3:1|0:0,0:0:0:0:
504,79,87157,1,2,0:0:0:0:
403,266,87374,1,2,3:1:0:0:
413,138,87591,1,2,3:1:0:0:
506,188,87808,1,10,0:1:0:0:
343,329,88025,6,0,B|250:353|90:303|87:170|254:102|362:212|261:321|208:348|191:337,1,419.999987182618,2|8,3:1|0:0,0:0:0:0:
242,316,89111,1,0,3:0:0:0:
242,316,89328,1,0,3:0:0:0:
128,140,89545,1,8,0:0:0:0:
456,177,89979,6,0,B|456:152|439:137|439:137|421:155|421:181,1,85.0000016212464,6|2,3:1|3:1,0:0:0:0:
390,256,90196,1,2,3:1:0:0:
390,256,90305,2,0,B|390:281|373:296|373:296|355:278|355:251,1,85.0000016212464,2|10,3:1|3:1,0:0:0:0:
324,177,90522,1,2,3:1:0:0:
324,177,90630,2,0,B|324:152|307:137|307:137|289:155|289:181,1,85.0000016212464,2|2,3:1|3:1,0:0:0:0:
258,256,90847,1,2,3:1:0:0:
258,256,90956,2,0,B|258:281|241:296|241:296|223:278|223:251,1,85.0000016212464,2|2,3:1|3:1,0:0:0:0:
192,177,91173,1,2,3:1:0:0:
192,177,91282,2,0,B|192:152|175:137|175:137|157:155|157:181,1,85.0000016212464,10|2,3:1|3:1,0:0:0:0:
126,256,91499,1,2,3:1:0:0:
461,237,91716,6,0,P|364:208|157:197,2,279.999991455078,6|8|0,3:1|0:0|3:0,0:0:0:0:
405,333,92801,1,2,3:1:0:0:
327,233,93018,1,10,0:0:0:0:
354,95,93235,1,2,3:1:0:0:
500,15,93452,6,0,L|426:-2,1,69.9999978637696,6|0,3:1|0:0,0:0:0:0:
368,107,93670,2,0,L|436:91,1,69.9999978637696,2|0,0:0|0:0,0:0:0:0:
500,199,93889,2,0,L|431:183,1,69.9999978637696,10|0,0:0|0:0,0:0:0:0:
368,291,94107,2,0,B|423:278|423:278|453:290|453:290|508:279,1,139.999995727539,6|0,0:0|3:1,0:0:0:0:
432,367,94545,1,2,3:1:0:0:
294,344,94763,1,10,0:0:0:0:
178,222,94982,1,2,3:1:0:0:
267,51,95201,6,0,L|247:150,1,80,6|0,3:1|0:0,0:0:0:0:
184,256,95419,2,0,L|164:157,1,80,2|0,0:0|0:0,0:0:0:0:
101,51,95638,2,0,L|81:150,1,80,10|0,0:0|0:0,0:0:0:0:
18,256,95857,2,0,B|8:209|8:209|110:285,1,160,6|0,0:0|3:1,0:0:0:0:
202,350,96294,1,2,3:1:0:0:
270,205,96513,1,10,0:0:0:0:
367,287,96731,1,2,3:1:0:0:
367,287,96950,5,6,3:1:0:0:
479,161,97168,2,0,B|436:115|436:115|314:134|314:134|260:79,1,239.999992675781
355,6,97822,2,0,L|488:22,1,119.999996337891,2|0,3:1|3:1,0:0:0:0:
479,161,98258,1,10,0:0:0:0:
289,72,98476,1,0,3:1:0:0:
289,72,98694,5,0,3:1:0:0:
371,204,98912,2,0,L|388:73,2,119.999996337891,0|8|0,0:0|0:0|3:1,0:0:0:0:
369,215,99457,1,0,3:1:0:0:
367,226,99566,1,2,3:1:0:0:
365,237,99675,1,0,3:1:0:0:
363,248,99784,1,2,3:1:0:0:
361,259,99893,1,0,3:1:0:0:
359,271,100002,2,0,B|274:253|274:253|236:268,1,119.999996337891,8|2,3:1|3:1,0:0:0:0:
97,359,100438,6,0,P|169:389|255:365,1,129.999994049073,6|0,3:1|0:0,0:0:0:0:
338,331,100870,2,0,P|368:259|344:173,1,129.999994049073,10|0,0:0|0:0,0:0:0:0:
309,90,101194,1,0,0:0:0:0:
309,90,101302,2,0,P|237:60|151:84,1,129.999994049073,2|0,3:1|3:0,0:0:0:0:
68,119,101734,2,0,P|38:191|62:277,1,129.999994049073,10|0,0:0|3:0,0:0:0:0:
176,299,102167,5,2,3:1:0:0:
129,198,102383,1,0,0:0:0:0:
230,151,102599,1,10,0:1:0:0:
277,252,102815,2,0,B|310:261|342:247|333:236|369:214|409:224,1,129.999994049073,0|2,0:0|3:1,0:0:0:0:
479,269,103247,1,0,3:1:0:0:
512,83,103463,1,10,0:0:0:0:
384,144,103680,1,0,3:1:0:0:
435,323,103896,6,2,P|465:251|441:165,1,129.999994049073,2|0,3:1|0:0,0:1:0:0:
384,63,104328,1,10,0:0:0:0:
344,240,104544,2,0,P|333:162|270:100,1,129.999994049073,0|2,0:0|3:1,0:1:0:0:
169,40,104976,1,0,3:0:0:0:
335,9,105193,1,10,0:0:0:0:
194,118,105409,6,0,P|165:175|170:239,1,129.999994049073,0|2,3:0|3:1,0:0:0:0:
224,358,105841,1,0,0:0:0:0:
224,358,106057,2,0,P|281:386|346:382,1,129.999994049073,10|0,0:0|0:0,0:0:0:0:
465,328,106381,1,0,0:0:0:0:
465,328,106489,2,0,P|493:270|489:206,1,129.999994049073,2|0,3:1|3:1,0:0:0:0:
392,78,106922,1,10,0:0:0:0:
301,294,107138,1,0,3:1:0:0:
80,80,107354,6,0,P|152:50|238:74,1,129.999994049073,6|0,3:1|0:0,0:0:0:0:
321,109,107790,2,0,P|351:181|327:267,1,129.999994049073,10|0,0:1|0:0,0:0:0:0:
292,350,108117,1,0,0:0:0:0:
292,350,108226,2,0,P|220:380|134:356,1,129.999994049073,2|0,3:1|3:0,0:0:0:0:
51,321,108663,2,0,P|21:249|45:163,1,129.999994049073,10|0,0:1|3:0,0:0:0:0:
215,294,109099,5,2,3:1:0:0:
266,183,109317,1,0,0:0:0:0:
155,131,109535,1,10,0:0:0:0:
104,243,109754,2,0,B|74:310|111:306|80:377,1,129.999994049073,0|2,0:0|3:1,0:0:0:0:
180,213,110190,1,0,3:1:0:0:
266,183,110408,2,0,B|295:115|259:120|289:48,1,129.999994049073,10|0,0:0|0:0,0:0:0:0:
384,23,110844,5,6,3:1:0:0:
165,71,111058,1,0,0:0:0:0:
376,42,111272,1,8,3:1:0:0:
177,88,111486,1,0,3:1:0:0:
369,63,111701,1,8,3:1:0:0:
190,105,111915,1,0,3:0:0:0:
362,83,112129,1,8,3:1:0:0:
203,123,112344,1,2,3:1:0:0:
108,306,112558,5,12,3:1:0:0:
133,142,112772,1,0,3:1:0:0:
274,316,112986,1,8,3:1:0:0:
294,152,113201,1,6,3:1:0:0:
430,326,113415,1,8,3:1:0:0:
450,162,113630,1,10,3:1:0:0:
108,306,113844,1,10,3:1:0:0:
133,142,114058,1,10,3:1:0:0:
281,352,114272,6,0,B|160:358|160:358|108:304,1,179.999994506836,6|0,3:1|0:0,0:0:0:0:
52,229,114706,2,0,B|173:223|173:223|214:266,1,179.999994506836,10|0,0:0|0:0,0:0:0:0:
160,356,115141,1,2,3:1:0:0:
262,174,115358,1,0,3:0:0:0:
136,226,115576,1,8,0:0:0:0:
356,341,115793,1,2,3:1:0:0:
356,341,116011,5,0,3:1:0:0:
440,273,116228,2,0,L|422:147,1,119.999996337891,2|8,3:1|3:1,0:0:0:0:
282,222,116663,2,0,L|300:96,1,119.999996337891,2|0,3:1|3:1,0:0:0:0:
348,20,117098,1,2,3:1:0:0:
203,127,117315,1,10,0:0:0:0:
419,138,117532,1,2,3:1:0:0:
419,138,117750,5,2,3:1:0:0:
224,18,117967,1,2,0:0:0:0:
110,57,118185,2,2,B|37:85|37:85|97:144|97:144|102:118,1,179.999994506836,8|0,0:0|0:0,0:0:0:0:
189,112,118619,1,0,3:0:0:0:
31,200,118837,1,2,3:1:0:0:
130,266,119054,1,10,0:0:0:0:
312,169,119272,1,2,3:1:0:0:
312,169,119489,5,0,3:1:0:0:
431,272,119706,2,0,L|298:253,1,119.999996337891,2|8,3:1|3:1,0:0:0:0:
216,364,120141,2,0,L|349:345,1,119.999996337891,2|0,3:1|3:1,0:0:0:0:
235,245,120576,1,2,3:1:0:0:
138,382,120793,1,10,0:1:0:0:
66,285,121011,1,2,3:1:0:0:
160,118,121228,6,0,B|198:169|198:169|167:312,1,179.999994506836,6|0,3:1|0:0,0:0:0:0:
255,301,121663,2,0,B|280:187|280:187|336:157,1,179.999994506836,8|0,0:0|0:0,0:0:0:0:
414,124,122098,1,2,3:1:0:0:
256,110,122315,1,0,3:1:0:0:
349,242,122532,1,8,0:1:0:0:
333,14,122750,1,2,3:1:0:0:
333,14,122967,5,0,3:1:0:0:
396,102,123185,2,0,L|525:70,1,119.999996337891,0|8,3:1|3:1,0:0:0:0:
336,162,123619,2,0,L|465:193,1,119.999996337891,0|0,3:1|3:1,0:0:0:0:
500,279,124054,1,2,3:1:0:0:
338,352,124272,1,10,0:0:0:0:
449,370,124489,1,2,3:1:0:0:
449,370,124706,5,2,3:1:0:0:
376,172,124924,1,2,0:0:0:0:
247,257,125141,2,2,B|219:279|219:279|174:247|174:247|196:194|196:194|236:199,1,179.999994506836,8|0,0:0|0:0,0:1:0:0:
304,204,125576,1,0,3:0:0:0:
138,318,125793,2,2,B|55:297|55:297|16:307,1,119.999996337891,2|8,3:1|0:0,0:1:0:0:
56,382,126228,1,2,3:1:0:0:
56,382,126445,6,0,L|45:315,2,59.9999981689454,0|0|0,3:1|0:0|0:0,0:0:0:0:
26,217,126880,1,8,0:0:0:0:
121,64,127098,2,0,L|102:208,1,119.999996337891,0|0,0:0|3:0,0:0:0:0:
142,271,127532,1,2,3:1:0:0:
242,205,127750,1,10,0:1:0:0:
379,248,127967,1,2,3:1:0:0:
482,380,128185,6,0,L|500:298,1,69.9999978637696,6|0,3:1|0:0,0:0:0:0:
425,234,128404,2,0,L|399:153,1,69.9999978637696,2|0,0:0|0:0,0:0:0:0:
302,136,128624,2,0,L|239:79,1,69.9999978637696,10|0,0:1|0:1,0:0:0:0:
147,112,128844,2,0,B|94:100|94:100|66:118|66:118|-3:107,1,139.999995727539,2|0,0:0|3:0,0:0:0:0:
23,221,129283,1,2,3:1:0:0:
142,294,129503,1,10,3:1:0:0:
295,225,129723,1,2,3:1:0:0:
305,33,129943,6,0,L|327:122,1,80,4|0,3:1|0:0,0:0:0:0:
431,167,130163,2,0,L|364:230,1,80,2|0,0:0|0:0,0:0:0:0:
377,343,130382,2,0,L|288:317,1,80,10|0,0:0|0:0,0:0:0:0:
197,384,130602,2,0,B|167:277|167:277|194:222,1,160,2|0,0:0|3:2,0:0:0:0:
244,154,131042,1,2,3:1:0:0:
82,251,131261,1,10,3:1:0:0:
255,286,131481,1,2,3:1:0:0:
255,286,131701,5,6,3:1:0:0:
167,88,131921,2,0,B|214:58|214:58|275:78|275:78|332:48|332:48|384:68,1,239.999992675781
473,170,132580,2,0,L|488:15,1,119.999996337891,2|0,3:1|3:0,0:0:0:0:
361,146,133020,1,8,0:0:0:0:
468,286,133239,1,2,3:1:0:0:
468,286,133459,5,0,3:0:0:0:
365,363,133679,2,0,L|380:208,2,119.999996337891,0|8|0,0:0|0:0|0:0,0:0:0:0:
365,363,134338,1,0,3:0:0:0:
226,262,134558,1,2,3:1:0:0:
111,348,134778,1,10,3:1:0:0:
212,360,134998,1,2,3:1:0:0:
212,360,135217,5,2,3:1:0:0:
69,258,135435,2,0,B|42:109|42:109|109:166,1,239.999992675781
213,85,136092,2,0,L|188:222,1,119.999996337891,2|2,3:1|3:1,0:0:0:0:
132,85,136530,1,8,0:0:0:0:
301,172,136749,1,2,3:1:0:0:
301,172,136968,5,2,3:1:0:0:
381,119,137187,2,0,L|363:-1,2,119.999996337891,0|8|0,0:0|0:0|0:0,0:0:0:0:
486,219,137844,1,0,3:1:0:0:
486,219,137954,1,0,3:0:0:0:
486,219,138063,1,2,3:1:0:0:
486,219,138173,1,0,3:1:0:0:
486,219,138282,2,0,B|400:204|400:204|343:221,1,119.999996337891,10|2,3:1|3:1,0:0:0:0:
277,307,138720,6,0,B|185:335|185:335|94:288|94:288|153:265,1,239.999992675781,6|8,3:1|3:1,0:0:0:0:
136,276,139596,1,6,3:1:0:0:
45,302,139815,1,2,3:1:0:0:
148,129,140034,1,10,3:1:0:0:
258,228,140253,1,6,3:1:0:0:
258,228,140362,2,0,L|265:159,1,59.9999981689454,0|12,3:1|3:1,0:0:0:0:
256,192,140580,12,0,149085,0:0:0:0:
