osu file format v14

[General]
AudioFilename: audio.mp3
AudioLeadIn: 0
PreviewTime: 9845
Countdown: 0
SampleSet: Normal
StackLeniency: 0.4
Mode: 0
LetterboxInBreaks: 0
WidescreenStoryboard: 1

[Editor]
Bookmarks: 35988
DistanceSpacing: 1
BeatDivisor: 2
GridSize: 4
TimelineZoom: 2.1

[Metadata]
Title:A Hard Day's Night
TitleUnicode:A Hard Day's Night
Artist:The Beatles
ArtistUnicode:The Beatles
Creator:Apo11o
Version:Normal
Source:A Hard Day's Night
Tags:english pop rock respirte fsjallink mismagius blue dragon john lennon paul mccartney george harrison ringo starr days
BeatmapID:3659107
BeatmapSetID:1786226

[Difficulty]
HPDrainRate:3
CircleSize:3
OverallDifficulty:4.5
ApproachRate:6
SliderMultiplier:1.1
SliderTickRate:1

[Events]
//Background and Video events
0,0,"hard day's night.jpg",0,0
//Break Periods
2,79760,91751
//Storyboard Layer 0 (Background)
//Storyboard Layer 1 (Fail)
//Storyboard Layer 2 (Pass)
//Storyboard Layer 3 (Foreground)
//Storyboard Layer 4 (Overlay)
//Storyboard Sound Samples

[TimingPoints]
556,500,4,1,2,37,1,0
3056,437.956204379562,4,1,1,60,1,0
3712,424.628450106157,4,1,1,60,1,0
7109,421.052631578947,4,1,1,60,1,0
10477,427.350427350427,4,1,1,60,1,0
17314,428.571428571429,4,1,1,60,1,0
24171,429.491768074445,4,1,1,60,1,0
31042,430.10752688172,4,1,1,60,1,0
37923,434.782608695652,4,1,1,60,1,0
41401,431.654676258993,4,1,1,60,1,0
44854,432.588320115357,4,1,3,60,1,0
58696,433.212996389892,4,1,1,60,1,0
65627,435.413642960813,4,1,1,60,1,0
79560,434.153400868307,4,1,1,60,1,0
93452,437.31778425656,4,1,1,60,1,0
96950,436.046511627907,4,1,1,60,1,0
100438,432.276657060519,4,1,3,60,1,0
107354,436.363636363636,4,1,3,60,1,0
110844,428.571428571429,4,1,1,60,1,0
114272,434.782608695652,4,1,1,60,1,0
128185,439.56043956044,4,1,1,60,1,0
135217,437.956204379562,4,1,1,60,1,0
140472,433.212996389892,4,1,2,60,1,0
140580,-100,4,1,1,60,0,0
142204,430.10752688172,4,1,1,50,1,0
143924,-100,4,1,1,40,0,0
145644,-100,4,1,1,30,0,0
149085,-100,4,1,1,5,0,0

[Colours]
Combo1 : 255,46,46
Combo2 : 110,217,234
Combo3 : 234,127,127
Combo4 : 197,127,234

[HitObjects]
256,192,556,5,14,3:1:0:0:
256,192,806,12,2,3056,0:0:0:0:
235,240,3712,6,0,P|290:243|332:277,1,110,6|8,3:1|0:0,0:0:0:0:
432,230,4561,2,0,L|425:52,1,165,2|2,3:1|3:1,0:0:0:0:
346,141,5622,1,2,0:0:0:0:
346,141,5835,2,0,L|232:136,1,110,8|0,0:0|3:1,0:0:0:0:
185,137,6472,1,2,0:0:0:0:
185,137,6684,1,10,0:0:0:0:
115,224,7109,5,2,3:1:0:0:
114,223,7319,2,0,P|66:127|131:42,1,220,2|2,0:0|0:0,0:0:0:0:
185,137,8582,1,2,3:1:0:0:
185,137,8793,1,2,3:1:0:0:
236,240,9214,1,8,0:0:0:0:
236,240,9424,1,2,0:0:0:0:
165,324,9845,1,2,3:1:0:0:
66,289,10266,5,2,3:1:0:0:
66,289,10477,2,0,P|44:242|57:168,1,110,6|8,3:1|0:0,0:0:0:0:
94,85,11331,2,0,L|301:71,1,165,2|2,3:1|3:1,0:0:0:0:
376,70,12400,1,2,0:0:0:0:
376,70,12613,2,0,B|398:120|398:120|376:175,1,110,10|0,0:0|3:2,0:0:0:0:
351,236,13254,1,2,0:0:0:0:
351,236,13468,1,10,0:0:0:0:
442,306,13895,5,2,3:1:0:0:
442,306,14109,2,0,P|396:351|259:288,1,220,2|2,0:0|0:0,0:0:0:0:
351,236,15391,1,2,3:1:0:0:
351,236,15605,2,0,L|472:225,1,110,2|8,3:1|0:1,0:0:0:0:
496,122,16459,2,0,L|386:131,1,110,0|10,3:1|0:0,0:0:0:0:
307,55,17314,5,6,3:1:0:0:
197,68,17742,1,10,0:0:0:0:
197,68,17956,1,2,0:1:0:0:
264,162,18385,1,2,0:0:0:0:
264,162,18599,1,10,0:0:0:0:
325,253,19028,1,6,3:1:0:0:
219,261,19456,1,10,0:0:0:0:
219,261,19671,1,2,0:0:0:0:
280,358,20099,1,2,0:0:0:0:
280,358,20314,1,10,0:0:0:0:
388,353,20742,6,0,P|436:291|397:219,1,165,6|0,3:1|0:0,0:0:0:0:
352,193,21599,2,0,P|316:123|363:60,1,165,2|2,3:1|0:0,0:0:0:0:
414,41,22456,1,0,3:0:0:0:
414,41,23528,6,0,L|489:35,2,55,0|10|2,0:0|0:1|0:0,0:0:0:0:
359,46,24171,2,0,L|209:52,1,110,6|8,3:1|0:0,0:0:0:0:
139,54,25029,2,0,P|118:103|140:152,1,110,2|8,3:1|0:0,0:0:0:0:
189,178,25674,1,2,3:1:0:0:
189,178,25888,2,0,L|326:175,1,110,0|8,3:1|0:0,0:0:0:0:
354,174,26533,1,2,0:0:0:0:
414,272,26962,1,2,0:1:0:0:
414,272,27177,1,10,0:0:0:0:
331,344,27606,5,2,3:1:0:0:
331,344,27821,2,0,L|132:348,1,165,2|0,0:0|3:0,0:0:0:0:
115,350,28680,1,2,0:0:0:0:
115,350,28895,1,10,0:0:0:0:
174,257,29324,2,0,P|191:205|159:138,1,110,2|8,3:1|0:0,0:0:0:0:
140,110,29969,1,2,0:0:0:0:
71,31,30398,6,0,L|15:35,2,55,0|10|2,0:0|0:0|3:1,0:0:0:0:
125,26,31042,1,2,3:1:0:0:
224,73,31472,1,10,0:0:0:0:
316,12,31902,1,2,3:1:0:0:
316,12,32117,1,2,3:1:0:0:
415,59,32547,2,0,P|452:111|431:187,1,110,2|2,3:1|0:0,0:0:0:0:
425,205,33192,1,8,0:0:0:0:
425,205,33407,1,2,0:0:0:0:
460,314,33837,1,2,0:1:0:0:
460,314,34052,1,10,0:0:0:0:
360,353,34482,5,2,3:1:0:0:
360,353,34697,2,0,P|311:329|287:280,1,110,2|0,0:0|0:0,0:0:0:0:
304,228,35343,1,0,3:0:0:0:
304,228,35558,1,2,3:1:0:0:
359,133,35988,1,2,3:1:0:0:
359,133,36203,1,2,3:1:0:0:
249,135,36633,2,0,L|139:124,1,110,8|0,0:0|3:1,0:0:0:0:
184,224,37493,1,10,0:0:0:0:
170,332,37923,5,6,3:1:0:0:
79,269,38357,1,10,0:0:0:0:
79,269,38575,1,2,0:0:0:0:
178,222,39009,1,2,0:0:0:0:
178,222,39227,1,10,0:0:0:0:
95,149,39662,1,6,3:1:0:0:
190,92,40096,1,10,0:0:0:0:
190,92,40314,1,2,0:0:0:0:
109,25,40749,1,2,0:0:0:0:
109,25,40966,1,10,0:0:0:0:
16,86,41401,6,0,L|16:261,1,165,6|0,3:1|0:0,0:0:0:0:
14,306,42264,2,0,P|81:347|154:307,1,165,2|2,3:1|3:1,0:0:0:0:
153,256,43127,1,0,3:0:0:0:
153,256,43990,1,2,3:1:0:0:
153,256,44206,1,2,3:1:0:0:
264,237,44638,1,2,3:1:0:0:
264,237,44854,6,0,P|268:83|119:161,1,385,6|0,3:1|3:0,0:0:0:0:
129,210,46584,6,0,L|129:287,1,55,2|0,3:1|0:1,0:0:0:0:
132,324,47016,1,10,0:1:0:0:
132,324,47233,1,0,0:0:0:0:
32,290,47665,1,0,3:1:0:0:
32,290,47882,1,10,0:0:0:0:
42,180,48314,6,0,L|42:45,1,110,6|10,3:1|0:1,0:0:0:0:
152,71,49179,2,0,L|152:181,1,110,2|10,3:1|0:0,0:0:0:0:
262,183,50045,2,0,L|262:73,1,110,2|10,3:1|0:1,0:0:0:0:
363,127,50910,1,2,3:1:0:0:
363,127,51126,1,0,3:1:0:0:
446,47,51559,1,0,3:1:0:0:
446,47,51775,6,0,L|106:47,1,330,6|10,3:1|0:0,0:0:0:0:
6,49,53505,6,0,L|6:109,1,55,2|0,3:1|0:0,0:0:0:0:
10,163,53938,1,10,0:0:0:0:
10,163,54154,1,0,0:0:0:0:
119,134,54587,1,0,3:1:0:0:
119,134,54803,1,10,0:0:0:0:
81,236,55236,6,2,P|63:288|79:341,1,110,6|10,3:1|0:0,0:0:0:0:
188,343,56101,2,0,P|205:291|190:238,1,110,2|10,3:1|0:0,0:0:0:0:
164,190,56750,5,4,3:1:0:0:
164,190,56966,2,0,P|148:137|161:81,1,110,2|10,3:1|0:0,0:0:0:0:
207,58,57615,2,2,L|377:58,1,165,4|10,3:1|0:0,0:0:0:0:
447,138,58696,5,6,3:1:0:0:
439,247,59129,1,8,0:0:0:0:
348,195,59562,1,2,3:1:0:0:
348,194,59779,2,0,P|333:248|348:301,1,110,0|2,3:0|0:0,0:0:0:0:
375,349,60428,5,0,3:0:0:0:
482,326,60862,1,8,3:1:0:0:
460,218,61295,1,0,3:0:0:0:
353,241,61729,1,10,0:0:0:0:
248,273,62161,5,2,3:1:0:0:
248,273,62378,2,0,L|256:79,1,165,2|0,0:0|3:0,0:0:0:0:
257,53,63244,1,2,3:1:0:0:
257,53,63461,1,10,0:0:0:0:
148,38,63894,6,0,L|146:156,1,110,0|8,3:0|3:1,0:0:0:0:
145,203,64544,1,2,3:1:0:0:
97,301,64977,2,0,L|27:304,2,55,2|10|2,3:1|0:1|3:1,0:0:0:0:
151,297,65627,6,0,L|301:289,1,110,6|8,3:1|0:0,0:0:0:0:
374,289,66497,1,2,3:1:0:0:
374,289,66715,1,0,3:0:0:0:
487,284,67150,1,2,3:1:0:0:
487,284,67368,1,0,3:1:0:0:
374,289,67804,2,0,L|241:293,1,110,8|0,3:1|3:1,0:0:0:0:
209,296,68457,1,2,3:1:0:0:
209,296,68674,1,10,0:0:0:0:
99,305,69110,5,2,3:1:0:0:
98,304,69328,2,0,P|61:234|92:161,1,165,2|0,0:0|3:0,0:0:0:0:
138,131,70198,2,0,L|282:144,1,110,2|2,3:1|3:1,0:0:0:0:
302,148,70851,1,2,3:1:0:0:
409,122,71287,1,8,0:0:0:0:
376,226,71722,1,0,3:0:0:0:
376,226,71940,2,0,L|380:283,2,55,2|10|2,3:1|0:0|3:1,0:0:0:0:
373,170,72593,5,6,3:1:0:0:
483,144,73029,1,10,0:0:0:0:
483,144,73246,1,2,0:0:0:0:
490,37,73682,1,2,3:1:0:0:
490,37,73899,1,10,0:0:0:0:
385,0,74335,1,6,3:1:0:0:
313,83,74770,1,10,0:0:0:0:
313,83,74987,1,2,0:0:0:0:
373,170,75423,2,0,L|433:170,2,55,2|10|2,3:1|0:1|3:1,0:0:0:0:
317,167,76076,6,0,P|277:120|172:118,1,165,4|0,3:1|0:0,0:0:0:0:
138,151,76947,2,0,P|117:209|168:301,1,165,2|2,3:1|3:1,0:0:0:0:
215,304,77818,1,0,3:1:0:0:
256,192,78471,12,6,79560,3:1:0:0:
256,55,92801,6,0,L|256:0,2,55,2|10|2,3:1|0:0|3:1,0:0:0:0:
256,109,93452,1,6,3:1:0:0:
256,218,93889,1,10,0:0:0:0:
256,218,94107,1,6,0:0:0:0:
260,332,94545,1,2,3:1:0:0:
260,332,94763,1,10,0:0:0:0:
256,218,95201,1,6,3:1:0:0:
256,108,95638,1,10,0:0:0:0:
256,108,95857,1,6,0:0:0:0:
329,26,96294,2,0,L|388:26,2,55,2|10|2,3:1|0:0|3:1,0:0:0:0:
273,26,96950,6,0,B|190:26|190:26|190:109,1,165,6|0,3:1|0:0,0:0:0:0:
191,163,97822,2,0,B|191:246|191:246|108:246,1,165,2|0,3:1|3:1,0:0:0:0:
54,244,98694,1,0,3:1:0:0:
54,244,99566,1,2,3:1:0:0:
54,244,99784,1,2,3:1:0:0:
93,352,100220,1,2,3:1:0:0:
93,352,100438,6,0,B|168:389|302:359|236:287|380:260|453:321,1,385,6|0,3:1|3:0,0:0:0:0:
502,356,102167,5,2,3:1:0:0:
495,246,102599,1,10,0:1:0:0:
495,246,102815,2,0,L|484:133,1,110,0|0,0:0|3:1,0:0:0:0:
479,81,103463,1,10,0:0:0:0:
389,144,103896,6,2,L|242:135,1,110,2|10,3:1|0:0,0:1:0:0:
230,162,104544,2,0,L|83:153,1,110,0|0,0:0|3:0,0:1:0:0:
73,184,105193,1,10,0:0:0:0:
81,74,105625,6,0,L|191:42,1,110,2|10,3:1|0:0,0:0:0:0:
216,148,106489,2,0,L|110:178,1,110,2|10,3:1|0:0,0:0:0:0:
127,286,107354,2,0,B|197:298|256:384|256:384|311:300|400:284,1,330,6|10,3:1|0:1,0:0:0:0:
256,206,109099,6,0,L|256:261,2,55,2|0|10,3:1|0:0|0:0,0:0:0:0:
256,150,109754,1,0,0:0:0:0:
256,40,110190,1,0,3:1:0:0:
256,40,110408,1,10,0:0:0:0:
354,93,110844,1,6,3:1:0:0:
436,165,111272,6,0,P|440:192|437:219,1,55,8|0,3:1|3:1,0:0:0:0:
417,275,111701,2,0,P|404:300|386:320,1,55,8|0,3:1|3:0,0:0:0:0:
337,354,112129,2,0,P|312:367|285:373,1,55,8|2,3:1|3:1,0:0:0:0:
226,371,112558,2,0,P|198:366|173:356,1,55,12|0,3:1|3:1,0:0:0:0:
126,319,112986,2,0,P|107:300|92:276,1,55,8|6,3:1|3:1,0:0:0:0:
75,219,113415,2,0,P|71:191|74:164,1,55,8|10,3:1|3:1,0:0:0:0:
94,108,113844,2,0,P|107:83|125:63,1,55,10|10,3:1|3:1,0:0:0:0:
173,38,114272,5,6,3:1:0:0:
256,109,114706,1,10,0:0:0:0:
339,38,115141,1,2,3:1:0:0:
339,38,115358,2,0,P|367:86|361:151,1,110,0|2,3:0|3:1,0:0:0:0:
351,192,116011,1,0,3:1:0:0:
241,187,116445,1,8,3:1:0:0:
241,297,116880,1,0,3:1:0:0:
241,297,117098,2,0,L|238:357,2,55,2|10|2,3:1|0:0|3:1,0:0:0:0:
243,241,117750,5,2,3:1:0:0:
243,241,117967,2,0,L|77:250,1,165,2|0,0:0|3:0,0:0:0:0:
27,256,118837,1,2,3:1:0:0:
27,256,119054,1,10,0:0:0:0:
108,338,119489,5,0,3:1:0:0:
108,338,119706,2,0,L|236:331,2,110,2|2|2,3:1|3:1|3:1,0:0:0:0:
52,340,120793,1,10,0:1:0:0:
42,230,121228,6,0,L|35:113,1,110,6|8,3:1|0:0,0:0:0:0:
132,173,122098,1,2,3:1:0:0:
132,173,122315,1,0,3:1:0:0:
245,161,122750,1,2,3:1:0:0:
245,161,122967,2,0,L|255:318,1,110,0|8,3:1|3:1,0:0:0:0:
259,375,123837,1,0,3:1:0:0:
259,375,124054,2,0,L|199:375,2,55,2|10|2,3:1|0:0|3:1,0:0:0:0:
314,376,124706,5,2,3:1:0:0:
314,376,124924,2,0,P|359:314|312:239,1,165,2|0,0:0|3:0,0:0:0:0:
273,220,125793,1,2,3:1:0:0:
343,135,126228,1,2,3:1:0:0:
343,135,126445,1,0,3:1:0:0:
265,56,126880,1,8,0:0:0:0:
196,141,127315,1,0,3:0:0:0:
196,141,127532,2,0,L|123:141,2,55,2|10|2,3:1|0:1|3:1,0:0:0:0:
250,142,128185,5,6,3:1:0:0:
361,123,128624,1,10,0:1:0:0:
361,123,128844,1,2,0:0:0:0:
324,229,129283,1,2,3:1:0:0:
324,229,129503,1,10,3:1:0:0:
261,138,129943,1,4,3:1:0:0:
373,126,130382,1,10,0:0:0:0:
373,126,130602,1,2,0:0:0:0:
337,232,131042,1,2,3:1:0:0:
337,232,131261,2,0,L|271:232,1,55,10|2,3:1|3:1,0:0:0:0:
226,233,131701,6,0,P|252:172|218:82,1,165,6|0,3:1|0:0,0:0:0:0:
164,86,132580,2,0,P|138:147|172:237,1,165,2|2,3:1|3:1,0:0:0:0:
204,279,133459,1,0,3:0:0:0:
142,370,133899,1,8,0:0:0:0:
44,320,134338,1,0,3:0:0:0:
70,213,134778,1,10,3:1:0:0:
177,188,135217,6,0,L|361:185,1,165,2|0,3:1|0:0,0:0:0:0:
396,184,136092,2,0,L|393:19,1,165,2|2,3:1|3:1,0:0:0:0:
448,19,136968,1,2,3:1:0:0:
493,119,137406,1,8,0:0:0:0:
444,217,137844,1,0,3:1:0:0:
444,217,138063,2,0,L|466:280,2,55,2|10|2,3:1|3:1|3:1,0:0:0:0:
426,164,138720,6,0,P|358:120|287:162,1,165,6|0,3:1|3:1,0:0:0:0:
260,201,139596,2,0,P|189:236|124:192,1,165,6|6,3:1|3:1,0:0:0:0:
101,141,140472,1,12,3:1:0:0:
256,192,140688,12,0,149085,0:0:0:0:
