osu file format v14

[General]
AudioFilename: audio.mp3
AudioLeadIn: 0
PreviewTime: 9845
Countdown: 0
SampleSet: Normal
StackLeniency: 0.4
Mode: 0
LetterboxInBreaks: 0
WidescreenStoryboard: 1

[Editor]
Bookmarks: 1681,44854,58696,79560,93452,100438,114272,140472,149085
DistanceSpacing: 1
BeatDivisor: 4
GridSize: 8
TimelineZoom: 2.1

[Metadata]
Title:A Hard Day's Night
TitleUnicode:A Hard Day's Night
Artist:The Beatles
ArtistUnicode:The Beatles
Creator:Apo11o
Version:Mismagius' Hard
Source:A Hard Day's Night
Tags:english pop rock respirte fsjallink mismagius blue dragon john lennon paul mccartney george harrison ringo starr days
BeatmapID:4000871
BeatmapSetID:1786226

[Difficulty]
HPDrainRate:4
CircleSize:4
OverallDifficulty:7
ApproachRate:7.5
SliderMultiplier:1.8
SliderTickRate:1

[Events]
//Background and Video events
0,0,"hard day's night.jpg",0,0
//Break Periods
2,79760,92584
//Storyboard Layer 0 (Background)
//Storyboard Layer 1 (Fail)
//Storyboard Layer 2 (Pass)
//Storyboard Layer 3 (Foreground)
//Storyboard Layer 4 (Overlay)
//Storyboard Sound Samples

[TimingPoints]
556,500,4,1,2,37,1,0
3056,437.956204379562,4,1,1,60,1,0
3712,424.628450106157,4,1,1,60,1,0
7109,421.052631578947,4,1,1,60,1,0
10477,427.350427350427,4,1,1,60,1,0
17314,428.571428571429,4,1,1,60,1,0
24171,429.491768074445,4,1,1,60,1,0
31042,430.10752688172,4,1,1,60,1,0
37923,434.782608695652,4,1,1,60,1,0
41401,431.654676258993,4,1,1,60,1,0
44854,432.588320115357,4,1,3,60,1,0
58696,433.212996389892,4,1,1,60,1,0
65627,435.413642960813,4,1,1,60,1,0
79560,434.153400868307,4,1,1,60,1,0
93452,437.31778425656,4,1,1,60,1,0
96950,436.046511627907,4,1,1,60,1,0
100438,432.276657060519,4,1,3,60,1,0
107354,436.363636363636,4,1,3,60,1,0
110844,428.571428571429,4,1,1,60,1,0
114272,434.782608695652,4,1,1,60,1,0
128185,439.56043956044,4,1,1,60,1,0
135217,437.956204379562,4,1,1,60,1,0
140472,433.212996389892,4,1,2,60,1,0
140472,-142.857142857143,4,1,2,60,0,0
140580,-142.857142857143,4,1,1,60,0,0
142204,430.10752688172,4,1,1,50,1,0
142204,-142.857142857143,4,1,1,50,0,0
143924,-200,4,1,1,40,0,0
145644,-142.857142857143,4,1,1,30,0,0
149085,-100,4,1,1,5,0,0

[Colours]
Combo1 : 255,46,46
Combo2 : 110,217,234
Combo3 : 234,127,127
Combo4 : 197,127,234

[HitObjects]
340,48,556,6,2,B|258:-30|94:50|151:242|300:244|352:164|352:164|425:75|598:136|565:334|416:356|354:281,1,900,14|2,3:1|0:0,0:0:0:0:
309,364,3274,2,0,P|270:333|223:339,1,90
177,268,3712,6,0,L|0:299,1,180,6|8,3:1|0:0,0:0:0:0:
21,211,4348,1,0,0:0:0:0:
21,211,4561,2,0,P|28:160|20:115,2,90,2|0|8,3:1|3:0|0:0,0:0:0:0:
95,262,5198,1,2,3:1:0:0:
160,201,5410,6,0,L|249:216,1,90,0|2,3:1|0:0,0:0:0:0:
298,292,5835,2,0,L|386:276,2,90,8|2|0,0:0|0:0|3:1,0:0:0:0:
249,216,6472,1,2,0:0:0:0:
302,143,6684,1,10,0:0:0:0:
253,67,6896,1,2,3:1:0:0:
329,17,7109,5,2,3:1:0:0:
329,17,7319,2,0,P|424:15|485:81,1,180,2|0,0:0|0:0,0:0:0:0:
499,159,7951,1,0,3:0:0:0:
422,205,8161,2,0,P|405:165|417:111,1,90,2|8,0:0|0:0,0:0:0:0:
324,143,8582,6,0,B|294:122|215:126|253:179|186:187|154:172,1,180,2|0,3:1|0:0,0:0:0:0:
109,97,9214,2,0,L|21:117,2,90,8|2|0,0:0|0:0|3:2,0:0:0:0:
156,20,9845,1,2,3:1:0:0:
232,67,10056,2,0,L|320:47,1,90,10|2,0:0|3:1,0:0:0:0:
347,131,10477,6,0,P|412:148|510:82,2,180,6|8|2,3:1|0:0|3:1,0:0:0:0:
304,210,11545,1,2,3:1:0:0:
232,154,11759,1,10,0:1:0:0:
183,230,11972,1,2,3:1:0:0:
183,230,12186,6,0,L|77:213,1,90,0|2,3:2|0:0,0:0:0:0:
17,168,12613,2,0,P|46:138|150:140,1,135,10|0,0:0|0:0,0:0:0:0:
151,137,13041,2,0,P|168:92|152:37,1,90,0|2,3:2|0:0,0:0:0:0:
242,13,13468,1,10,0:0:0:0:
300,81,13682,1,2,3:1:0:0:
375,32,13895,5,2,3:1:0:0:
375,32,14109,2,0,B|470:61|470:61|398:96,1,180,2|0,0:0|0:0,0:0:0:0:
441,174,14750,1,0,3:0:0:0:
376,237,14964,2,0,P|333:218|283:224,2,90,2|10|2,0:0|0:0|3:1,0:0:0:0:
338,319,15605,6,0,B|308:298|229:302|267:355|200:363|168:348,1,180,2|8,3:1|0:1,0:0:0:0:
128,270,16246,1,2,0:0:0:0:
52,318,16459,2,0,P|40:264|53:225,1,90,0|2,3:1|0:0,0:0:0:0:
30,143,16887,1,10,0:0:0:0:
116,119,17100,1,2,3:1:0:0:
202,95,17314,6,0,L|231:7,2,90,6|2|10,3:1|0:0|0:0,0:0:0:0:
175,180,17956,1,2,0:1:0:0:
203,265,18171,2,0,L|185:317,2,45,0|0|2,3:1|0:0|0:0,0:0:0:0:
278,216,18599,2,0,P|336:212|374:235,1,90,10|2,0:0|3:1,0:0:0:0:
407,304,19028,5,6,3:1:0:0:
488,266,19242,1,2,0:0:0:0:
445,186,19456,1,10,0:0:0:0:
445,186,19671,2,0,P|462:131|392:16,1,180,2|2,0:0|0:0,0:0:0:0:
358,100,20314,2,0,P|304:107|262:93,1,90,10|2,0:0|3:1,0:0:0:0:
202,38,20742,6,0,P|128:34|203:132,1,270,6|0,3:1|0:0,0:0:0:0:
233,219,21599,2,0,P|303:206|397:269,1,180,2|8,3:1|0:0,0:0:0:0:
425,344,22242,1,2,0:0:0:0:
494,286,22456,2,0,P|499:238|514:195,1,90,0|2,3:0|0:0,0:0:0:0:
457,127,22885,6,0,L|469:73,3,45,8|0|2|0,0:0|0:0|0:0|0:0,0:0:0:0:
402,47,23314,2,0,L|390:101,3,45,2|0|0|0,3:1|0:0|0:0|0:0,0:0:0:0:
326,120,23742,2,0,L|231:134,1,90,10|2,0:1|0:0,0:0:0:0:
163,81,24171,6,0,P|91:106|9:42,2,180,6|8|2,3:1|0:0|3:1,0:0:0:0:
216,8,25244,1,0,3:0:0:0:
253,89,25459,1,8,0:0:0:0:
333,48,25674,6,0,P|418:58|508:83,1,180,2|2,3:1|0:0,0:0:0:0:
450,151,26318,2,0,P|406:138|362:133,1,90,8|2,0:0|0:0,0:0:0:0:
385,220,26747,2,0,P|377:256|379:279,2,45,0|0|2,3:0|0:0|0:1,0:0:0:0:
299,189,27177,1,10,0:0:0:0:
263,271,27392,1,2,3:1:0:0:
183,240,27606,5,2,3:1:0:0:
183,240,27821,2,0,L|2:275,1,180,2|0,0:0|0:0,0:0:0:0:
37,189,28465,1,0,3:0:0:0:
125,171,28680,2,0,P|134:118|117:75,2,90,2|10|2,0:0|0:0|3:1,0:0:0:0:
183,240,29324,6,0,P|255:261|335:184,1,180,2|8,3:1|0:0,0:0:0:0:
245,170,29969,1,2,0:0:0:0:
245,170,30076,1,0,0:0:0:0:
245,170,30183,2,0,P|231:126|244:72,1,90,0|0,3:0|0:0,0:0:0:0:
309,27,30613,1,10,0:0:0:0:
379,82,30828,1,2,3:1:0:0:
462,49,31042,6,0,L|490:134,1,90,2|2,3:1|0:0,0:0:0:0:
404,162,31472,2,0,L|376:247,1,90,10|2,0:0|0:0,0:0:0:0:
462,275,31902,2,0,L|490:360,2,90,2|2|8,3:1|3:1|0:0,0:0:0:0:
403,343,32547,6,0,P|338:361|244:293,1,180,2|2,3:1|0:0,0:0:0:0:
251,213,33192,2,0,L|111:243,1,135,8|0,0:0|0:0,0:0:0:0:
101,256,33622,2,0,P|88:206|106:153,1,90,0|2,3:0|0:1,0:0:0:0:
33,105,34052,1,10,0:0:0:0:
116,71,34267,1,2,3:1:0:0:
192,127,34482,5,2,3:1:0:0:
192,127,34697,2,0,P|285:147|425:27,1,270,2|0,0:0|3:0,0:0:0:0:
477,117,35558,2,0,P|469:172|463:210,1,90,2|10,3:1|0:0,0:0:0:0:
497,294,35988,1,2,3:1:0:0:
497,294,36203,6,0,B|467:315|388:311|426:258|359:250|327:265,1,180,2|8,3:1|0:0,0:0:0:0:
262,322,36848,2,0,L|274:369,2,45,2|0|0,0:0|0:0|3:1,0:0:0:0:
231,237,37278,1,2,0:0:0:0:
142,219,37493,1,10,0:0:0:0:
68,271,37708,1,2,3:1:0:0:
68,271,37923,6,0,P|68:329|86:366,2,90,6|2|10,3:1|0:0|0:0,0:0:0:0:
41,184,38575,2,0,P|96:186|91:82,1,180,2|2,0:0|0:0,0:0:0:0:
165,24,39227,1,10,0:0:0:0:
232,82,39444,1,2,3:1:0:0:
304,27,39662,6,0,L|408:3,2,90,6|2|10,3:1|0:0|0:0,0:0:0:0:
364,94,40314,2,0,P|385:152|356:273,1,180,2|2,0:0|0:0,0:0:0:0:
303,334,40966,1,10,0:0:0:0:
218,303,41183,1,2,3:1:0:0:
171,224,41401,6,0,L|-19:279,2,180,6|8|2,3:1|0:0|3:1,0:0:0:0:
199,138,42480,1,0,3:1:0:0:
275,184,42695,2,0,L|364:201,1,90,8|2,0:0|3:1,0:0:0:0:
400,283,43127,2,0,P|445:243|427:130,2,180,0|8|2,3:0|0:0|3:1,0:0:0:0:
351,359,44206,2,0,P|289:330|165:314,1,180,2|2,3:1|3:1,0:0:0:0:
99,355,44854,6,0,P|75:261|41:170,3,180,6|10|2|10,3:1|0:1|3:1|0:1,0:0:0:0:
9,100,46368,1,0,3:0:0:0:
65,30,46584,5,2,3:1:0:0:
151,54,46800,1,0,0:1:0:0:
237,79,47016,1,10,0:1:0:0:
237,79,47233,2,0,P|309:42|414:58,1,180,0|0,0:0|3:1,0:0:0:0:
491,29,47882,2,0,P|494:78|473:116,1,90,10|0,0:0|3:1,0:0:0:0:
416,181,48314,6,0,P|446:265|468:352,3,180,6|10|2|10,3:1|0:1|3:1|0:0,0:0:0:0:
382,381,49828,1,0,3:0:0:0:
311,324,50045,2,0,P|289:236|258:152,2,180,2|10|2,3:1|0:1|3:1,0:0:0:0:
234,371,51126,2,0,P|177:367|146:338,1,90,0|10,3:1|0:0,0:0:0:0:
146,257,51559,1,0,3:1:0:0:
59,279,51775,6,0,P|80:191|111:107,3,180,6|10|2|10,3:1|0:1|3:1|0:1,0:0:0:0:
145,23,53289,1,0,3:0:0:0:
213,81,53505,6,0,P|276:60|309:51,1,90,2|0,3:1|0:0,0:0:0:0:
387,34,53938,1,10,0:0:0:0:
456,90,54154,2,0,P|483:146|442:271,1,180,0|0,0:0|3:1,0:0:0:0:
385,311,54803,1,10,0:0:0:0:
319,249,55019,1,0,3:0:0:0:
248,305,55236,6,2,P|163:274|76:252,3,180,6|10|2|10,3:1|0:0|3:1|0:0,0:0:0:0:
26,176,56750,1,4,3:1:0:0:
55,91,56966,6,0,P|122:68|156:62,1,90,2|0,3:1|0:0,0:0:0:0:
211,7,57399,2,0,P|234:74|240:108,1,90,10|4,0:0|3:1,0:0:0:0:
222,181,57831,2,0,P|289:158|323:152,1,90,2|0,3:1|0:0,0:0:0:0:
360,80,58264,1,10,0:0:0:0:
443,112,58480,1,0,0:0:0:0:
443,112,58696,6,0,P|476:189|446:288,2,180,6|8|2,3:1|0:0|3:1,0:0:0:0:
390,38,59779,1,0,3:0:0:0:
318,91,59995,1,8,0:0:0:0:
318,91,60212,6,0,L|127:75,1,180,2|2,0:0|3:1,0:0:0:0:
70,16,60862,1,8,3:1:0:0:
17,88,61078,1,2,3:1:0:0:
17,88,61186,1,0,3:0:0:0:
17,88,61295,2,0,P|6:137|16:194,1,90,0|2,3:0|3:1,0:0:0:0:
96,149,61728,2,0,P|107:198|97:255,1,90,10|2,0:0|3:1,0:0:0:0:
69,322,62161,5,2,3:1:0:0:
69,322,62378,2,0,B|99:343|178:339|140:286|207:278|239:293,1,180,2|0,0:0|0:0,0:0:0:0:
306,346,63028,1,0,3:0:0:0:
393,324,63244,2,0,P|456:303|488:292,1,90,2|10,3:1|0:0,0:0:0:0:
503,208,63677,1,2,3:1:0:0:
503,208,63894,6,0,P|391:179|308:169,1,180,0|8,3:0|3:1,0:0:0:0:
269,101,64544,2,0,L|256:47,2,45,2|0|0,3:1|3:0|3:0,0:0:0:0:
207,166,64977,1,2,3:1:0:0:
131,115,65194,2,0,L|30:136,1,90,10|2,0:1|3:1,0:0:0:0:
26,151,65519,1,0,0:0:0:0:
12,171,65627,6,0,P|-9:233|14:350,2,180,6|8|2,3:1|0:0|3:1,0:0:0:0:
76,234,66715,2,0,P|127:236|171:210,1,90,0|8,3:0|0:0,0:0:0:0:
201,138,67150,1,2,3:1:0:0:
201,138,67368,6,0,P|272:116|368:174,1,180,0|8,3:1|3:1,0:0:0:0:
391,248,68021,1,2,3:1:0:0:
391,248,68130,1,0,3:1:0:0:
391,248,68239,2,0,P|393:307|375:354,1,90,0|2,3:1|3:1,3:1:0:0:
299,367,68674,1,10,0:0:0:0:
218,326,68892,1,2,3:1:0:0:
212,236,69110,5,2,3:1:0:0:
212,236,69328,2,0,L|26:201,1,180,2|0,0:0|0:0,0:0:0:0:
6,117,69981,1,0,3:0:0:0:
94,101,70198,2,0,L|187:83,1,90,2|8,3:1|0:0,0:0:0:0:
248,22,70634,1,2,3:1:0:0:
248,22,70851,6,0,P|310:65|410:58,2,180,2|8|0,3:1|0:0|3:0,0:0:0:0:
207,102,71940,1,2,3:1:0:0:
123,68,72158,1,10,0:0:0:0:
41,104,72375,1,2,3:1:0:0:
12,189,72593,6,0,P|5:241|15:283,2,90,6|2|10,3:1|0:0|0:0,0:0:0:0:
87,238,73246,2,0,P|137:264|252:221,1,180,2|2,0:0|3:1,0:0:0:0:
286,145,73899,1,10,0:0:0:0:
373,123,74117,1,2,3:1:0:0:
460,102,74335,6,0,L|490:8,2,90,6|2|10,3:1|0:0|0:0,0:0:0:0:
507,178,74988,2,0,L|447:366,1,180,2|2,0:0|3:1,0:0:0:0:
384,290,75641,2,0,P|334:288|288:320,1,90,10|2,0:1|3:1,0:0:0:0:
227,360,76076,6,0,B|197:381|118:377|156:324|89:316|57:331,2,180,4|8|2,3:1|0:0|3:1,0:0:0:0:
197,274,77165,2,0,P|203:218|190:177,1,90,0|8,3:0|0:0,0:0:0:0:
126,126,77600,1,2,3:1:0:0:
256,192,77818,12,6,79560,3:1:0:0:
389,113,93452,6,0,P|399:64|414:17,2,90,6|2|10,3:1|0:0|0:0,0:0:0:0:
433,190,94107,2,0,P|373:204|301:113,1,180,6|2,0:0|3:1,0:0:0:0:
317,35,94763,1,10,0:0:0:0:
229,12,94982,1,2,3:1:0:0:
209,100,95201,6,0,L|107:128,2,90,6|2|10,3:1|0:0|0:0,0:0:0:0:
197,189,95857,2,0,L|401:245,1,180,6|2,0:0|3:1,0:0:0:0:
419,312,96513,1,10,0:0:0:0:
497,269,96731,1,2,3:1:0:0:
497,269,96950,6,0,P|511:194|460:101,2,180,6|8|2,3:1|0:0|3:1,0:0:0:0:
499,358,98040,2,0,P|447:348|390:342,1,90,0|10,3:1|0:0,0:0:0:0:
358,269,98476,1,0,3:1:0:0:
358,269,98694,6,0,P|272:309|181:295,1,180,0|8,3:1|0:0,0:0:0:0:
121,240,99348,1,0,3:1:0:0:
121,240,99457,1,0,3:1:0:0:
121,240,99566,1,2,3:1:0:0:
186,177,99784,2,0,P|200:117|186:77,1,90,2|8,3:1|3:1,0:0:0:0:
126,29,100220,1,2,3:1:0:0:
126,29,100438,6,0,P|216:56|308:60,3,180,6|10|2|10,3:1|0:0|3:1|0:0,0:0:0:0:
383,24,101950,1,0,3:0:0:0:
456,76,102167,6,0,L|436:177,1,90,2|0,3:1|0:0,0:0:0:0:
479,244,102599,1,10,0:1:0:0:
423,314,102815,2,0,P|366:338|269:269,1,180,0|0,0:0|3:1,0:0:0:0:
256,191,103463,2,0,P|205:175|155:165,1,90,10|0,0:0|3:1,0:0:0:0:
206,85,103896,6,2,P|296:58|388:54,1,180,2|10,3:1|0:0,0:1:0:0:
461,13,104544,2,0,B|468:39|478:55|478:55|431:110|456:187,1,180,0|0,0:0|3:0,0:1:0:0:
497,260,105193,1,10,0:0:0:0:
434,324,105409,1,0,3:0:0:0:
349,292,105625,6,0,P|259:297|173:323,2,180,2|10|2,3:1|0:0|3:1,0:0:0:0:
379,206,106706,2,0,P|314:202|271:207,1,90,0|10,3:1|0:0,0:0:0:0:
212,158,107138,1,0,3:1:0:0:
212,158,107354,6,0,P|97:165|21:156,3,180,6|10|2|10,3:1|0:1|3:1|0:1,0:0:0:0:
54,245,108881,1,0,3:0:0:0:
75,331,109099,6,0,L|183:303,1,90,2|0,3:1|0:0,0:0:0:0:
230,250,109535,1,10,0:0:0:0:
277,326,109754,2,0,P|343:301|461:302,1,180,0|0,0:0|3:1,0:0:0:0:
500,224,110408,2,0,P|509:168|496:126,1,90,10|0,0:0|0:0,0:0:0:0:
467,51,110844,5,6,3:1:0:0:
381,24,111058,1,0,0:0:0:0:
391,113,111272,2,0,L|286:137,1,90,8|0,3:1|3:1,0:0:0:0:
228,82,111701,5,8,3:1:0:0:
142,109,111915,1,0,3:0:0:0:
152,20,112129,2,0,L|47:-4,1,90,8|2,3:1|3:1,0:0:0:0:
10,72,112558,5,12,3:1:0:0:
31,159,112772,1,0,3:1:0:0:
115,129,112986,1,8,3:1:0:0:
136,216,113200,1,6,3:1:0:0:
223,191,113415,6,0,P|241:247|252:283,1,90,8|10,3:1|3:1,0:0:0:0:
327,323,113844,2,0,P|340:280|354:237,1,90,10|10,3:1|3:1,0:0:0:0:
428,188,114272,6,0,P|403:135|432:15,2,180,6|10|2,3:1|0:0|3:1,0:0:0:0:
492,250,115358,1,0,3:0:0:0:
450,330,115576,1,8,0:0:0:0:
450,330,115793,6,0,P|362:318|272:311,1,180,2|2,3:1|3:1,0:0:0:0:
219,236,116445,1,8,3:1:0:0:
158,302,116663,1,2,3:1:0:0:
158,302,116772,1,0,3:1:0:0:
158,302,116880,2,0,L|145:359,2,45,0|0|2,3:1|3:1|3:1,0:0:0:0:
82,253,117315,2,0,P|66:201|82:154,1,90,10|2,0:0|3:1,0:0:0:0:
60,78,117750,5,2,3:1:0:0:
60,78,117967,2,0,P|125:90|220:30,1,180,2|0,0:0|0:0,0:0:0:0:
302,1,118619,1,0,3:0:0:0:
309,90,118837,2,0,P|358:102|401:115,2,90,2|10|2,3:1|0:0|3:1,0:0:0:0:
245,154,119489,5,0,3:1:0:0:
159,181,119706,1,2,3:1:0:0:
72,153,119924,2,0,P|61:205|71:247,1,90,8|2,3:1|3:1,0:0:0:0:
130,305,120358,2,0,L|116:358,2,45,0|0|2,3:1|3:1|3:1,0:0:0:0:
209,261,120793,1,10,0:1:0:0:
248,342,121011,1,2,3:1:0:0:
328,301,121228,6,0,P|378:259|487:267,2,180,6|8|2,3:1|0:0|3:1,0:0:0:0:
272,229,122315,2,0,P|211:214|169:208,1,90,0|8,3:1|0:1,0:0:0:0:
103,250,122750,1,2,3:1:0:0:
51,176,122967,6,0,P|49:127|67:89,1,90,0|0,3:1|3:1,0:0:0:0:
139,38,123402,1,8,3:1:0:0:
192,122,123619,1,0,3:1:0:0:
192,122,123728,1,0,3:1:0:0:
192,122,123837,2,0,L|302:102,1,90,0|2,3:1|3:1,0:0:0:0:
337,35,124272,1,10,0:0:0:0:
419,69,124489,1,2,3:1:0:0:
363,139,124706,5,2,3:1:0:0:
363,139,124924,2,0,P|418:224|397:301,1,180,2|0,0:0|0:0,0:0:0:0:
331,353,125576,1,0,3:0:0:0:
266,290,125793,2,2,P|204:275|164:268,1,90,2|8,3:1|0:0,0:1:0:0:
89,251,126228,1,2,3:1:0:0:
89,251,126445,6,0,L|52:69,1,180,0|8,3:1|0:0,0:0:0:0:
129,26,127098,1,0,0:0:0:0:
196,85,127315,2,0,L|184:139,2,45,0|0|2,3:0|0:0|3:1,0:0:0:0:
260,21,127750,1,10,0:1:0:0:
328,78,127967,1,2,3:1:0:0:
403,30,128185,6,0,L|499:12,2,90,6|2|10,3:1|0:0|0:1,0:0:0:0:
457,101,128844,2,0,P|430:151|452:272,1,180,2|2,0:0|3:1,0:0:0:0:
490,348,129503,1,10,3:1:0:0:
404,375,129723,1,2,3:1:0:0:
337,314,129943,6,0,P|288:327|237:344,2,90,4|2|10,3:1|0:0|0:0,0:0:0:0:
308,228,130602,2,0,P|335:178|313:57,1,180,2|2,0:0|3:1,0:0:0:0:
244,5,131261,1,10,3:1:0:0:
209,88,131481,1,2,3:1:0:0:
209,88,131701,6,0,B|179:67|100:71|138:124|71:132|39:117,2,180,6|8|2,3:1|0:0|3:1,0:0:0:0:
257,164,132800,2,0,P|261:214|246:258,2,90,0|8|2,3:0|0:0|3:1,0:0:0:0:
293,81,133459,6,0,P|331:113|351:155,1,90,0|0,3:0|0:0,0:0:0:0:
436,122,133899,2,0,P|440:172|425:216,1,90,8|0,0:0|0:0,0:0:0:0:
508,252,134338,2,0,P|475:290|433:310,1,90,0|2,3:0|3:1,0:0:0:0:
367,361,134778,1,10,3:1:0:0:
300,300,134998,1,2,3:1:0:0:
214,329,135217,6,0,P|131:308|23:289,2,180,2|8|2,3:1|0:0|3:1,0:0:0:0:
264,254,136311,2,0,P|323:234|360:224,1,90,2|8,3:1|0:0,0:0:0:0:
397,150,136749,1,2,3:1:0:0:
397,150,136968,6,0,L|494:171,1,90,2|0,3:1|0:0,0:0:0:0:
464,257,137406,2,0,L|443:354,1,90,8|0,0:0|0:0,0:0:0:0:
356,326,137844,2,0,L|298:312,3,45,0|0|2|0,3:1|3:0|3:1|3:1,0:0:0:0:
289,299,138282,2,0,L|192:320,1,90,10|2,3:1|3:1,0:0:0:0:
127,369,138720,6,0,P|111:314|188:225,1,180,6|8,3:1|3:1,0:0:0:0:
265,189,139377,1,0,3:1:0:0:
265,189,139596,2,0,P|276:127|265:93,1,90,6|2,3:1|3:1,0:0:0:0:
203,39,140034,1,10,3:1:0:0:
133,96,140253,1,6,3:1:0:0:
58,44,140472,1,12,3:1:0:0:
256,192,140580,12,0,149085,0:0:0:0:
