osu file format v14

[General]
AudioFilename: audio.mp3
AudioLeadIn: 0
PreviewTime: 9845
Countdown: 0
SampleSet: Normal
StackLeniency: 0.4
Mode: 0
LetterboxInBreaks: 0
WidescreenStoryboard: 1

[Editor]
Bookmarks: 35988,74770,117315,149085
DistanceSpacing: 0.8
BeatDivisor: 4
GridSize: 8
TimelineZoom: 2.1

[Metadata]
Title:A Hard Day's Night
TitleUnicode:A Hard Day's Night
Artist:The Beatles
ArtistUnicode:The Beatles
Creator:Apo11o
Version:Fsjallink's Insane
Source:A Hard Day's Night
Tags:english pop rock respirte fsjallink mismagius blue dragon john lennon paul mccartney george harrison ringo starr days
BeatmapID:3714164
BeatmapSetID:1786226

[Difficulty]
HPDrainRate:5
CircleSize:4.2
OverallDifficulty:8
ApproachRate:8.3
SliderMultiplier:2.4
SliderTickRate:1

[Events]
//Background and Video events
0,0,"hard day's night.jpg",0,0
//Break Periods
//Storyboard Layer 0 (Background)
//Storyboard Layer 1 (Fail)
//Storyboard Layer 2 (Pass)
//Storyboard Layer 3 (Foreground)
//Storyboard Layer 4 (Overlay)
//Storyboard Sound Samples

[TimingPoints]
556,500,4,1,2,37,1,0
3056,437.956204379562,4,1,1,60,1,0
3712,424.628450106157,4,1,1,60,1,0
7109,421.052631578947,4,1,1,60,1,0
10477,427.350427350427,4,1,1,60,1,0
17314,428.571428571429,4,1,1,60,1,0
20742,-125,4,1,1,60,0,0
24171,429.491768074445,4,1,1,60,1,0
31042,430.10752688172,4,1,1,60,1,0
37923,434.782608695652,4,1,1,60,1,0
41401,431.654676258993,4,1,1,60,1,0
41401,-125,4,1,1,60,0,0
44854,432.588320115357,4,1,3,60,1,0
44854,-142.857142857143,4,1,3,60,0,0
55236,-125,4,1,3,60,0,0
56750,-111.111111111111,4,1,3,60,0,0
58696,433.212996389892,4,1,1,60,1,0
65627,435.413642960813,4,1,1,60,1,0
76076,-125,4,1,1,60,0,0
78471,-90.9090909090909,4,1,1,60,0,0
79560,434.153400868307,4,1,1,60,1,0
79994,-111.111111111111,4,1,1,60,0,0
93452,437.31778425656,4,1,1,60,1,0
96950,436.046511627907,4,1,1,60,1,0
96950,-125,4,1,1,60,0,0
100438,432.276657060519,4,1,3,60,1,0
100438,-142.857142857143,4,1,3,60,0,0
107354,436.363636363636,4,1,3,60,1,0
107354,-142.857142857143,4,1,3,60,0,0
110844,428.571428571429,4,1,1,60,1,0
110844,-125,4,1,1,60,0,0
114272,434.782608695652,4,1,1,60,1,0
128185,439.56043956044,4,1,1,60,1,0
131701,-125,4,1,1,60,0,0
135217,437.956204379562,4,1,1,60,1,0
135217,-125,4,1,1,60,0,0
138720,-111.111111111111,4,1,1,60,0,0
140472,433.212996389892,4,1,2,60,1,0
140580,-100,4,1,1,60,0,0
142204,430.10752688172,4,1,1,50,1,0
143924,-100,4,1,1,40,0,0
145644,-100,4,1,1,30,0,0
149085,-100,4,1,1,5,0,0

[Colours]
Combo1 : 255,46,46
Combo2 : 110,217,234
Combo3 : 234,127,127
Combo4 : 197,127,234

[HitObjects]
256,192,556,6,2,L|256:260,1,60,14|0,3:1|0:0,0:0:0:0:
256,192,806,12,2,3056,0:0:0:0:
164,261,3712,6,0,P|153:190|149:41,1,180,6|0,3:1|0:0,0:0:0:0:
258,178,4136,2,0,P|339:194|446:223,1,180,8|0,0:0|0:0,0:0:0:0:
504,247,4561,1,2,3:1:0:0:
281,303,4773,1,0,3:0:0:0:
492,161,4985,1,8,0:0:0:0:
243,45,5198,6,0,P|152:52|60:116,1,180,2|0,3:1|0:0,0:0:0:0:
33,238,5622,2,0,P|39:305|53:366,1,120,2|8,0:0|0:0,0:0:0:0:
117,182,6047,1,2,0:0:0:0:
145,361,6259,2,0,P|218:353|298:342,1,120,0|2,3:1|0:0,0:0:0:0:
484,318,6684,1,10,0:0:0:0:
264,346,6896,1,2,3:1:0:0:
246,136,7109,1,2,3:1:0:0:
469,110,7319,6,0,P|436:171|314:258,1,180,2|0,0:0|0:0,0:0:0:0:
280,261,7740,2,0,P|216:242|150:233,1,120,0|0,0:0|3:0,0:0:0:0:
443,215,8161,1,2,0:0:0:0:
195,316,8372,1,8,0:0:0:0:
295,20,8582,6,0,P|325:111|320:176,1,120,2|2,3:1|3:1,0:0:0:0:
316,278,9003,1,0,0:0:0:0:
381,22,9214,2,0,P|461:39|513:46,1,120,8|2,0:0|0:0,0:0:0:0:
220,62,9635,2,0,P|140:45|76:42,1,120,0|2,3:2|3:1,0:0:0:0:
6,211,10056,1,10,0:0:0:0:
256,192,10266,1,2,3:1:0:0:
506,173,10477,6,0,P|504:240|480:368,1,180,6|0,3:1|0:0,0:0:0:0:
408,216,10904,2,0,P|391:127|386:37,1,180,8|0,0:0|0:0,0:0:0:0:
296,152,11331,2,0,P|208:176|136:184,1,120,2|2,3:1|3:1,0:0:0:0:
328,232,11759,1,10,0:1:0:0:
96,160,11972,2,0,P|48:232|88:368,1,180,2|0,3:1|0:0,0:0:0:0:
120,368,12400,1,2,0:0:0:0:
16,192,12613,5,10,0:0:0:0:
184,80,12827,1,0,0:0:0:0:
160,224,13041,1,0,3:2:0:0:
160,224,13147,1,0,0:0:0:0:
160,224,13254,2,0,P|232:240|296:240,1,120,2|10,0:0|0:0,0:0:0:0:
488,224,13682,1,2,3:1:0:0:
272,336,13895,1,2,3:1:0:0:
224,72,14109,6,0,P|304:40|424:112,1,180,2|0,0:0|0:0,0:0:0:0:
440,128,14536,2,0,P|376:168|328:208,1,120,0|0,0:0|3:0,0:0:0:0:
200,336,14964,1,2,0:0:0:0:
120,144,15177,1,10,0:0:0:0:
200,336,15391,6,0,P|269:302|351:322,1,120,2|2,3:1|3:1,0:0:0:0:
435,360,15818,1,0,0:1:0:0:
119,294,16032,2,0,P|98:215|90:134,1,120,8|2,0:1|0:0,0:0:0:0:
399,68,16459,2,0,P|389:127|372:184,1,120,0|2,3:1|0:0,0:0:0:0:
477,348,16887,1,10,0:0:0:0:
477,348,16994,1,0,0:0:0:0:
477,348,17100,1,2,3:1:0:0:
488,96,17314,5,6,3:1:0:0:
237,72,17528,1,2,0:0:0:0:
213,322,17742,1,10,0:0:0:0:
477,348,17956,2,0,P|415:263|317:204,1,180,2|0,0:1|0:0,0:0:0:0:
281,191,18385,1,2,0:0:0:0:
99,242,18599,1,10,0:0:0:0:
213,322,18814,1,2,3:1:0:0:
237,72,19028,5,6,3:1:0:0:
488,96,19242,1,2,0:0:0:0:
477,348,19456,1,10,0:0:0:0:
213,322,19671,2,0,P|270:258|397:221,1,180,2|0,0:0|0:0,0:0:0:0:
334,121,20099,2,0,P|274:144|185:133,1,120,2|10,0:0|0:0,0:0:0:0:
128,250,20528,1,2,3:1:0:0:
346,271,20742,6,0,P|272:243|168:244,1,144,6|0,3:1|0:0,0:0:0:0:
128,250,21171,2,0,P|79:263|24:279,1,96,8|0,0:0|0:0,0:0:0:0:
157,173,21599,1,2,3:1:0:0:
121,105,21814,2,0,P|88:56|14:55,1,96,0|8,3:0|0:0,0:0:0:0:
238,148,22242,2,0,P|295:131|403:125,1,144,2|0,0:0|0:0,0:0:0:0:
457,124,22671,1,2,0:0:0:0:
433,295,22885,1,8,0:0:0:0:
262,269,23099,1,2,0:0:0:0:
362,195,23314,1,2,3:1:0:0:
362,195,23421,1,0,0:0:0:0:
362,195,23528,1,0,0:0:0:0:
362,195,23635,1,0,0:0:0:0:
362,195,23742,2,0,P|305:180|295:180,1,48,10|0,0:1|0:0,0:0:0:0:
160,239,23956,2,0,P|136:233|114:224,1,48,2|0,0:0|0:0,0:0:0:0:
225,112,24171,6,0,P|239:206|236:346,1,180,6|0,3:1|0:0,0:0:0:0:
380,373,24600,2,0,P|364:295|366:154,1,180,8|0,0:0|0:0,0:0:0:0:
375,115,25029,1,2,3:1:0:0:
126,74,25244,1,0,3:0:0:0:
375,115,25459,1,8,0:0:0:0:
294,354,25674,1,2,3:1:0:0:
244,191,25888,6,0,P|140:197|85:228,1,120,0|2,3:1|0:0,0:0:0:0:
61,235,26211,1,0,0:0:0:0:
39,303,26318,1,8,0:0:0:0:
216,271,26533,1,2,0:0:0:0:
43,163,26747,2,0,P|28:91|33:23,1,120,0|2,3:0|0:1,0:0:0:0:
255,78,27177,1,10,0:0:0:0:
61,235,27392,1,2,3:1:0:0:
99,8,27606,1,2,3:1:0:0:
179,141,27821,6,0,P|240:152|335:87,1,180,2|0,0:0|0:0,0:0:0:0:
386,9,28251,2,0,P|459:-6|521:33,1,120,0|0,0:0|3:0,0:0:0:0:
461,297,28680,1,2,0:0:0:0:
497,138,28895,1,10,0:0:0:0:
332,92,29110,1,2,3:1:0:0:
294,254,29324,6,0,P|370:268|478:259,1,180,2|0,3:1|0:0,0:0:0:0:
504,328,29754,1,8,0:0:0:0:
298,370,29969,1,2,0:0:0:0:
367,155,30183,1,0,3:0:0:0:
356,148,30291,1,0,0:0:0:0:
344,143,30398,1,0,0:0:0:0:
332,138,30506,1,0,0:0:0:0:
320,133,30613,1,10,0:0:0:0:
308,128,30720,1,0,0:0:0:0:
296,123,30828,1,2,3:1:0:0:
284,119,30935,1,0,0:0:0:0:
272,116,31042,6,0,P|207:97|142:98,1,120,2|2,3:1|0:0,0:0:0:0:
60,328,31472,1,10,0:0:0:0:
138,180,31687,1,2,0:0:0:0:
0,97,31902,1,2,3:1:0:0:
35,227,32117,2,0,P|115:215|225:253,1,180,2|0,3:1|0:0,0:0:0:0:
278,291,32547,1,2,3:1:0:0:
338,160,32762,6,0,P|416:155|498:207,1,120,0|2,3:1|0:0,0:0:0:0:
467,367,33192,1,8,0:0:0:0:
511,223,33407,1,2,0:0:0:0:
381,348,33622,1,0,3:0:0:0:
381,348,33730,1,0,0:0:0:0:
381,348,33837,1,2,0:1:0:0:
303,319,34052,2,0,P|237:301|177:302,1,120,10|2,0:0|3:1,0:0:0:0:
7,337,34482,1,2,3:1:0:0:
76,86,34697,6,0,P|153:99|206:231,1,180,2|0,0:0|0:0,0:0:0:0:
192,260,35128,2,0,P|177:323|159:378,1,120,0|0,0:0|3:0,0:0:0:0:
115,184,35558,1,2,3:1:0:0:
291,242,35773,1,10,0:0:0:0:
27,217,35988,6,0,P|44:125|85:10,1,180,2|0,3:1|0:0,0:0:0:0:
150,19,36418,1,2,0:0:0:0:
356,58,36633,1,8,0:0:0:0:
356,58,36740,1,0,0:0:0:0:
356,58,36848,1,2,0:0:0:0:
150,19,37063,2,0,P|220:31|305:78,1,120,0|2,3:1|0:0,0:0:0:0:
115,184,37493,1,10,0:0:0:0:
115,184,37708,1,2,3:1:0:0:
264,50,37923,5,6,3:1:0:0:
448,145,38140,1,2,0:0:0:0:
287,303,38357,1,10,0:0:0:0:
115,184,38575,2,0,P|201:172|334:157,1,180,2|0,0:0|0:0,0:0:0:0:
358,198,39009,1,2,0:0:0:0:
203,127,39227,1,10,0:0:0:0:
358,198,39444,1,2,3:1:0:0:
264,50,39662,5,6,3:1:0:0:
115,184,39879,1,2,0:0:0:0:
298,321,40096,1,10,0:0:0:0:
448,145,40314,2,0,P|362:157|229:172,1,180,2|0,0:0|0:0,0:0:0:0:
199,117,40749,1,2,0:0:0:0:
152,361,40966,2,0,P|163:284|167:225,1,120,10|2,0:0|3:1,0:0:0:0:
87,24,41401,6,0,P|31:77|22:164,1,144,6|0,3:1|0:0,0:0:0:0:
30,212,41832,2,0,P|36:264|47:336,1,96,8|0,0:0|0:0,0:0:0:0:
100,157,42264,1,2,3:1:0:0:
100,157,42480,2,0,P|158:148|218:162,1,96,0|8,3:1|0:0,0:0:0:0:
388,328,42911,2,0,P|287:348|197:302,1,192,2|2,3:1|0:0,0:0:0:0:
470,324,43559,1,8,0:0:0:0:
378,252,43775,2,0,P|366:187|364:138,1,96,2|2,0:0|3:1,0:0:0:0:
488,28,44206,2,0,P|483:75|474:122,1,96,2|8,3:1|0:0,0:0:0:0:
473,122,44638,1,2,3:1:0:0:
309,147,44854,6,0,P|258:123|152:159,1,167.999994873047,6|10,3:1|0:1,0:0:0:0:
156,154,45502,1,0,0:0:0:0:
44,154,45719,2,0,P|34:97|34:51,1,83.9999974365235,2|0,3:1|3:1,0:0:0:0:
216,236,46151,2,0,P|226:293|226:339,1,83.9999974365235,10|0,0:1|3:0,0:0:0:0:
339,155,46584,5,2,3:1:0:0:
309,322,46800,1,0,0:1:0:0:
246,143,47016,1,10,0:1:0:0:
382,257,47233,2,0,P|464:266|505:291,1,125.999996154785
496,358,47665,1,0,3:1:0:0:
346,187,47882,2,0,P|353:130|373:39,1,125.999996154785,10|0,0:0|0:0,0:0:0:0:
442,98,48314,6,0,P|450:46|460:0,1,83.9999974365235,6|0,3:1|0:0,0:0:0:0:
287,59,48747,2,0,P|223:38|170:40,1,83.9999974365235,10|0,0:1|0:0,0:0:0:0:
131,45,49071,1,0,0:0:0:0:
131,45,49179,1,2,3:1:0:0:
217,160,49396,1,0,3:0:0:0:
111,140,49612,1,10,0:0:0:0:
228,59,49828,1,0,3:0:0:0:
35,123,50045,6,0,P|45:68|51:21,1,83.9999974365235,2|0,3:1|0:0,0:0:0:0:
14,207,50477,2,0,P|15:263|27:347,1,125.999996154785,10|0,0:1|0:0,0:0:0:0:
87,378,50910,1,2,3:1:0:0:
97,184,51126,2,0,P|147:168|197:168,1,83.9999974365235,0|10,3:1|0:0,0:0:0:0:
48,46,51559,1,0,3:1:0:0:
250,134,51775,6,0,P|306:149|379:161,1,125.999996154785,6|0,3:1|0:0,0:0:0:0:
421,96,52208,2,0,P|466:98|517:127,1,83.9999974365235,10|0,0:1|0:0,0:0:0:0:
395,314,52640,2,0,P|411:248|417:211,1,83.9999974365235,2|0,3:1|3:0,0:0:0:0:
250,134,53073,2,0,P|260:93|268:52,1,83.9999974365235,10|0,0:1|3:0,0:0:0:0:
191,331,53505,1,2,3:1:0:0:
138,187,53722,1,0,0:0:0:0:
260,227,53938,1,10,0:0:0:0:
100,337,54154,2,0,P|84:291|73:244,1,83.9999974365235,0|2,0:0|3:1,0:0:0:0:
36,67,54587,1,0,3:1:0:0:
75,256,54803,2,0,P|93:194|101:107,1,125.999996154785,10|0,0:0|0:0,0:0:0:0:
121,48,55236,6,2,P|195:81|266:56,1,144,6|0,3:1|0:0,0:0:0:0:
318,16,55668,1,10,0:0:0:0:
489,42,55885,1,0,0:0:0:0:
318,16,56101,2,0,P|325:86|332:142,1,96,2|0,3:1|0:0,0:0:0:0:
501,157,56533,1,10,0:0:0:0:
239,136,56750,2,2,P|250:236|258:276,2,107.999996704102,4|2|0,3:1|3:1|0:0,0:0:0:0:
215,345,57399,1,10,0:0:0:0:
331,212,57615,2,2,P|397:222|474:355,1,215.999993408203,4|0,3:1|0:0,0:0:0:0:
505,161,58264,5,10,0:0:0:0:
256,192,58480,1,0,0:0:0:0:
7,223,58696,2,0,P|2:156|-11:24,1,180,6|0,3:1|0:0,0:0:0:0:
115,143,59129,2,0,P|106:232|99:322,1,180,8|0,0:0|0:0,0:0:0:0:
28,372,59562,1,2,3:1:0:0:
196,211,59779,2,0,P|258:213|320:233,1,120,0|8,3:0|0:0,0:0:0:0:
504,103,60212,6,0,P|409:103|321:70,1,180,2|0,0:0|3:0,0:0:0:0:
250,50,60645,2,0,L|132:73,1,120,2|8,3:1|3:1,0:0:0:0:
308,2,61078,1,2,3:1:0:0:
283,210,61295,1,0,3:0:0:0:
283,210,61403,1,0,0:0:0:0:
283,210,61511,1,2,3:1:0:0:
459,144,61728,1,10,0:0:0:0:
287,124,61945,1,2,3:1:0:0:
449,228,62161,6,0,P|440:308|419:367,1,120,2|2,3:1|0:0,0:0:0:0:
359,367,62486,1,0,0:0:0:0:
293,337,62594,1,10,0:0:0:0:
198,199,62811,1,0,0:0:0:0:
371,152,63028,2,0,P|394:63|375:12,1,120,0|2,3:0|3:1,0:0:0:0:
330,240,63461,1,10,0:0:0:0:
235,71,63677,6,0,P|166:62|82:112,1,120,2|0,3:1|3:0,0:0:0:0:
20,128,64111,1,2,3:1:0:0:
315,80,64327,2,0,L|451:60,1,120,8|2,3:1|3:1,0:0:0:0:
330,240,64760,2,0,L|466:255,1,120,0|2,3:0|3:1,0:0:0:0:
218,368,65194,5,10,0:1:0:0:
256,192,65410,1,2,3:1:0:0:
294,16,65627,2,0,P|215:7|100:80,1,180,6|0,3:1|0:0,0:0:0:0:
156,240,66062,2,0,P|123:347|82:377,1,120,8|0,0:0|0:0,0:0:0:0:
421,212,66497,2,0,P|338:214|206:183,1,180,2|0,3:1|0:0,0:0:0:0:
168,152,66933,1,8,0:0:0:0:
450,131,67150,1,2,3:1:0:0:
316,302,67368,6,0,P|332:203|338:94,1,180,0|0,3:1|3:1,0:0:0:0:
280,75,67804,1,8,3:1:0:0:
280,75,67912,1,0,3:1:0:0:
280,75,68021,1,2,3:1:0:0:
280,75,68130,1,0,3:1:0:0:
280,75,68239,2,0,P|223:58|156:55,1,120,0|2,3:1|3:1,3:1:0:0:
143,263,68674,1,10,0:0:0:0:
37,146,68892,1,2,3:1:0:0:
161,49,69110,5,2,3:1:0:0:
157,153,69328,2,0,P|236:162|327:164,1,120,2|8,0:0|0:0,0:0:0:0:
494,174,69763,1,0,0:0:0:0:
277,163,69981,1,0,3:0:0:0:
494,174,70198,2,0,P|479:282|466:336,1,120,2|8,3:1|0:0,0:0:0:0:
424,342,70525,1,0,0:0:0:0:
353,326,70634,1,2,3:1:0:0:
461,98,70851,6,0,P|392:73|261:106,1,180,2|0,3:1|0:0,0:0:0:0:
217,128,71287,1,8,0:0:0:0:
34,42,71505,1,2,0:0:0:0:
217,128,71722,2,0,P|221:192|211:266,1,120,0|2,3:0|3:1,0:0:0:0:
33,350,72158,1,10,0:0:0:0:
33,350,72267,1,0,0:0:0:0:
33,350,72375,1,2,3:1:0:0:
48,122,72593,5,6,3:1:0:0:
275,139,72811,1,2,0:0:0:0:
261,366,73029,1,10,0:0:0:0:
33,350,73246,2,0,P|116:302|231:271,1,180,2|0,0:0|0:0,0:0:0:0:
274,269,73682,1,2,3:1:0:0:
446,310,73899,1,10,0:0:0:0:
261,366,74117,1,2,3:1:0:0:
275,139,74335,5,6,3:1:0:0:
48,122,74552,1,2,0:0:0:0:
33,350,74770,1,10,0:0:0:0:
261,366,74988,2,0,P|176:303|101:283,1,180,2|0,0:0|0:0,0:0:0:0:
15,194,75423,2,0,P|83:193|154:164,1,120,2|10,3:1|0:1,0:0:0:0:
333,196,75859,1,2,3:1:0:0:
168,100,76076,6,0,P|227:85|316:129,1,144,4|0,3:1|0:0,0:0:0:0:
333,196,76512,2,0,P|324:268|319:310,1,96,8|0,0:0|0:0,0:0:0:0:
392,128,76947,1,2,3:1:0:0:
474,175,77165,2,0,P|496:218|484:289,1,96,0|8,3:0|0:0,0:0:0:0:
289,375,77600,2,0,P|248:323|247:200,1,192,2|0,3:1|0:0,0:0:0:0:
246,201,78145,1,0,0:0:0:0:
246,201,78253,1,8,0:0:0:0:
141,352,78471,2,2,P|117:237|105:101,1,198.000006042481,6|0,3:1|0:0,0:1:0:0:
101,83,78907,1,0,0:0:0:0:
33,347,79124,1,8,0:0:0:0:
101,83,79342,1,0,3:0:0:0:
33,347,79560,1,6,3:1:0:0:
33,347,79994,6,0,P|102:333|153:325,1,107.999996704102,8|2,0:0|0:0,0:0:0:0:
324,295,80428,1,2,3:1:0:0:
192,245,80645,1,2,3:1:0:0:
240,369,80862,1,10,0:0:0:0:
314,201,81079,2,0,P|374:205|504:295,1,215.999993408203,2|0,3:1|0:0,0:0:0:0:
239,164,81730,2,0,P|231:122|220:50,1,107.999996704102,8|0,0:0|0:0,0:0:0:0:
168,263,82164,1,0,3:0:0:0:
168,263,82381,1,0,3:0:0:0:
317,119,82599,2,0,P|309:77|298:5,1,107.999996704102,8|0,0:0|3:0,0:0:0:0:
437,34,83033,5,6,3:1:0:0:
464,67,83141,1,2,3:1:0:0:
469,110,83250,1,2,3:1:0:0:
454,150,83358,1,2,3:1:0:0:
406,167,83467,1,10,3:1:0:0:
364,155,83575,1,2,3:1:0:0:
326,176,83684,1,2,3:1:0:0:
312,216,83792,1,2,3:1:0:0:
329,255,83901,1,2,3:1:0:0:
369,269,84010,1,2,3:1:0:0:
411,261,84118,1,2,3:1:0:0:
446,236,84227,1,2,3:1:0:0:
484,232,84335,1,10,3:1:0:0:
509,267,84444,1,2,3:1:0:0:
505,309,84552,1,2,3:1:0:0:
375,191,84769,6,0,P|303:189|145:215,1,215.999993408203,6|8,3:1|0:0,0:0:0:0:
161,210,85421,1,0,0:0:0:0:
244,133,85638,1,0,3:2:0:0:
251,281,85855,1,0,3:2:0:0:
331,84,86072,1,8,0:0:0:0:
348,315,86289,1,0,0:0:0:0:
495,189,86506,1,6,3:1:0:0:
495,189,86940,6,0,P|432:192|365:190,1,107.999996704102,8|2,0:0|0:0,0:0:0:0:
238,85,87374,1,2,3:1:0:0:
359,15,87591,1,2,3:1:0:0:
321,190,87808,1,10,0:1:0:0:
151,66,88025,2,0,P|95:80|43:228,1,215.999993408203,2|0,3:1|0:0,0:0:0:0:
218,352,88677,2,0,P|248:293|271:244,1,107.999996704102,8|0,0:0|0:0,0:0:0:0:
111,370,89111,1,0,3:0:0:0:
111,370,89328,1,0,3:0:0:0:
152,301,89545,2,0,P|182:242|205:193,1,107.999996704102,8|0,0:0|3:0,0:0:0:0:
171,23,89979,5,6,3:1:0:0:
128,13,90088,1,2,3:1:0:0:
86,23,90196,1,2,3:1:0:0:
58,56,90305,1,2,3:1:0:0:
58,98,90413,1,10,3:1:0:0:
81,134,90522,1,2,3:1:0:0:
122,145,90630,1,2,3:1:0:0:
164,134,90739,1,2,3:1:0:0:
205,121,90847,1,2,3:1:0:0:
247,110,90956,1,2,3:1:0:0:
290,108,91065,1,2,3:1:0:0:
332,116,91173,1,2,3:1:0:0:
372,130,91282,1,10,3:1:0:0:
404,157,91390,1,2,3:1:0:0:
431,190,91499,1,2,3:1:0:0:
363,283,91716,6,0,P|347:218|344:62,1,215.999993408203,6|8,3:1|0:0,0:0:0:0:
343,69,92367,1,0,0:0:0:0:
251,197,92584,2,0,P|182:187|136:175,1,107.999996704102,0|2,3:0|3:1,0:0:0:0:
52,265,93018,1,10,0:0:0:0:
52,265,93127,1,0,0:0:0:0:
52,265,93235,1,2,3:1:0:0:
192,61,93452,5,6,3:1:0:0:
394,180,93670,1,2,0:0:0:0:
253,373,93889,1,10,0:0:0:0:
224,214,94107,2,0,P|164:186|28:147,1,180,6|0,0:0|0:0,0:0:0:0:
19,83,94545,1,2,3:1:0:0:
255,145,94763,1,10,0:0:0:0:
52,265,94982,1,2,3:1:0:0:
253,373,95201,5,6,3:1:0:0:
394,180,95419,1,2,0:0:0:0:
192,61,95638,1,10,0:0:0:0:
225,215,95857,2,0,P|281:239|436:285,1,180,6|0,0:0|0:0,0:0:0:0:
471,295,96294,2,0,P|485:235|500:170,1,120,2|10,3:1|0:0,0:0:0:0:
413,362,96731,1,2,3:1:0:0:
446,113,96950,6,0,P|369:99|296:148,1,144,6|0,3:1|0:0,0:0:0:0:
254,189,97386,2,0,P|195:183|151:141,1,96,8|0,0:0|0:0,0:0:0:0:
284,266,97822,1,2,3:1:0:0:
284,266,98040,2,0,P|288:340|289:370,1,96,0|10,3:1|0:0,0:0:0:0:
340,203,98476,2,0,P|336:139|331:16,1,144,0|0,3:1|0:0,0:0:0:0:
401,20,98912,1,0,0:0:0:0:
411,247,99130,2,0,P|465:271|506:284,1,96,8|0,0:0|3:1,0:0:0:0:
441,156,99566,1,2,3:1:0:0:
259,207,99784,2,0,P|215:227|169:242,1,96,2|8,3:1|3:1,0:0:0:0:
169,242,100220,1,2,3:1:0:0:
297,122,100438,6,0,P|297:80|196:19,1,167.999994873047,6|10,3:1|0:0,0:0:0:0:
201,18,101086,1,0,0:0:0:0:
56,132,101302,2,0,P|53:208|56:233,1,83.9999974365235,2|0,3:1|3:0,0:0:0:0:
290,287,101734,2,0,P|293:211|290:186,1,83.9999974365235,10|0,0:0|3:0,0:0:0:0:
222,348,102167,5,2,3:1:0:0:
384,243,102383,1,0,0:0:0:0:
211,214,102599,1,10,0:1:0:0:
353,343,102815,2,0,P|420:349|483:351,1,125.999996154785
509,283,103247,1,0,3:1:0:0:
411,151,103463,2,0,P|363:121|289:106,1,125.999996154785,10|0,0:0|0:0,0:0:0:0:
255,37,103896,6,2,P|198:45|170:52,1,83.9999974365235,2|0,3:1|0:0,0:1:0:0:
289,187,104328,1,10,0:0:0:0:
185,137,104544,2,0,P|134:149|76:170,1,83.9999974365235,0|2,0:0|3:1,0:1:0:0:
33,184,104868,1,0,0:0:0:0:
33,184,104976,1,0,3:0:0:0:
101,61,105193,1,10,0:0:0:0:
206,135,105409,1,0,3:0:0:0:
142,244,105625,6,0,P|150:293|163:363,1,83.9999974365235,2|0,3:1|0:0,0:0:0:0:
344,217,106057,2,0,P|351:155|352:79,1,125.999996154785,10|0,0:0|0:0,0:0:0:0:
311,27,106489,1,2,3:1:0:0:
421,233,106706,2,0,P|465:243|514:257,1,83.9999974365235,0|10,3:1|0:0,0:0:0:0:
323,302,107138,1,0,3:1:0:0:
181,240,107354,6,0,P|119:254|60:277,1,125.999996154785,6|0,3:1|0:0,0:0:0:0:
27,174,107790,2,0,P|87:173|136:165,1,83.9999974365235,10|0,0:1|0:0,0:0:0:0:
306,141,108226,2,0,P|300:88|289:33,1,83.9999974365235,2|0,3:1|3:0,0:0:0:0:
398,264,108663,2,0,P|392:211|381:156,1,83.9999974365235,10|0,0:1|3:0,0:0:0:0:
268,332,109099,1,2,3:1:0:0:
193,270,109317,1,0,0:0:0:0:
315,237,109535,1,10,0:0:0:0:
148,201,109754,2,0,P|87:206|11:246,1,125.999996154785
10,304,110190,1,0,3:1:0:0:
149,201,110408,2,0,P|161:149|167:67,1,125.999996154785,10|0,0:0|0:0,0:0:0:0:
241,27,110844,6,2,P|297:12|426:77,1,192,6|8,3:1|3:1,3:1:0:0:
314,213,111486,1,0,3:1:0:0:
424,197,111701,2,0,P|418:261|406:320,1,96,8|0,3:1|3:0,0:0:0:0:
200,336,112129,5,8,3:1:0:0:
88,216,112344,1,2,3:1:0:0:
208,112,112558,1,12,3:1:0:0:
314,213,112772,1,0,3:1:0:0:
200,216,112986,5,8,3:1:0:0:
352,120,113201,1,6,3:1:0:0:
480,240,113415,1,8,3:1:0:0:
408,384,113629,1,10,3:1:0:0:
240,368,113844,5,10,3:1:0:0:
256,192,114058,1,10,3:1:0:0:
272,16,114272,1,6,3:1:0:0:
272,16,114706,6,0,P|184:16|96:96,1,180,10|0,0:0|0:0,0:0:0:0:
296,120,115141,2,0,P|384:96|456:96,1,120,2|0,3:1|3:0,0:0:0:0:
200,176,115576,1,8,0:0:0:0:
352,304,115793,2,0,P|368:232|376:136,1,120,2|0,3:1|3:1,0:0:0:0:
219,100,116228,1,2,3:1:0:0:
272,296,116445,5,8,3:1:0:0:
260,293,116554,1,0,3:1:0:0:
248,290,116663,1,2,3:1:0:0:
236,287,116772,1,0,3:1:0:0:
224,284,116880,1,0,3:1:0:0:
423,345,117098,1,2,3:1:0:0:
224,284,117315,2,0,P|147:275|82:273,1,120,10|2,0:0|3:1,0:0:0:0:
274,368,117750,1,2,3:1:0:0:
174,197,117967,6,0,P|163:138|149:6,1,180,2|0,0:0|0:0,0:0:0:0:
255,11,118402,2,0,P|333:3|402:4,1,120,0|0,0:0|3:0,0:0:0:0:
444,176,118837,1,2,3:1:0:0:
254,92,119054,1,10,0:0:0:0:
501,234,119272,2,0,P|496:317|483:370,1,120,2|0,3:1|3:1,0:0:0:0:
271,365,119706,1,2,3:1:0:0:
425,255,119924,2,0,P|325:267|284:272,1,120,8|2,3:1|3:1,0:0:0:0:
65,156,120358,2,0,P|165:144|206:139,1,120,0|2,3:1|3:1,0:0:0:0:
288,16,120793,5,10,0:1:0:0:
256,192,121011,1,2,3:1:0:0:
224,368,121228,2,0,P|312:344|456:328,1,180,6|0,3:1|0:0,0:0:0:0:
294,264,121663,2,0,P|206:283|69:325,1,180,8|0,0:0|0:0,0:0:0:0:
32,199,122098,2,0,P|14:120|8:56,1,120,2|0,3:1|3:1,0:0:0:0:
136,199,122532,1,8,0:1:0:0:
238,30,122750,6,0,P|358:82|379:162,1,180,2|0,3:1|3:1,0:0:0:0:
360,202,123185,1,0,3:1:0:0:
511,70,123402,1,8,3:1:0:0:
360,202,123619,2,0,P|306:236|237:285,1,120,0|0,3:1|3:1,0:0:0:0:
188,277,123945,1,0,3:1:0:0:
154,213,124054,1,2,3:1:0:0:
295,65,124272,2,0,P|361:78|435:89,1,120,10|2,0:0|3:1,0:0:0:0:
359,292,124706,1,2,3:1:0:0:
249,135,124924,6,0,P|272:217|274:358,1,180,2|0,0:0|0:0,0:0:0:0:
228,372,125358,1,0,0:0:0:0:
12,343,125576,1,0,3:0:0:0:
228,372,125793,2,2,P|153:354|95:308,1,120,2|8,3:1|0:0,0:1:0:0:
78,106,126228,1,2,3:1:0:0:
232,44,126445,6,0,P|292:109|257:232,1,180,0|0,3:1|0:0,0:0:0:0:
142,200,126880,2,0,P|89:234|50:312,1,120,8|0,0:0|0:0,0:0:0:0:
374,353,127315,2,0,P|427:319|466:241,1,120,0|2,3:0|3:1,0:0:0:0:
361,77,127750,1,10,0:1:0:0:
361,77,127858,1,0,0:0:0:0:
361,77,127967,1,2,3:1:0:0:
345,278,128185,5,6,3:1:0:0:
142,266,128404,1,2,0:0:0:0:
157,62,128624,1,10,0:1:0:0:
256,152,128844,2,0,P|248:288|236:363,1,180,2|0,0:0|0:0,0:0:0:0:
183,376,129283,1,2,3:1:0:0:
294,220,129503,1,10,3:1:0:0:
142,266,129723,1,2,3:1:0:0:
345,278,129943,5,4,3:1:0:0:
361,77,130163,1,2,0:0:0:0:
157,62,130382,1,10,0:0:0:0:
256,152,130602,2,0,P|351:158|469:170,1,180,2|0,0:0|0:0,0:0:0:0:
365,255,131042,2,0,P|303:258|231:265,1,120,2|10,3:1|3:1,0:0:0:0:
448,255,131481,1,2,3:1:0:0:
181,207,131701,6,0,P|114:254|126:339,1,144,6|0,3:1|0:0,0:0:0:0:
170,369,132141,2,0,P|225:367|275:359,1,96,8|0,0:0|0:0,0:0:0:0:
38,377,132580,1,2,3:1:0:0:
38,377,132800,2,0,P|29:318|28:248,1,96,0|8,3:0|0:0,0:0:0:0:
99,40,133239,2,0,P|119:106|81:223,1,192,2|0,3:1|0:0,0:0:0:0:
206,93,133899,5,8,0:0:0:0:
215,93,134009,1,0,0:0:0:0:
224,92,134119,1,0,0:0:0:0:
233,91,134228,1,0,0:0:0:0:
242,91,134338,2,0,P|322:86|358:86,1,96,0|2,3:0|3:1,0:0:0:0:
486,167,134778,2,0,P|406:172|370:172,1,96,10|2,3:1|3:1,0:0:0:0:
512,240,135217,6,0,P|520:315|465:381,1,144,2|0,3:1|0:0,0:0:0:0:
409,366,135654,2,0,P|390:313|378:258,1,96,8|0,0:0|0:0,0:0:0:0:
349,105,136092,1,2,3:1:0:0:
349,105,136311,2,0,P|242:122|210:131,1,96,2|8,3:1|0:0,0:0:0:0:
92,230,136749,2,0,P|171:202|266:253,1,192,2|0,3:1|0:0,0:0:0:0:
11,218,137406,2,0,P|17:162|29:98,1,96,8|0,0:0|0:0,0:0:0:0:
79,325,137844,2,0,P|85:269|97:205,1,96,0|2,3:1|3:1,0:0:0:0:
166,377,138282,1,10,3:1:0:0:
200,197,138501,1,2,3:1:0:0:
166,377,138720,6,0,P|226:340|335:358,1,161.999995056153,6|0,3:1|3:1,0:0:0:0:
417,286,139158,2,0,P|350:268|312:240,1,107.999996704102,8|0,3:1|3:1,0:0:0:0:
360,110,139596,1,6,3:1:0:0:
166,92,139815,1,2,3:1:0:0:
153,286,140034,1,10,3:1:0:0:
346,303,140253,1,6,3:1:0:0:
256,192,140472,5,12,3:1:0:0:
256,192,140580,12,0,149085,0:0:0:0:
