osu file format v14

[General]
AudioFilename: audio.mp3
AudioLeadIn: 0
PreviewTime: 58450
Countdown: 0
SampleSet: Soft
StackLeniency: 0.4
Mode: 0
LetterboxInBreaks: 0
WidescreenStoryboard: 0

[Editor]
DistanceSpacing: 1.1
BeatDivisor: 4
GridSize: 32
TimelineZoom: 2.7

[Metadata]
Title:Hazy Shade of Winter
TitleUnicode:Hazy Shade of Winter
Artist:The Bangles
ArtistUnicode:The Bangles
Creator:CraEZy
Version:The Upside Down
Source:Stranger Things
Tags:ost Netflix Original 80's 1980's 1987 Punk Less Than Zero Simon and Garfunkel
BeatmapID:1454669
BeatmapSetID:687459

[Difficulty]
HPDrainRate:6
CircleSize:4.5
OverallDifficulty:8
ApproachRate:9
SliderMultiplier:1.8
SliderTickRate:2

[Events]
//Background and Video events
0,0,"TfzbE9Y.png",0,0
//Break Periods
2,52793,55182
2,75156,77556
2,97596,99985
2,111691,120595
2,125460,131066
//Storyboard Layer 0 (Background)
//Storyboard Layer 1 (Fail)
//Storyboard Layer 2 (Pass)
//Storyboard Layer 3 (Foreground)
//Storyboard Sound Samples

[TimingPoints]
369,610.376398779247,4,2,1,5,1,0
15018,613.496932515337,4,2,1,5,1,0
22992,613.496932515337,4,2,1,5,1,0
30202,-100,4,2,1,5,0,0
30352,394.736842105263,4,2,1,50,1,0
36686,395.908940943583,4,2,1,50,1,0
43025,398.671096345515,4,2,1,50,1,0
43025,-111.111111111111,4,2,1,50,0,0
55782,395.387149917628,4,2,1,50,1,0
58960,398.009950248756,4,2,1,50,1,1
58960,-90.9090909090909,4,2,1,50,0,1
65338,399.467376830892,4,2,1,50,1,0
65338,-111.111111111111,4,2,1,50,0,0
74956,396.039603960396,4,2,1,50,1,0
78156,401.33779264214,4,2,1,50,1,0
81366,398.009950248756,4,2,1,50,1,1
81366,-90.9090909090909,4,2,1,50,0,1
87730,401.606425702811,4,2,1,50,1,0
87730,-111.111111111111,4,2,1,50,0,0
97396,398.671096345515,4,2,1,50,1,0
100587,398.009950248756,4,2,1,50,1,0
103771,396.039603960396,4,2,1,50,1,1
103771,-90.9090909090909,4,2,1,50,0,1
108325,-100,4,2,1,50,0,0
121195,413.793103448276,4,2,1,50,1,0
121195,-200,4,2,1,50,0,0
122850,392.156862745098,4,2,1,50,1,0
125260,400,4,2,1,50,1,0
131666,397.350993377483,4,2,1,50,1,0
138023,396.694214876033,4,2,1,50,1,0
144370,396.039603960396,4,2,1,50,1,0
150706,-90.9090909090909,4,2,1,50,0,0
157043,400,4,2,1,50,1,1
157043,-83.3333333333333,4,2,1,50,0,1
163143,-83.3333333333333,4,2,1,50,0,0
163243,-83.3333333333333,4,2,1,50,0,1
163343,-83.3333333333333,4,2,1,50,0,0

[Colours]
Combo1 : 149,114,207
Combo2 : 223,214,157
Combo3 : 83,206,135
Combo4 : 115,213,210
Combo5 : 226,166,120

[HitObjects]
256,192,28054,12,0,30200,0:0:0:0:
338,69,30352,5,8,0:0:0:0:
458,63,30549,1,0,0:0:0:0:
315,70,30746,5,8,0:0:0:0:
436,155,30944,1,0,0:0:0:0:
302,217,31141,5,8,0:0:0:0:
350,148,31338,1,2,0:0:0:0:
338,293,31536,1,10,0:0:0:0:
286,72,31733,6,0,L|189:78,1,90,2|8,0:0|0:0,0:0:0:0:
76,83,32128,1,0,0:0:0:0:
242,105,32325,1,8,0:0:0:0:
133,8,32523,1,0,0:0:0:0:
104,229,32720,5,8,0:0:0:0:
140,153,32917,1,2,0:0:0:0:
152,298,33115,1,10,0:0:0:0:
137,123,33312,1,2,0:0:0:0:
275,332,33509,5,8,0:0:0:0:
155,326,33707,1,0,0:0:0:0:
302,334,33904,5,8,0:0:0:0:
194,215,34102,1,0,0:0:0:0:
328,336,34299,5,8,0:0:0:0:
344,243,34496,1,2,0:0:0:0:
244,382,34694,1,10,0:0:0:0:
346,213,34891,6,0,L|352:116,1,90,2|8,0:0|0:0,0:0:0:0:
357,3,35286,1,0,0:0:0:0:
320,164,35483,1,8,0:0:0:0:
427,67,35680,1,0,0:0:0:0:
344,243,35878,5,8,0:0:0:0:
413,291,36075,1,2,0:0:0:0:
268,279,36273,1,8,0:0:0:0:
223,275,36371,1,0,0:0:0:0:
178,271,36470,1,0,0:0:0:0:
133,267,36569,1,0,0:0:0:0:
88,264,36667,5,8,0:0:0:0:
94,144,36884,1,0,0:0:0:0:
84,294,37082,5,8,0:0:0:0:
183,176,37280,1,0,0:0:0:0:
324,179,37478,5,8,0:0:0:0:
255,131,37676,1,2,0:0:0:0:
400,143,37874,1,10,0:0:0:0:
225,134,38072,6,0,L|128:140,1,90,2|8,0:0|0:0,0:0:0:0:
64,78,38468,1,0,0:0:0:0:
183,176,38666,1,8,0:0:0:0:
151,42,38864,1,0,0:0:0:0:
150,281,39061,5,8,0:0:0:0:
186,205,39259,1,2,0:0:0:0:
198,350,39457,1,10,0:0:0:0:
183,176,39655,1,2,0:0:0:0:
346,343,39853,5,8,0:0:0:0:
226,349,40051,1,0,0:0:0:0:
376,341,40249,5,8,0:0:0:0:
237,254,40447,1,0,0:0:0:0:
420,264,40645,5,8,0:0:0:0:
351,216,40843,1,2,0:0:0:0:
496,228,41041,1,10,0:0:0:0:
391,130,41239,6,0,L|301:135,1,90,2|8,0:0|0:0,0:0:0:0:
181,141,41635,1,0,0:0:0:0:
342,105,41833,1,8,0:0:0:0:
210,51,42031,1,0,0:0:0:0:
216,217,42229,5,8,0:0:0:0:
264,148,42427,1,2,0:0:0:0:
252,293,42625,2,0,L|246:382,1,90,8|0,0:0|0:0,0:0:0:0:
446,239,43025,6,0,P|378:199|304:225,1,161.999995056153,6|8,0:0|0:0,0:0:0:0:
252,293,43623,2,0,P|178:319|110:279,1,161.999995056153
84,199,44221,2,0,P|80:156|82:118,1,80.9999975280763,8|0,0:0|0:0,0:0:0:0:
131,38,44619,5,2,0:0:0:0:
131,38,44819,1,0,0:0:0:0:
221,75,45018,1,8,0:0:0:0:
328,18,45217,2,0,P|371:14|409:16,1,80.9999975280763,2|2,0:0|0:0,0:0:0:0:
450,99,45616,2,0,P|410:103|369:102,1,80.9999975280763,0|8,0:0|0:0,0:0:0:0:
278,120,46015,5,0,0:0:0:0:
264,276,46214,1,2,0:0:0:0:
325,204,46413,2,0,P|365:200|405:201,1,80.9999975280763,0|8,0:0|0:0,0:0:0:0:
474,275,46812,2,0,P|434:207|460:133,1,161.999995056153,2|0,0:0|0:0,0:0:0:0:
369,299,47410,2,0,P|372:339|371:379,1,80.9999975280763,8|0,0:0|0:0,0:0:0:0:
285,342,47809,5,2,0:0:0:0:
285,342,48008,1,0,0:0:0:0:
283,237,48207,2,0,P|281:196|285:156,1,80.9999975280763,8|2,0:0|0:0,0:0:0:0:
181,344,48606,5,2,0:0:0:0:
181,344,48805,1,0,0:0:0:0:
178,239,49005,5,8,0:0:0:0:
93,280,49204,2,0,P|52:283|12:282,1,80.9999975280763,0|2,0:0|0:0,0:0:0:0:
51,195,49603,2,0,P|47:154|48:114,1,80.9999975280763,0|8,0:0|0:0,0:0:0:0:
136,153,50001,2,0,P|176:149|216:150,1,80.9999975280763,2|2,0:0|0:0,0:0:0:0:
302,191,50400,1,0,0:0:0:0:
376,55,50599,2,0,P|379:95|378:135,1,80.9999975280763,8|0,0:0|0:0,0:0:0:0:
265,82,50998,5,2,0:0:0:0:
265,82,51197,1,0,0:0:0:0:
178,119,51397,1,8,0:0:0:0:
96,30,51596,2,0,P|55:28|15:31,1,80.9999975280763,2|2,0:0|0:0,0:0:0:0:
57,117,51995,1,0,0:0:0:0:
190,27,52194,1,8,0:0:0:0:
164,241,52393,1,2,0:0:0:0:
164,241,52493,1,2,0:0:0:0:
164,241,52593,1,6,0:0:0:0:
336,256,55782,5,8,0:0:0:0:
176,128,55979,1,0,0:0:0:0:
267,293,56177,5,8,0:0:0:0:
244,90,56375,1,0,0:0:0:0:
192,272,56572,5,8,0:0:0:0:
320,112,56770,1,0,0:0:0:0:
154,203,56968,5,8,0:0:0:0:
357,180,57165,1,0,0:0:0:0:
176,128,57363,5,8,0:0:0:0:
336,256,57561,1,0,0:0:0:0:
192,272,57758,5,8,0:0:0:0:
320,112,57956,1,0,0:0:0:0:
82,211,58154,5,8,0:0:0:0:
429,172,58352,1,8,0:0:0:0:
429,172,58960,5,8,0:0:0:0:
436,316,59159,1,0,0:0:0:0:
426,142,59358,5,8,0:0:0:0:
345,288,59557,1,0,0:0:0:0:
320,81,59756,5,8,0:0:0:0:
424,113,59955,2,0,L|473:109,1,49.5000015106202,2|0,0:0|0:0,0:0:0:0:
265,175,60154,2,0,L|215:171,1,49.5000015106202,10|0,0:0|0:0,0:0:0:0:
116,67,60353,6,0,L|122:165,1,99.0000030212403,2|8,0:0|0:0,0:0:0:0:
131,277,60751,1,0,0:0:0:0:
147,115,60950,1,8,0:0:0:0:
218,241,61149,1,0,0:0:0:0:
51,228,61348,5,8,0:0:0:0:
80,336,61547,2,0,L|83:385,1,49.5000015106202,2|0,0:0|0:0,0:0:0:0:
154,195,61746,2,0,L|157:145,1,49.5000015106202,10|0,0:0|0:0,0:0:0:0:
205,336,61945,6,0,L|303:342,1,99.0000030212403,2|8,0:0|0:0,0:0:0:0:
397,349,62343,1,0,0:0:0:0:
256,307,62542,1,8,0:0:0:0:
451,271,62741,1,0,0:0:0:0:
224,203,62940,5,8,0:0:0:0:
256,307,63139,2,0,L|252:356,1,49.5000015106202,2|0,0:0|0:0,0:0:0:0:
318,148,63338,2,0,L|314:98,1,49.5000015106202,10|0,0:0|0:0,0:0:0:0:
198,34,63537,6,0,L|192:132,1,99.0000030212403,2|8,0:0|0:0,0:0:0:0:
148,318,63935,2,0,L|154:220,1,99.0000030212403,0|8,0:0|0:0,0:0:0:0:
164,80,64333,1,0,0:0:0:0:
49,149,64532,5,8,0:0:0:0:
140,172,64731,1,2,0:0:0:0:
72,57,64930,1,10,0:0:0:0:
74,240,65129,1,0,0:0:0:0:
164,80,65338,6,0,P|204:76|244:77,1,80.9999975280763,6|0,0:0|0:0,0:0:0:0:
366,95,65737,1,8,0:0:0:0:
356,0,65937,1,2,0:0:0:0:
294,157,66136,2,0,P|293:200|297:238,1,80.9999975280763,2|0,0:0|0:0,0:0:0:0:
512,177,66536,2,0,P|438:152|371:192,1,161.999995056153,8|2,0:0|0:0,0:0:0:0:
191,328,67135,6,0,P|231:324|272:326,1,80.9999975280763,0|8,0:0|0:0,0:0:0:0:
300,331,67435,2,0,P|340:333|381:329,1,80.9999975280763
406,313,67734,1,2,0:0:0:0:
511,217,67934,1,0,0:0:0:0:
511,217,68034,1,0,0:0:0:0:
511,217,68134,1,8,0:0:0:0:
401,112,68334,1,0,0:0:0:0:
303,215,68533,6,0,L|181:222,2,121.499996292114,2|0|2,0:0|0:0|0:0,0:0:0:0:
114,156,69332,2,0,P|154:224|128:298,1,161.999995056153,2|8,0:0|0:0,0:0:0:0:
60,234,69931,1,0,0:0:0:0:
44,86,70131,5,2,0:0:0:0:
44,86,70331,1,0,0:0:0:0:
128,39,70531,1,8,0:0:0:0:
114,156,70730,5,2,0:0:0:0:
131,10,70930,1,2,0:0:0:0:
213,108,71130,1,0,0:0:0:0:
38,0,71330,1,8,0:0:0:0:
226,14,71529,1,0,0:0:0:0:
87,170,71729,6,0,P|83:210|84:250,1,80.9999975280763,2|0,0:0|0:0,0:0:0:0:
125,337,72128,1,8,0:0:0:0:
31,331,72328,1,2,0:0:0:0:
188,186,72528,1,0,0:0:0:0:
188,186,72628,1,0,0:0:0:0:
188,186,72728,1,0,0:0:0:0:
220,344,72927,2,0,P|260:348|300:347,1,80.9999975280763,8|0,0:0|0:0,0:0:0:0:
411,227,73327,5,2,0:0:0:0:
425,343,73527,1,0,0:0:0:0:
345,160,73726,5,8,0:0:0:0:
331,276,73926,1,2,0:0:0:0:
247,215,74126,5,2,0:0:0:0:
247,215,74226,1,0,0:0:0:0:
247,215,74326,1,0,0:0:0:0:
167,102,74525,5,8,0:0:0:0:
283,88,74725,1,0,0:0:0:0:
141,231,74956,1,6,0:0:0:0:
29,307,78156,5,8,0:0:0:0:
17,110,78356,1,0,0:0:0:0:
124,303,78557,5,8,0:0:0:0:
112,106,78757,1,0,0:0:0:0:
219,298,78958,5,8,0:0:0:0:
207,101,79158,1,0,0:0:0:0:
314,294,79360,5,8,0:0:0:0:
302,97,79560,1,0,0:0:0:0:
409,288,79761,5,8,0:0:0:0:
397,91,79961,1,0,0:0:0:0:
503,283,80162,5,8,0:0:0:0:
491,86,80362,1,0,0:0:0:0:
506,355,80564,5,8,0:0:0:0:
485,12,80764,1,8,0:0:0:0:
83,172,81366,5,8,0:0:0:0:
76,316,81565,1,0,0:0:0:0:
86,142,81764,5,8,0:0:0:0:
167,288,81963,1,0,0:0:0:0:
192,81,82162,5,8,0:0:0:0:
88,113,82361,2,0,L|39:109,1,49.5000015106202,2|0,0:0|0:0,0:0:0:0:
247,175,82560,2,0,L|297:171,1,49.5000015106202,10|0,0:0|0:0,0:0:0:0:
396,67,82759,6,0,L|390:165,1,99.0000030212403,2|8,0:0|0:0,0:0:0:0:
381,277,83157,1,0,0:0:0:0:
365,115,83356,1,8,0:0:0:0:
294,241,83555,1,0,0:0:0:0:
461,228,83754,5,8,0:0:0:0:
432,336,83953,2,0,L|429:385,1,49.5000015106202,2|0,0:0|0:0,0:0:0:0:
358,195,84152,2,0,L|355:145,1,49.5000015106202,10|0,0:0|0:0,0:0:0:0:
307,336,84351,6,0,L|209:342,1,99.0000030212403,2|8,0:0|0:0,0:0:0:0:
115,349,84749,1,0,0:0:0:0:
256,307,84948,1,8,0:0:0:0:
61,271,85147,1,0,0:0:0:0:
288,203,85346,5,8,0:0:0:0:
256,307,85545,2,0,L|260:356,1,49.5000015106202,2|0,0:0|0:0,0:0:0:0:
194,148,85744,2,0,L|198:98,1,49.5000015106202,10|0,0:0|0:0,0:0:0:0:
314,34,85943,6,0,L|320:132,1,99.0000030212403,2|8,0:0|0:0,0:0:0:0:
364,318,86341,2,0,L|358:220,1,99.0000030212403,0|8,0:0|0:0,0:0:0:0:
348,80,86739,1,0,0:0:0:0:
463,149,86938,5,8,0:0:0:0:
372,172,87137,1,2,0:0:0:0:
494,144,87336,1,10,0:0:0:0:
322,71,87535,1,0,0:0:0:0:
321,294,87730,6,0,P|281:290|241:291,1,80.9999975280763,6|0,0:0|0:0,0:0:0:0:
90,285,88131,1,8,0:0:0:0:
166,330,88332,1,2,0:0:0:0:
168,240,88533,2,0,P|169:199|165:159,1,80.9999975280763,2|0,0:0|0:0,0:0:0:0:
85,106,88934,2,0,P|159:131|226:91,1,161.999995056153,8|2,0:0|0:0,0:0:0:0:
149,37,89537,1,0,0:0:0:0:
73,201,89738,5,8,0:0:0:0:
267,178,89938,2,0,P|307:174|347:175,1,80.9999975280763,2|2,0:0|0:0,0:0:0:0:
127,280,90340,5,0,0:0:0:0:
233,267,90541,1,8,0:0:0:0:
170,365,90742,6,0,P|130:369|90:368,1,80.9999975280763,0|2,0:0|0:0,0:0:0:0:
265,357,91143,2,0,P|305:353|345:354,1,80.9999975280763,0|8,0:0|0:0,0:0:0:0:
127,280,91545,1,2,0:0:0:0:
230,186,91746,2,0,P|228:226|232:266,1,80.9999975280763,2|0,0:0|0:0,0:0:0:0:
58,211,92147,1,8,0:0:0:0:
139,161,92348,1,0,0:0:0:0:
30,383,92549,6,0,P|28:343|33:303,1,80.9999975280763,2|0,0:0|0:0,0:0:0:0:
56,116,92950,1,8,0:0:0:0:
137,256,93151,1,2,0:0:0:0:
144,47,93352,1,2,0:0:0:0:
142,286,93553,1,0,0:0:0:0:
32,89,93754,1,8,0:0:0:0:
146,316,93954,1,0,0:0:0:0:
225,183,94155,5,6,0:0:0:0:
318,229,94356,1,0,0:0:0:0:
318,229,94456,1,0,0:0:0:0:
318,229,94557,2,0,P|321:189|317:149,1,80.9999975280763,8|2,0:0|0:0,0:0:0:0:
229,299,94958,1,2,0:0:0:0:
315,257,95159,1,0,0:0:0:0:
406,349,95360,2,0,P|446:350|486:346,1,80.9999975280763,8|0,0:0|0:0,0:0:0:0:
429,167,95762,5,2,0:0:0:0:
385,93,95962,1,0,0:0:0:0:
385,93,96063,1,0,0:0:0:0:
385,93,96163,2,0,P|345:89|305:91,1,80.9999975280763,8|2,0:0|0:0,0:0:0:0:
246,184,96565,1,2,0:0:0:0:
282,97,96766,1,0,0:0:0:0:
130,86,96966,1,8,0:0:0:0:
153,177,97167,1,2,0:0:0:0:
212,26,97396,1,6,0:0:0:0:
157,114,100585,5,8,0:0:0:0:
355,88,100786,1,0,0:0:0:0:
138,238,100985,5,8,0:0:0:0:
215,54,101184,1,0,0:0:0:0:
237,316,101383,5,8,0:0:0:0:
116,158,101582,1,0,0:0:0:0:
355,270,101781,5,8,0:0:0:0:
157,296,101980,1,0,0:0:0:0:
373,145,102179,5,8,0:0:0:0:
296,329,102378,1,0,0:0:0:0:
274,67,102577,5,8,0:0:0:0:
395,225,102776,1,0,0:0:0:0:
87,152,102975,5,8,0:0:0:0:
425,232,103174,1,8,0:0:0:0:
85,200,103771,5,8,0:0:0:0:
76,68,103969,1,0,0:0:0:0:
88,230,104167,5,8,0:0:0:0:
167,96,104365,1,0,0:0:0:0:
205,326,104563,5,8,0:0:0:0:
90,259,104761,2,0,L|41:263,1,49.5000015106202,2|0,0:0|0:0,0:0:0:0:
247,209,104959,2,0,L|297:213,1,49.5000015106202,10|0,0:0|0:0,0:0:0:0:
396,317,105157,6,0,L|390:219,1,99.0000030212403,2|8,0:0|0:0,0:0:0:0:
381,107,105553,1,0,0:0:0:0:
365,269,105751,1,8,0:0:0:0:
294,143,105949,1,0,0:0:0:0:
461,156,106147,5,8,0:0:0:0:
432,48,106345,2,0,L|429:-1,1,49.5000015106202,2|0,0:0|0:0,0:0:0:0:
358,189,106543,2,0,L|355:239,1,49.5000015106202,10|0,0:0|0:0,0:0:0:0:
307,48,106741,6,0,L|209:42,1,99.0000030212403,2|8,0:0|0:0,0:0:0:0:
115,35,107137,1,0,0:0:0:0:
256,77,107335,1,8,0:0:0:0:
61,113,107533,1,0,0:0:0:0:
288,181,107731,5,8,0:0:0:0:
256,77,107929,2,0,L|260:28,1,49.5000015106202,2|0,0:0|0:0,0:0:0:0:
194,236,108127,2,0,L|198:286,1,49.5000015106202,10|0,0:0|0:0,0:0:0:0:
388,244,108325,6,0,P|407:179|344:79,1,180
124,140,109117,2,0,P|105:205|168:305,1,180
256,192,109909,1,0,0:0:0:0:
256,192,121195,6,0,B|279:119|237:134|257:58,2,135,6|6|6,0:0|0:0|0:0,0:0:0:0:
256,192,122539,12,0,125260,0:0:0:0:
174,315,131666,5,12,0:0:0:0:
54,321,131864,1,0,0:0:0:0:
197,314,132063,5,8,0:0:0:0:
76,229,132262,1,0,0:0:0:0:
210,167,132460,5,8,0:0:0:0:
162,236,132659,1,2,0:0:0:0:
174,91,132858,1,10,0:0:0:0:
226,312,133056,6,0,L|323:306,1,90,2|8,0:0|0:0,0:0:0:0:
436,301,133454,1,0,0:0:0:0:
270,279,133652,1,8,0:0:0:0:
379,376,133851,1,0,0:0:0:0:
408,155,134050,5,8,0:0:0:0:
372,231,134248,1,2,0:0:0:0:
360,86,134447,1,10,0:0:0:0:
375,261,134646,1,2,0:0:0:0:
237,52,134844,5,8,0:0:0:0:
357,58,135043,1,0,0:0:0:0:
210,50,135242,5,8,0:0:0:0:
318,169,135440,1,0,0:0:0:0:
184,48,135639,5,8,0:0:0:0:
168,141,135838,1,2,0:0:0:0:
268,2,136036,1,10,0:0:0:0:
166,171,136235,6,0,L|160:268,1,90,2|8,0:0|0:0,0:0:0:0:
155,381,136632,1,0,0:0:0:0:
192,220,136831,1,8,0:0:0:0:
85,317,137030,1,0,0:0:0:0:
168,141,137228,5,8,0:0:0:0:
99,93,137427,1,2,0:0:0:0:
244,105,137626,1,10,0:0:0:0:
289,109,137725,1,0,0:0:0:0:
334,113,137824,1,0,0:0:0:0:
379,117,137924,1,0,0:0:0:0:
424,120,138023,5,12,0:0:0:0:
418,240,138221,1,0,0:0:0:0:
428,90,138419,5,8,0:0:0:0:
329,208,138618,1,0,0:0:0:0:
188,205,138816,5,8,0:0:0:0:
257,253,139014,2,0,L|319:249,1,45,2|0,0:0|0:0,0:0:0:0:
112,241,139213,2,0,L|49:237,1,45,10|0,0:0|0:0,0:0:0:0:
301,250,139411,6,0,L|398:244,1,90,2|8,0:0|0:0,0:0:0:0:
462,306,139808,1,0,0:0:0:0:
343,208,140006,1,8,0:0:0:0:
375,342,140204,1,0,0:0:0:0:
391,93,140403,5,8,0:0:0:0:
340,163,140601,2,0,L|343:225,1,45,2|0,0:0|0:0,0:0:0:0:
300,35,140799,2,0,L|305:-20,1,45,10|0,0:0|0:0,0:0:0:0:
434,184,140998,1,2,0:0:0:0:
180,41,141196,5,8,0:0:0:0:
300,35,141394,1,0,0:0:0:0:
150,43,141593,5,8,0:0:0:0:
289,130,141791,1,0,0:0:0:0:
106,120,141989,5,8,0:0:0:0:
177,170,142188,2,0,L|239:166,1,45,2|0,0:0|0:0,0:0:0:0:
30,156,142386,2,0,L|-23:152,1,45,10|0,0:0|0:0,0:0:0:0:
135,254,142584,6,0,L|225:249,1,90,2|8,0:0|0:0,0:0:0:0:
345,243,142981,1,0,0:0:0:0:
184,279,143180,1,8,0:0:0:0:
316,333,143378,1,0,0:0:0:0:
310,167,143576,5,8,0:0:0:0:
262,236,143775,1,2,0:0:0:0:
274,91,143973,2,0,L|280:2,1,90,10|0,0:0|0:0,0:0:0:0:
338,315,144370,5,10,0:0:0:0:
458,321,144568,1,0,0:0:0:0:
315,314,144766,5,8,0:0:0:0:
436,229,144964,1,0,0:0:0:0:
302,167,145162,5,8,0:0:0:0:
350,236,145360,2,0,L|353:292,1,45,2|0,0:0|0:0,0:0:0:0:
338,91,145558,2,0,L|334:42,1,45,10|0,0:0|0:0,0:0:0:0:
286,312,145756,6,0,L|189:306,1,90,2|8,0:0|0:0,0:0:0:0:
76,301,146152,1,0,0:0:0:0:
242,279,146350,1,8,0:0:0:0:
133,376,146548,1,0,0:0:0:0:
104,155,146746,5,8,0:0:0:0:
140,231,146944,1,2,0:0:0:0:
152,86,147142,1,10,0:0:0:0:
137,261,147340,1,2,0:0:0:0:
275,52,147538,5,8,0:0:0:0:
155,58,147736,1,0,0:0:0:0:
302,50,147934,5,8,0:0:0:0:
194,169,148132,1,0,0:0:0:0:
328,48,148330,5,8,0:0:0:0:
344,141,148528,2,0,L|349:199,1,45,2|0,0:0|0:0,0:0:0:0:
231,54,148726,2,0,L|235:-4,1,45,10|0,0:0|0:0,0:0:0:0:
347,185,148924,6,0,L|353:282,1,90,2|8,0:0|0:0,0:0:0:0:
357,381,149320,1,0,0:0:0:0:
322,229,149518,1,8,0:0:0:0:
427,317,149716,1,0,0:0:0:0:
344,141,149914,5,8,0:0:0:0:
413,93,150112,1,2,0:0:0:0:
268,105,150310,2,0,L|175:111,1,90,10|0,0:0|0:0,0:0:0:0:
70,115,150706,5,8,0:0:0:0:
86,242,150904,1,0,0:0:0:0:
66,85,151102,5,8,0:0:0:0:
183,208,151300,1,0,0:0:0:0:
324,205,151498,5,8,0:0:0:0:
294,297,151696,2,0,L|223:294,1,49.5000015106202,2|0,0:0|0:0,0:0:0:0:
400,241,151894,2,0,L|467:235,1,49.5000015106202,10|0,0:0|0:0,0:0:0:0:
244,294,152092,6,0,L|134:290,1,99.0000030212403,2|8,0:0|0:0,0:0:0:0:
52,306,152488,1,0,0:0:0:0:
159,212,152686,1,8,0:0:0:0:
131,358,152884,1,0,0:0:0:0:
126,107,153082,5,8,0:0:0:0:
162,183,153280,1,2,0:0:0:0:
174,38,153478,1,10,0:0:0:0:
93,249,153676,1,2,0:0:0:0:
322,45,153874,5,8,0:0:0:0:
202,39,154072,1,0,0:0:0:0:
352,47,154270,5,8,0:0:0:0:
213,134,154469,1,0,0:0:0:0:
396,124,154667,5,8,0:0:0:0:
327,172,154865,2,0,L|275:170,1,49.5000015106202,2|0,0:0|0:0,0:0:0:0:
472,160,155063,2,0,L|524:163,1,49.5000015106202,10|0,0:0|0:0,0:0:0:0:
367,258,155261,6,0,L|266:255,1,99.0000030212403,2|8,0:0|0:0,0:0:0:0:
157,247,155657,1,0,0:0:0:0:
318,283,155855,1,8,0:0:0:0:
186,337,156053,1,0,0:0:0:0:
192,171,156251,5,8,0:0:0:0:
240,240,156449,1,2,0:0:0:0:
238,100,156647,1,10,0:0:0:0:
106,171,156845,1,2,0:0:0:0:
180,8,157043,5,10,0:0:0:0:
55,18,157243,1,2,0:0:0:0:
210,100,157443,5,10,0:0:0:0:
106,171,157643,1,2,0:0:0:0:
294,146,157843,5,10,0:0:0:0:
240,259,158043,1,2,0:0:0:0:
388,166,158243,5,10,0:0:0:0:
398,291,158443,1,2,0:0:0:0:
367,83,158643,5,10,0:0:0:0:
492,73,158843,1,2,0:0:0:0:
327,188,159043,5,10,0:0:0:0:
398,291,159243,1,2,0:0:0:0:
218,209,159443,5,10,0:0:0:0:
164,322,159643,1,2,0:0:0:0:
147,121,159843,5,10,0:0:0:0:
22,131,160043,1,2,0:0:0:0:
80,340,160243,5,10,0:0:0:0:
92,198,160443,1,2,0:0:0:0:
236,375,160643,5,10,0:0:0:0:
175,246,160843,1,2,0:0:0:0:
387,334,161043,5,10,0:0:0:0:
269,252,161243,1,2,0:0:0:0:
496,220,161443,5,10,0:0:0:0:
352,207,161643,1,2,0:0:0:0:
400,74,161843,5,10,0:0:0:0:
419,275,162043,1,2,0:0:0:0:
306,69,162243,5,10,0:0:0:0:
270,277,162443,1,2,0:0:0:0:
218,33,162643,5,10,0:0:0:0:
121,245,162843,1,2,0:0:0:0:
400,74,163043,1,10,0:0:0:0:
46,58,163243,1,14,0:0:0:0:
