osu file format v14

[General]
AudioFilename: audio.mp3
AudioLeadIn: 0
PreviewTime: 58450
Countdown: 0
SampleSet: Soft
StackLeniency: 0.4
Mode: 0
LetterboxInBreaks: 0
WidescreenStoryboard: 1

[Editor]
DistanceSpacing: 1.1
BeatDivisor: 4
GridSize: 32
TimelineZoom: 1.400001

[Metadata]
Title:Hazy Shade of Winter
TitleUnicode:Hazy Shade of Winter
Artist:The Bangles
ArtistUnicode:The Bangles
Creator:CraEZy
Version:Normal
Source:Stranger Things
Tags:ost Netflix Original 80's 1980's 1987 Punk Less Than Zero Simon and Garfunkel
BeatmapID:1462087
BeatmapSetID:687459

[Difficulty]
HPDrainRate:3
CircleSize:3.2
OverallDifficulty:4
ApproachRate:5
SliderMultiplier:1.2
SliderTickRate:2

[Events]
//Background and Video events
0,0,"TfzbE9Y.png",0,0
//Break Periods
2,52793,54462
2,75156,76836
2,97596,99267
2,111691,119875
2,125460,130346
//Storyboard Layer 0 (Background)
//Storyboard Layer 1 (Fail)
//Storyboard Layer 2 (Pass)
//Storyboard Layer 3 (Foreground)
//Storyboard Sound Samples

[TimingPoints]
369,610.376398779247,4,2,1,5,1,0
15018,613.496932515337,4,2,1,5,1,0
22992,613.496932515337,4,2,1,5,1,0
30352,394.736842105263,4,2,1,50,1,0
36667,-105.263157894737,4,2,1,50,0,0
36686,395.908940943583,4,2,1,50,1,0
37062,-100,4,2,1,5,0,0
37081,-100,4,2,1,50,0,0
43025,398.671096345515,4,2,1,50,1,0
43025,-100,4,2,1,50,0,0
55782,395.387149917628,4,2,1,50,1,0
58960,398.009950248756,4,2,1,50,1,1
58960,-100,4,2,1,50,0,1
65338,399.467376830892,4,2,1,50,1,0
65338,-100,4,2,1,50,0,0
74956,396.039603960396,4,2,1,50,1,0
78156,401.33779264214,4,2,1,50,1,0
81366,398.009950248756,4,2,1,50,1,1
81366,-100,4,2,1,50,0,1
87730,401.606425702811,4,2,1,50,1,0
87730,-100,4,2,1,50,0,0
97396,398.671096345515,4,2,1,50,1,0
100587,398.009950248756,4,2,1,50,1,0
103771,396.039603960396,4,2,1,50,1,1
103771,-100,4,2,1,50,0,1
108325,-100,4,2,1,50,0,0
121195,413.793103448276,4,2,1,50,1,0
121195,-133.333333333333,4,2,1,50,0,0
122850,392.156862745098,4,2,1,50,1,0
125260,400,4,2,1,50,1,0
131666,397.350993377483,4,2,1,50,1,0
138023,396.694214876033,4,2,1,50,1,0
144370,396.039603960396,4,2,1,50,1,0
150706,-100,4,2,1,50,0,0
157043,400,4,2,1,50,1,1
157043,-100,4,2,1,50,0,1
163143,-100,4,2,1,50,0,0
163243,-100,4,2,1,50,0,1
163343,-100,4,2,1,50,0,0

[Colours]
Combo1 : 149,114,207
Combo2 : 223,214,157
Combo3 : 83,206,135
Combo4 : 115,213,210
Combo5 : 226,166,120

[HitObjects]
11,40,30353,6,0,P|76:8|126:18,1,120,8|8,0:0|0:0,0:0:0:0:
202,118,31141,1,8,0:0:0:0:
200,183,31338,1,2,0:0:0:0:
198,248,31536,2,0,L|195:311,2,60,10|2|8,0:0|0:0|0:0,0:0:0:0:
202,118,32325,1,8,0:0:0:0:
317,54,32720,1,8,0:0:0:0:
382,55,32917,1,2,0:0:0:0:
447,58,33115,1,10,0:0:0:0:
447,189,33509,6,0,P|382:221|332:211,1,120,8|8,0:0|0:0,0:0:0:0:
253,111,34299,1,8,0:0:0:0:
188,113,34496,1,2,0:0:0:0:
123,115,34694,2,0,L|60:118,2,60,10|2|8,0:0|0:0|0:0,0:0:0:0:
194,226,35483,1,8,0:0:0:0:
132,342,35878,2,0,L|69:345,2,60,8|2|8,0:0|0:0|0:0,0:0:0:0:
263,344,36667,6,0,L|382:350,1,120,8|8,0:0|0:0,0:0:0:0:
473,254,37478,1,8,0:0:0:0:
471,189,37676,1,2,0:0:0:0:
469,124,37874,2,0,L|466:61,2,60,10|2|8,0:0|0:0|0:0,0:0:0:0:
473,254,38666,1,8,0:0:0:0:
368,173,39061,1,8,0:0:0:0:
307,147,39259,1,2,0:0:0:0:
246,173,39457,1,10,0:0:0:0:
149,262,39853,6,0,L|143:143,1,120,8|8,0:0|0:0,0:0:0:0:
224,37,40645,1,8,0:0:0:0:
289,35,40843,1,2,0:0:0:0:
354,33,41041,2,0,L|417:30,2,60,10|2|8,0:0|0:0|0:0,0:0:0:0:
293,150,41833,1,8,0:0:0:0:
372,255,42229,2,0,P|401:256|444:273,2,60,8|2|8,0:0|0:0|0:0,0:0:0:0:
275,343,43025,6,0,B|175:379|199:316|100:344,2,180,6|0|8,0:0|0:0|0:0,0:0:0:0:
372,255,44619,1,2,0:0:0:0:
293,150,45018,1,8,0:0:0:0:
293,150,45217,2,0,L|144:159,2,120,2|0|0,0:0|0:0|0:0,0:0:0:0:
359,145,46214,1,2,0:0:0:0:
424,141,46413,1,0,0:0:0:0:
344,35,46812,2,0,B|227:37|227:37|160:12,1,180,2|8,0:0|0:0,0:0:0:0:
84,117,47809,5,2,0:0:0:0:
156,227,48207,2,0,P|163:254|158:291,2,60,8|2|2,0:0|0:0|0:0,0:0:0:0:
24,212,49005,1,8,0:0:0:0:
70,334,49403,2,0,P|160:386|240:347,2,180,2|2|8,0:0|0:0|0:0,0:0:0:0:
24,212,50998,5,2,0:0:0:0:
108,110,51397,1,8,0:0:0:0:
108,110,51596,2,0,L|235:114,2,120,2|0|2,0:0|0:0|0:0,0:0:0:0:
41,107,52593,1,6,0:0:0:0:
264,381,55782,5,8,0:0:0:0:
395,367,56177,1,8,0:0:0:0:
288,290,56572,5,8,0:0:0:0:
419,276,56967,1,8,0:0:0:0:
312,198,57363,5,8,0:0:0:0:
443,184,57758,1,8,0:0:0:0:
335,107,58154,6,0,L|270:110,1,60,8|8,0:0|0:0,0:0:0:0:
443,184,58960,5,8,0:0:0:0:
477,311,59358,1,8,0:0:0:0:
349,276,59756,2,0,L|273:280,2,60,8|2|10,0:0|0:0|0:0,0:0:0:0:
443,184,60552,2,0,B|376:187|376:187|298:162,1,120,8|8,0:0|0:0,0:0:0:0:
243,66,61348,2,0,L|246:1,2,60,8|2|10,0:0|0:0|0:0,0:0:0:0:
149,159,62144,5,8,0:0:0:0:
207,277,62542,1,8,0:0:0:0:
75,270,62940,2,0,L|-1:266,2,60,8|2|10,0:0|0:0|0:0,0:0:0:0:
149,159,63736,2,0,L|276:152,1,120,8|8,0:0|0:0,0:0:0:0:
363,244,64532,2,0,L|450:248,2,60,8|2|8,0:0|0:0|0:0,0:0:0:0:
433,128,65338,5,6,0:0:0:0:
355,20,65737,2,0,P|381:4|410:-3,2,60,8|2|2,0:0|0:0|0:0,0:0:0:0:
300,139,66536,1,8,0:0:0:0:
194,60,66935,2,0,B|117:66|117:66|71:54,2,120,2|8|2,0:0|0:0|0:0,0:0:0:0:
180,191,68134,1,8,0:0:0:0:
307,224,68533,6,0,B|318:168|296:128|296:128|320:91|313:36,2,180,2|2|8,0:0|0:0|0:0,0:0:0:0:
215,319,70131,1,2,0:0:0:0:
97,259,70531,2,0,L|23:264,2,60,8|2|2,0:0|0:0|0:0,0:0:0:0:
195,171,71330,1,8,0:0:0:0:
151,46,71729,5,2,0:0:0:0:
53,134,72128,1,8,0:0:0:0:
53,134,72328,1,2,0:0:0:0:
53,134,72528,1,2,0:0:0:0:
97,259,72927,1,8,0:0:0:0:
228,246,73327,6,0,L|292:250,1,60,2|0,0:0|0:0,0:0:0:0:
348,221,73726,2,0,L|416:216,1,60,8|2,0:0|0:0,0:0:0:0:
465,183,74126,2,0,L|458:50,1,120,2|8,0:0|0:0,0:0:0:0:
317,41,74956,1,6,0:0:0:0:
0,162,78156,5,8,0:0:0:0:
130,141,78557,1,8,0:0:0:0:
176,17,78958,5,8,0:0:0:0:
259,119,79359,1,8,0:0:0:0:
390,103,79761,5,8,0:0:0:0:
343,225,80162,1,8,0:0:0:0:
213,249,80564,6,0,L|215:321,1,60,8|8,0:0|0:0,0:0:0:0:
69,200,81366,5,8,0:0:0:0:
35,73,81764,1,8,0:0:0:0:
163,108,82162,2,0,L|239:104,2,60,8|2|10,0:0|0:0|0:0,0:0:0:0:
69,200,82958,2,0,B|136:197|136:197|214:222,1,120,8|8,0:0|0:0,0:0:0:0:
269,318,83754,2,0,L|266:383,2,60,8|2|10,0:0|0:0|0:0,0:0:0:0:
363,225,84550,5,8,0:0:0:0:
305,107,84948,1,8,0:0:0:0:
437,114,85346,2,0,L|513:118,2,60,8|2|10,0:0|0:0|0:0,0:0:0:0:
363,225,86142,2,0,L|236:232,1,120,8|8,0:0|0:0,0:0:0:0:
149,140,86938,2,0,L|80:136,2,60,8|2|8,0:0|0:0|0:0,0:0:0:0:
79,256,87730,5,6,0:0:0:0:
157,364,88131,2,0,P|131:380|102:387,2,60,8|2|2,0:0|0:0|0:0,0:0:0:0:
212,245,88934,1,8,0:0:0:0:
297,345,89336,1,2,0:0:0:0:
427,329,89738,1,8,0:0:0:0:
427,329,89938,2,0,L|416:143,1,180,2|8,0:0|0:0,0:0:0:0:
411,83,90742,6,0,L|328:91,1,60,0|2,0:0|0:0,0:0:0:0:
252,176,91344,2,0,L|169:168,2,60,8|2|2,0:0|0:0|0:0,0:0:0:0:
338,275,92147,1,8,0:0:0:0:
232,354,92549,1,2,0:0:0:0:
144,254,92950,2,0,L|61:262,2,60,8|2|2,0:0|0:0|0:0,0:0:0:0:
252,176,93754,1,8,0:0:0:0:
338,275,94155,6,0,L|465:265,1,120,6|8,0:0|0:0,0:0:0:0:
503,141,94958,1,2,0:0:0:0:
404,53,95360,1,8,0:0:0:0:
272,65,95762,2,0,L|145:75,1,120,2|8,0:0|0:0,0:0:0:0:
107,199,96565,1,2,0:0:0:0:
206,287,96966,1,8,0:0:0:0:
277,161,97396,5,6,0:0:0:0:
279,42,100587,5,8,0:0:0:0:
192,142,100985,1,8,0:0:0:0:
112,247,101383,5,8,0:0:0:0:
242,272,101781,1,8,0:0:0:0:
372,289,102179,5,8,0:0:0:0:
329,164,102577,1,8,0:0:0:0:
279,42,102975,6,0,L|209:44,1,60,8|8,0:0|0:0,0:0:0:0:
72,178,103771,5,8,0:0:0:0:
38,305,104167,1,8,0:0:0:0:
166,270,104563,2,0,L|242:274,2,60,8|2|10,0:0|0:0|0:0,0:0:0:0:
72,178,105355,2,0,B|139:181|139:181|217:156,1,120,8|8,0:0|0:0,0:0:0:0:
272,60,106147,2,0,L|269:-5,2,60,8|2|10,0:0|0:0|0:0,0:0:0:0:
366,153,106939,5,8,0:0:0:0:
308,271,107335,1,8,0:0:0:0:
428,324,107731,2,0,L|432:400,2,60,8|2|10,0:0|0:0|0:0,0:0:0:0:
475,278,108325,6,0,B|507:207|470:148|470:148|482:96|482:96|473:47,2,240,0|0|0,0:0|0:0|0:0,0:0:0:0:
256,192,121195,6,0,B|231:121|273:133|254:59,2,135.000005149841,6|6|6,0:0|0:0|0:0,0:0:0:0:
256,192,122643,12,0,125260,0:0:0:0:
501,344,131666,6,0,P|436:376|386:366,1,120,12|8,0:0|0:0,0:0:0:0:
310,266,132460,1,8,0:0:0:0:
312,201,132659,1,2,0:0:0:0:
314,136,132858,2,0,L|317:73,2,60,10|2|8,0:0|0:0|0:0,0:0:0:0:
310,266,133652,1,8,0:0:0:0:
195,330,134050,1,8,0:0:0:0:
130,329,134248,1,2,0:0:0:0:
65,326,134447,1,10,0:0:0:0:
65,195,134844,6,0,P|130:163|180:173,1,120,8|8,0:0|0:0,0:0:0:0:
259,273,135639,1,8,0:0:0:0:
324,271,135838,1,2,0:0:0:0:
389,269,136036,2,0,L|452:266,2,60,10|2|8,0:0|0:0|0:0,0:0:0:0:
318,158,136831,1,8,0:0:0:0:
380,42,137228,2,0,L|443:39,2,60,8|2|10,0:0|0:0|0:0,0:0:0:0:
249,40,138023,6,0,L|130:34,1,120,12|8,0:0|0:0,0:0:0:0:
39,130,138816,1,8,0:0:0:0:
41,195,139014,1,2,0:0:0:0:
43,260,139213,2,0,L|46:323,2,60,10|2|8,0:0|0:0|0:0,0:0:0:0:
39,130,140006,1,8,0:0:0:0:
144,211,140403,1,8,0:0:0:0:
205,237,140601,1,2,0:0:0:0:
266,211,140799,1,10,0:0:0:0:
363,122,141196,6,0,L|369:241,1,120,8|8,0:0|0:0,0:0:0:0:
288,347,141989,1,8,0:0:0:0:
223,349,142188,1,2,0:0:0:0:
158,351,142386,2,0,L|95:354,2,60,10|2|8,0:0|0:0|0:0,0:0:0:0:
219,234,143180,1,8,0:0:0:0:
140,129,143576,2,0,P|111:128|68:111,2,60,8|2|10,0:0|0:0|0:0,0:0:0:0:
250,55,144370,6,0,P|315:23|365:33,1,120,10|8,0:0|0:0,0:0:0:0:
326,158,145162,1,8,0:0:0:0:
328,223,145360,1,2,0:0:0:0:
330,288,145558,2,0,L|333:351,2,60,10|2|8,0:0|0:0|0:0,0:0:0:0:
326,158,146350,1,8,0:0:0:0:
237,59,146746,1,8,0:0:0:0:
172,60,146944,1,2,0:0:0:0:
107,63,147142,1,10,0:0:0:0:
65,189,147538,6,0,P|130:221|180:211,1,120,8|8,0:0|0:0,0:0:0:0:
259,111,148330,1,8,0:0:0:0:
324,113,148528,1,2,0:0:0:0:
389,115,148726,2,0,L|452:118,2,60,10|2|8,0:0|0:0|0:0,0:0:0:0:
318,226,149518,1,8,0:0:0:0:
380,342,149914,2,0,L|443:345,2,60,8|2|8,0:0|0:0|0:0,0:0:0:0:
249,344,150706,6,0,L|130:350,1,120,8|8,0:0|0:0,0:0:0:0:
39,254,151498,1,8,0:0:0:0:
41,189,151696,1,2,0:0:0:0:
43,124,151894,2,0,L|46:61,2,60,10|2|8,0:0|0:0|0:0,0:0:0:0:
39,254,152685,1,8,0:0:0:0:
144,173,153082,1,8,0:0:0:0:
205,147,153280,1,2,0:0:0:0:
266,173,153478,1,10,0:0:0:0:
363,262,153874,6,0,L|369:143,1,120,8|8,0:0|0:0,0:0:0:0:
288,37,154667,1,8,0:0:0:0:
223,35,154865,1,2,0:0:0:0:
158,33,155063,2,0,L|95:30,2,60,10|2|8,0:0|0:0|0:0,0:0:0:0:
219,150,155855,1,8,0:0:0:0:
140,255,156251,2,0,P|111:256|68:273,2,60,8|2|10,0:0|0:0|0:0,0:0:0:0:
254,318,157043,6,0,L|343:313,1,60,10|2,0:0|0:0,0:0:0:0:
379,310,157443,2,0,L|468:305,1,60,10|2,0:0|0:0,0:0:0:0:
504,301,157843,2,0,L|496:210,2,60,10|2|10,0:0|0:0|0:0,0:0:0:0:
400,218,158643,6,0,L|311:223,1,60,10|2,0:0|0:0,0:0:0:0:
275,226,159043,2,0,L|186:231,1,60,10|2,0:0|0:0,0:0:0:0:
150,235,159443,2,0,L|158:326,2,60,10|2|10,0:0|0:0|0:0,0:0:0:0:
132,103,160243,6,0,L|221:98,1,60,10|2,0:0|0:0,0:0:0:0:
257,95,160643,2,0,L|346:90,1,60,10|2,0:0|0:0,0:0:0:0:
382,86,161043,2,0,L|374:-5,2,60,10|2|10,0:0|0:0|0:0,0:0:0:0:
385,151,161643,6,0,P|377:205|345:238,1,60,2|10,0:0|0:0,0:0:0:0:
337,262,162043,2,0,P|294:294|247:296,1,60,2|10,0:0|0:0,0:0:0:0:
224,308,162443,2,0,P|169:300|136:268,1,60,2|10,0:0|0:0,0:0:0:0:
116,257,162843,1,2,0:0:0:0:
94,188,163043,1,10,0:0:0:0:
128,118,163243,1,14,0:0:0:0:
