osu file format v14

[General]
AudioFilename: audio.mp3
AudioLeadIn: 0
PreviewTime: 58450
Countdown: 0
SampleSet: Soft
StackLeniency: 0.6
Mode: 0
LetterboxInBreaks: 0
WidescreenStoryboard: 1

[Editor]
DistanceSpacing: 1
BeatDivisor: 4
GridSize: 32
TimelineZoom: 2.8

[Metadata]
Title:Hazy Shade of Winter
TitleUnicode:Hazy Shade of Winter
Artist:The Bangles
ArtistUnicode:The Bangles
Creator:CraEZy
Version:Hard
Source:Stranger Things
Tags:ost Netflix Original 80's 1980's 1987 Punk Less Than Zero Simon and Garfunkel
BeatmapID:1454731
BeatmapSetID:687459

[Difficulty]
HPDrainRate:5
CircleSize:4
OverallDifficulty:6
ApproachRate:7.5
SliderMultiplier:1.6
SliderTickRate:2

[Events]
//Background and Video events
0,0,"TfzbE9Y.png",0,0
//Break Periods
2,52793,54957
2,75156,77331
2,97596,99762
2,111691,120371
2,125460,130841
//Storyboard Layer 0 (Background)
//Storyboard Layer 1 (Fail)
//Storyboard Layer 2 (Pass)
//Storyboard Layer 3 (Foreground)
//Storyboard Sound Samples

[TimingPoints]
369,610.376398779247,4,2,1,5,1,0
15018,613.496932515337,4,2,1,5,1,0
22992,613.496932515337,4,2,1,5,1,0
30352,394.736842105263,4,2,1,50,1,0
36667,-109.89010989011,4,2,1,50,0,0
36686,395.908940943583,4,2,1,50,1,0
36865,-100,4,2,1,5,0,0
36883,-100,4,2,1,50,0,0
43025,398.671096345515,4,2,1,50,1,0
43025,-111.111111111111,4,2,1,50,0,0
55782,395.387149917628,4,2,1,50,1,0
58960,398.009950248756,4,2,1,50,1,1
58960,-90.9090909090909,4,2,1,50,0,1
65338,399.467376830892,4,2,1,50,1,0
65338,-111.111111111111,4,2,1,50,0,0
74956,396.039603960396,4,2,1,50,1,0
78156,401.33779264214,4,2,1,50,1,0
81366,398.009950248756,4,2,1,50,1,1
81366,-90.9090909090909,4,2,1,50,0,1
87730,401.606425702811,4,2,1,50,1,0
87730,-111.111111111111,4,2,1,50,0,0
97396,398.671096345515,4,2,1,50,1,0
100587,398.009950248756,4,2,1,50,1,0
103771,396.039603960396,4,2,1,50,1,1
103771,-90.9090909090909,4,2,1,50,0,1
108325,-100,4,2,1,50,0,0
121195,413.793103448276,4,2,1,50,1,0
121195,-200,4,2,1,50,0,0
122850,392.156862745098,4,2,1,50,1,0
125260,400,4,2,1,50,1,0
131666,397.350993377483,4,2,1,50,1,0
138023,396.694214876033,4,2,1,50,1,0
144370,396.039603960396,4,2,1,50,1,0
150706,-90.9090909090909,4,2,1,50,0,0
157043,400,4,2,1,50,1,1
157043,-83.3333333333333,4,2,1,50,0,1
163143,-83.3333333333333,4,2,1,50,0,0
163243,-83.3333333333333,4,2,1,50,0,1
163343,-83.3333333333333,4,2,1,50,0,0

[Colours]
Combo1 : 149,114,207
Combo2 : 223,214,157
Combo3 : 83,206,135
Combo4 : 115,213,210
Combo5 : 226,166,120

[HitObjects]
101,196,30353,6,0,P|85:146|93:100,1,80,8|0,0:0|0:0,0:0:0:0:
160,65,30746,2,0,P|174:102|173:141,1,80,8|0,0:0|0:0,0:0:0:0:
183,230,31141,1,8,0:0:0:0:
255,177,31338,1,2,0:0:0:0:
206,316,31536,1,10,0:0:0:0:
333,218,31733,6,0,P|407:191|486:197,1,160,2|0,0:0|0:0,0:0:0:0:
377,296,32325,2,0,P|414:280|453:281,1,80,8|0,0:0|0:0,0:0:0:0:
431,369,32720,1,8,0:0:0:0:
300,339,32917,1,2,0:0:0:0:
225,227,33115,2,0,L|228:129,1,80,10|2,0:0|0:0,0:0:0:0:
371,75,33509,6,0,P|334:90|295:89,1,80,8|0,0:0|0:0,0:0:0:0:
212,59,33904,2,0,P|175:44|135:45,1,80,8|0,0:0|0:0,0:0:0:0:
56,86,34299,1,8,0:0:0:0:
160,131,34496,1,2,0:0:0:0:
212,59,34694,1,10,0:0:0:0:
81,172,34891,6,0,B|57:255|109:245|82:329,1,160,2|0,0:0|0:0,0:0:0:0:
155,379,35483,2,0,P|192:364|231:365,1,80,8|0,0:0|0:0,0:0:0:0:
387,362,35878,1,8,0:0:0:0:
309,321,36075,1,2,0:0:0:0:
482,339,36273,1,8,0:0:0:0:
482,339,36371,1,0,0:0:0:0:
482,339,36470,1,0,0:0:0:0:
482,339,36569,1,0,0:0:0:0:
482,339,36667,6,0,P|480:299|495:262,1,80,8|0,0:0|0:0,0:0:0:0:
504,173,37082,2,0,P|505:133|490:96,1,80,8|0,0:0|0:0,0:0:0:0:
407,58,37478,1,8,0:0:0:0:
366,141,37676,1,2,0:0:0:0:
333,3,37874,1,10,0:0:0:0:
275,137,38072,6,0,P|201:164|122:158,1,160,2|0,0:0|0:0,0:0:0:0:
67,83,38666,2,0,P|103:68|143:69,1,80,8|0,0:0|0:0,0:0:0:0:
230,42,39061,1,8,0:0:0:0:
275,137,39259,1,2,0:0:0:0:
266,254,39457,2,0,L|263:333,1,80,10|2,0:0|0:0,0:0:0:0:
160,333,39853,6,0,P|145:296|146:256,1,80,8|0,0:0|0:0,0:0:0:0:
173,169,40249,2,0,P|197:137|232:119,1,80,8|0,0:0|0:0,0:0:0:0:
323,128,40645,1,8,0:0:0:0:
369,49,40843,1,2,0:0:0:0:
391,190,41041,1,10,0:0:0:0:
473,73,41239,6,0,B|449:156|501:146|474:230,1,160,2|0,0:0|0:0,0:0:0:0:
399,281,41833,2,0,P|359:279|322:294,1,80,8|0,0:0|0:0,0:0:0:0:
268,368,42229,1,8,0:0:0:0:
191,320,42427,1,2,0:0:0:0:
117,372,42625,2,0,P|77:373|40:358,1,80,8|0,0:0|0:0,0:0:0:0:
35,255,43025,6,0,P|92:212|186:230,1,143.999995605469,6|8,0:0|0:0,0:0:0:0:
241,260,43623,2,0,P|311:263|367:220,1,143.999995605469,0|0,0:0|0:0,0:0:0:0:
393,132,44221,2,0,L|385:-24,1,143.999995605469,8|2,0:0|0:0,0:0:0:0:
291,190,45018,5,8,0:0:0:0:
236,263,45217,2,0,B|160:280|169:250|94:265,2,143.999995605469,2|0|0,0:0|0:0|0:0,0:0:0:0:
291,190,46214,1,2,0:0:0:0:
236,116,46413,2,0,L|164:120,1,71.9999978027344,0|8,0:0|0:0,0:0:0:0:
82,57,46812,2,0,P|135:145|83:234,1,215.999993408203,2|8,0:0|0:0,0:0:0:0:
260,173,47809,5,2,0:0:0:0:
401,119,48207,1,8,0:0:0:0:
484,155,48407,1,2,0:0:0:0:
410,210,48606,1,2,0:0:0:0:
260,173,49005,1,8,0:0:0:0:
417,353,49403,6,0,L|409:197,1,143.999995605469,2|8,0:0|0:0,0:0:0:0:
401,119,50001,1,2,0:0:0:0:
318,81,50201,2,0,P|248:78|192:121,1,143.999995605469,2|8,0:0|0:0,0:0:0:0:
176,284,50998,5,2,0:0:0:0:
101,129,51397,1,8,0:0:0:0:
95,220,51596,2,0,L|90:301,1,71.9999978027344,2|2,0:0|0:0,0:0:0:0:
144,366,51995,2,0,L|215:370,1,71.9999978027344,0|8,0:0|0:0,0:0:0:0:
299,326,52393,1,2,0:0:0:0:
299,326,52493,1,2,0:0:0:0:
299,326,52593,1,6,0:0:0:0:
207,351,55782,6,0,L|200:251,1,80,8|0,0:0|0:0,0:0:0:0:
310,271,56177,2,0,L|305:351,1,80,8|0,0:0|0:0,0:0:0:0:
201,271,56572,2,0,L|206:191,1,80,8|0,0:0|0:0,0:0:0:0:
305,191,56968,2,0,L|311:271,1,80,8|0,0:0|0:0,0:0:0:0:
382,358,57363,2,0,P|342:362|305:351,1,80,8|0,0:0|0:0,0:0:0:0:
206,351,57758,2,0,P|169:362|129:358,1,80,8|0,0:0|0:0,0:0:0:0:
158,271,58154,5,8,0:0:0:0:
354,271,58352,1,8,0:0:0:0:
158,271,58960,6,0,P|121:286|74:281,1,88.000002685547,8|0,0:0|0:0,0:0:0:0:
105,194,59358,2,0,P|142:179|189:184,1,88.000002685547,8|0,0:0|0:0,0:0:0:0:
248,256,59756,2,0,P|291:261|331:245,1,88.000002685547,8|2,0:0|0:0,0:0:0:0:
383,169,60154,1,10,0:0:0:0:
398,66,60353,6,0,B|364:61|335:68|304:92|293:118|293:118|233:114,1,176.000005371094,2|0,0:0|0:0,0:0:0:0:
161,74,60950,2,0,L|156:161,1,88.000002685547,8|0,0:0|0:0,0:0:0:0:
153,254,61348,2,0,L|240:258,1,88.000002685547,8|2,0:0|0:0,0:0:0:0:
321,214,61746,1,10,0:0:0:0:
375,303,61945,6,0,P|421:240|396:143,1,176.000005371094,2|0,0:0|0:0,0:0:0:0:
323,103,62542,2,0,P|279:97|239:113,1,88.000002685547,8|0,0:0|0:0,0:0:0:0:
158,156,62940,2,0,P|117:171|74:166,1,88.000002685547,8|2,0:0|0:0,0:0:0:0:
107,80,63338,1,10,0:0:0:0:
239,113,63537,6,0,B|243:180|243:180|223:219|223:219|229:307,2,176.000005371094,2|0|0,0:0|0:0|0:0,0:0:0:0:
230,22,64532,1,8,0:0:0:0:
156,75,64731,1,2,0:0:0:0:
313,61,64930,2,0,L|400:56,1,88.000002685547,10|0,0:0|0:0,0:0:0:0:
473,8,65338,6,0,P|430:64|433:135,1,143.999995605469,6|8,0:0|0:0,0:0:0:0:
504,192,65937,1,2,0:0:0:0:
447,264,66136,2,0,B|371:281|380:251|305:266,1,143.999995605469,2|8,0:0|0:0,0:0:0:0:
340,354,66736,1,0,0:0:0:0:
251,342,66935,1,2,0:0:0:0:
236,206,67135,6,0,L|231:119,1,71.9999978027344,0|8,0:0|0:0,0:0:0:0:
230,103,67435,2,0,L|225:31,1,71.9999978027344
223,0,67734,1,2,0:0:0:0:
318,36,67934,1,0,0:0:0:0:
318,36,68034,1,0,0:0:0:0:
318,36,68134,1,8,0:0:0:0:
410,23,68334,1,0,0:0:0:0:
475,106,68533,6,0,B|477:146|477:146|469:175|469:175|471:218,2,107.999996704102,2|0|2,0:0|0:0|0:0,0:0:0:0:
410,23,69332,1,2,0:0:0:0:
248,130,69732,1,8,0:0:0:0:
60,87,70131,6,0,L|49:1,2,71.9999978027344,2|0|8,0:0|0:0|0:0,0:0:0:0:
72,178,70730,1,2,0:0:0:0:
145,122,70930,1,2,0:0:0:0:
92,268,71130,1,0,0:0:0:0:
214,182,71330,1,8,0:0:0:0:
184,269,71529,1,0,0:0:0:0:
303,164,71729,6,0,P|373:161|429:204,1,143.999995605469,2|8,0:0|0:0,0:0:0:0:
451,294,72328,1,2,0:0:0:0:
379,350,72528,2,0,B|341:351|341:351|312:343|312:343|272:345,2,107.999996704102,2|0|0,0:0|0:0|0:0,0:0:0:0:
451,294,73327,6,0,L|446:207,1,71.9999978027344,2|0,0:0|0:0,0:0:0:0:
439,132,73726,2,0,L|352:137,1,71.9999978027344,8|2,0:0|0:0,0:0:0:0:
276,146,74126,2,0,L|279:202,2,35.9999989013672,2|0|0,0:0|0:0|0:0,0:0:0:0:
270,55,74525,1,8,0:0:0:0:
345,52,74725,1,0,0:0:0:0:
195,58,74956,5,6,0:0:0:0:
381,133,78156,6,0,L|481:126,1,80,8|0,0:0|0:0,0:0:0:0:
460,256,78557,2,0,L|381:251,1,80,8|0,0:0|0:0,0:0:0:0:
381,133,78958,2,0,L|281:126,1,80,8|0,0:0|0:0,0:0:0:0:
301,256,79360,2,0,L|381:251,1,80,8|0,0:0|0:0,0:0:0:0:
455,336,79761,2,0,L|460:257,1,80,8|0,0:0|0:0,0:0:0:0:
460,127,80162,2,0,L|455:48,1,80,8|0,0:0|0:0,0:0:0:0:
369,116,80564,5,8,0:0:0:0:
369,268,80764,1,8,0:0:0:0:
369,116,81366,6,0,P|332:131|285:126,1,88.000002685547,8|0,0:0|0:0,0:0:0:0:
200,93,81764,2,0,P|156:87|116:103,1,88.000002685547,8|0,0:0|0:0,0:0:0:0:
83,189,82162,2,0,P|126:194|167:179,1,88.000002685547,8|2,0:0|0:0,0:0:0:0:
200,93,82560,1,10,0:0:0:0:
255,198,82759,6,0,B|259:265|259:265|239:304|239:304|245:392,1,176.000005371094,2|0,0:0|0:0,0:0:0:0:
331,326,83356,2,0,L|418:331,1,88.000002685547,8|0,0:0|0:0,0:0:0:0:
483,236,83754,2,0,L|396:241,1,88.000002685547,8|2,0:0|0:0,0:0:0:0:
327,181,84152,1,10,0:0:0:0:
353,80,84351,6,0,B|400:92|420:136|420:136|461:114|504:127,1,176.000005371094,2|0,0:0|0:0,0:0:0:0:
470,214,84948,2,0,P|475:257|459:297,1,88.000002685547,8|0,0:0|0:0,0:0:0:0:
380,342,85346,2,0,P|336:347|296:331,1,88.000002685547,8|2,0:0|0:0,0:0:0:0:
273,243,85744,1,10,0:0:0:0:
195,314,85943,6,0,B|60:325|60:325|7:308,2,176.000005371094,2|0|0,0:0|0:0|0:0,0:0:0:0:
273,243,86938,1,8,0:0:0:0:
190,205,87137,1,2,0:0:0:0:
321,166,87336,2,0,L|408:171,1,88.000002685547,10|0,0:0|0:0,0:0:0:0:
483,227,87730,6,0,P|440:171|443:100,1,143.999995605469,6|8,0:0|0:0,0:0:0:0:
496,26,88332,1,2,0:0:0:0:
406,32,88533,2,0,L|262:40,1,143.999995605469,2|8,0:0|0:0,0:0:0:0:
171,45,89135,1,0,0:0:0:0:
177,136,89336,2,0,L|264:131,1,71.9999978027344,2|0,0:0|0:0,0:0:0:0:
353,125,89738,5,8,0:0:0:0:
393,224,89938,2,0,B|317:241|326:211|251:226,1,143.999995605469,2|0,0:0|0:0,0:0:0:0:
175,279,90541,1,8,0:0:0:0:
98,230,90742,6,0,L|93:143,1,71.9999978027344,0|2,0:0|0:0,0:0:0:0:
18,34,91143,2,0,L|83:67,1,71.9999978027344,0|8,0:0|0:0,0:0:0:0:
226,63,91545,2,0,L|166:103,1,71.9999978027344,2|2,0:0|0:0,0:0:0:0:
93,158,91946,1,0,0:0:0:0:
176,195,92147,2,0,P|178:265|135:321,1,143.999995605469,8|2,0:0|0:0,0:0:0:0:
39,300,92750,5,0,0:0:0:0:
21,198,92950,1,8,0:0:0:0:
98,230,93151,1,2,0:0:0:0:
91,126,93352,2,0,L|86:39,1,71.9999978027344,2|0,0:0|0:0,0:0:0:0:
182,11,93754,2,0,L|177:82,1,71.9999978027344,8|0,0:0|0:0,0:0:0:0:
230,173,94155,5,6,0:0:0:0:
298,111,94356,1,0,0:0:0:0:
298,111,94456,1,0,0:0:0:0:
298,111,94557,2,0,L|385:106,1,71.9999978027344,8|2,0:0|0:0,0:0:0:0:
460,98,94958,1,2,0:0:0:0:
407,23,95159,1,0,0:0:0:0:
423,182,95360,2,0,L|428:269,1,71.9999978027344,8|0,0:0|0:0,0:0:0:0:
433,358,95762,5,2,0:0:0:0:
356,331,95962,1,0,0:0:0:0:
356,331,96063,1,0,0:0:0:0:
356,331,96163,2,0,L|269:326,1,71.9999978027344,8|2,0:0|0:0,0:0:0:0:
193,318,96565,1,2,0:0:0:0:
103,336,96766,1,0,0:0:0:0:
32,243,96966,2,0,L|27:156,1,71.9999978027344,8|0,0:0|0:0,0:0:0:0:
76,34,97396,1,6,0:0:0:0:
184,112,100587,6,0,P|180:72|191:35,1,80,8|0,0:0|0:0,0:0:0:0:
320,34,100985,2,0,P|332:72|328:112,1,80,8|0,0:0|0:0,0:0:0:0:
191,189,101383,2,0,P|179:150|183:111,1,80,8|0,0:0|0:0,0:0:0:0:
328,111,101781,2,0,P|332:150|321:189,1,80,8|0,0:0|0:0,0:0:0:0:
404,278,102179,2,0,L|304:271,1,80,8|0,0:0|0:0,0:0:0:0:
187,272,102577,2,0,L|108:278,1,80,8|0,0:0|0:0,0:0:0:0:
140,189,102975,5,8,0:0:0:0:
372,189,103174,1,8,0:0:0:0:
140,189,103771,6,0,L|145:102,1,88.000002685547,8|0,0:0|0:0,0:0:0:0:
229,66,104167,2,0,L|224:153,1,88.000002685547,8|0,0:0|0:0,0:0:0:0:
308,188,104563,2,0,L|313:101,1,88.000002685547,8|2,0:0|0:0,0:0:0:0:
381,39,104959,1,10,0:0:0:0:
443,122,105157,6,0,B|473:219|411:196|444:294,1,176.000005371094,2|0,0:0|0:0,0:0:0:0:
377,356,105751,2,0,P|340:341|293:346,1,88.000002685547,8|0,0:0|0:0,0:0:0:0:
203,334,106147,2,0,P|159:339|119:323,1,88.000002685547,8|2,0:0|0:0,0:0:0:0:
81,241,106543,1,10,0:0:0:0:
145,159,106741,6,0,B|212:155|212:155|251:175|251:175|339:169,1,176.000005371094,2|0,0:0|0:0,0:0:0:0:
401,138,107335,2,0,P|406:181|390:221,1,88.000002685547,8|0,0:0|0:0,0:0:0:0:
447,295,107731,2,0,P|494:292|536:312,1,88.000002685547,8|2,0:0|0:0,0:0:0:0:
478,382,108127,1,10,0:0:0:0:
353,325,108325,6,0,L|186:332,1,160,0|0,0:0|0:0,0:0:0:0:
56,174,109117,2,0,L|215:167,1,160,0|0,0:0|0:0,0:0:0:0:
449,234,109909,1,0,0:0:0:0:
256,192,121196,6,0,B|238:131|273:137|255:67,2,120,6|6|6,0:0|0:0|0:0,0:0:0:0:
256,192,122539,12,0,125260,0:0:0:0:
411,188,131666,6,0,P|427:238|419:284,1,80,12|0,0:0|0:0,0:0:0:0:
352,319,132063,2,0,P|338:282|339:243,1,80,8|0,0:0|0:0,0:0:0:0:
329,154,132460,1,8,0:0:0:0:
257,207,132659,1,2,0:0:0:0:
306,68,132858,1,10,0:0:0:0:
178,166,133056,6,0,P|104:193|25:187,1,160,2|0,0:0|0:0,0:0:0:0:
130,86,133652,2,0,P|93:100|54:100,1,80,8|0,0:0|0:0,0:0:0:0:
79,12,134050,1,8,0:0:0:0:
212,45,134248,1,2,0:0:0:0:
287,157,134447,2,0,L|284:255,1,80,10|2,0:0|0:0,0:0:0:0:
141,309,134844,6,0,P|178:294|217:295,1,80,8|0,0:0|0:0,0:0:0:0:
300,325,135242,2,0,P|337:340|377:339,1,80,8|0,0:0|0:0,0:0:0:0:
475,306,135639,1,8,0:0:0:0:
352,253,135838,1,2,0:0:0:0:
300,325,136036,1,10,0:0:0:0:
431,212,136235,6,0,B|455:129|403:139|430:55,1,160,2|0,0:0|0:0,0:0:0:0:
357,5,136831,2,0,P|320:20|281:19,1,80,8|0,0:0|0:0,0:0:0:0:
125,22,137228,1,8,0:0:0:0:
203,63,137427,1,2,0:0:0:0:
59,116,137626,2,0,L|58:63,3,40,10|0|0|0,0:0|0:0|0:0|0:0,0:0:0:0:
30,45,138023,6,0,P|32:85|17:122,1,80,12|0,0:0|0:0,0:0:0:0:
8,211,138419,2,0,P|7:251|22:288,1,80,8|0,0:0|0:0,0:0:0:0:
109,344,138816,1,8,0:0:0:0:
146,243,139014,1,2,0:0:0:0:
179,381,139213,1,10,0:0:0:0:
237,247,139411,6,0,P|311:220|390:226,1,160,2|0,0:0|0:0,0:0:0:0:
445,301,140006,2,0,P|409:316|369:315,1,80,8|0,0:0|0:0,0:0:0:0:
270,346,140403,1,8,0:0:0:0:
237,247,140601,1,2,0:0:0:0:
240,143,140799,2,0,L|243:64,1,80,10|2,0:0|0:0,0:0:0:0:
352,51,141196,6,0,P|367:88|366:128,1,80,8|0,0:0|0:0,0:0:0:0:
339,215,141593,2,0,P|315:247|280:265,1,80,8|0,0:0|0:0,0:0:0:0:
200,199,141989,1,8,0:0:0:0:
175,314,142188,1,2,0:0:0:0:
121,194,142386,1,10,0:0:0:0:
39,311,142584,6,0,B|63:228|11:238|38:154,1,160,2|0,0:0|0:0,0:0:0:0:
113,103,143180,2,0,P|153:105|190:90,1,80,8|0,0:0|0:0,0:0:0:0:
244,16,143576,1,8,0:0:0:0:
321,64,143775,1,2,0:0:0:0:
395,12,143973,2,0,P|435:11|472:26,1,80,10|0,0:0|0:0,0:0:0:0:
411,196,144370,6,0,P|427:146|419:100,1,80,10|0,0:0|0:0,0:0:0:0:
321,64,144766,2,0,P|307:101|308:140,1,80,8|0,0:0|0:0,0:0:0:0:
342,239,145162,1,8,0:0:0:0:
238,199,145360,1,2,0:0:0:0:
304,321,145558,1,10,0:0:0:0:
171,261,145756,6,0,P|97:234|18:240,1,160,2|0,0:0|0:0,0:0:0:0:
49,324,146350,2,0,P|88:324|125:340,1,80,8|0,0:0|0:0,0:0:0:0:
206,384,146746,1,8,0:0:0:0:
296,332,146944,1,2,0:0:0:0:
287,227,147142,2,0,L|284:129,1,80,10|2,0:0|0:0,0:0:0:0:
141,75,147538,6,0,P|178:90|217:89,1,80,8|0,0:0|0:0,0:0:0:0:
300,59,147934,2,0,P|337:44|377:45,1,80,8|0,0:0|0:0,0:0:0:0:
474,77,148330,1,8,0:0:0:0:
352,131,148528,1,2,0:0:0:0:
300,59,148726,1,10,0:0:0:0:
431,172,148924,6,0,B|455:255|403:245|430:329,1,160,2|0,0:0|0:0,0:0:0:0:
357,379,149518,2,0,P|320:364|281:365,1,80,8|0,0:0|0:0,0:0:0:0:
125,362,149914,1,8,0:0:0:0:
203,321,150112,1,2,0:0:0:0:
30,322,150310,1,8,0:0:0:0:
30,322,150706,6,0,P|32:282|10:238,1,88.000002685547,8|0,0:0|0:0,0:0:0:0:
49,162,151102,2,0,P|48:122|67:77,1,88.000002685547,8|0,0:0|0:0,0:0:0:0:
153,50,151498,1,8,0:0:0:0:
183,137,151696,1,2,0:0:0:0:
229,0,151894,1,10,0:0:0:0:
273,148,152092,6,0,P|347:175|448:165,1,176.000005371094,2|0,0:0|0:0,0:0:0:0:
494,91,152686,2,0,P|453:75|410:81,1,88.000002685547,8|0,0:0|0:0,0:0:0:0:
321,47,153082,1,8,0:0:0:0:
273,148,153280,1,2,0:0:0:0:
286,259,153478,2,0,L|289:346,1,88.000002685547,10|2,0:0|0:0,0:0:0:0:
405,342,153874,6,0,P|422:302|421:258,1,88.000002685547,8|0,0:0|0:0,0:0:0:0:
392,163,154270,2,0,P|366:128|327:108,1,88.000002685547,8|0,0:0|0:0,0:0:0:0:
226,130,154667,1,8,0:0:0:0:
184,46,154865,1,2,0:0:0:0:
162,187,155063,1,10,0:0:0:0:
68,60,155261,6,0,B|95:151|38:140|67:232,1,176.000005371094,2|0,0:0|0:0,0:0:0:0:
141,287,155855,2,0,P|186:284|228:301,1,88.000002685547,8|0,0:0|0:0,0:0:0:0:
285,365,156251,1,8,0:0:0:0:
362,317,156449,1,2,0:0:0:0:
436,369,156647,2,0,P|476:370|520:348,1,88.000002685547,10|0,0:0|0:0,0:0:0:0:
362,317,157043,5,10,0:0:0:0:
412,241,157243,1,2,0:0:0:0:
356,169,157443,1,10,0:0:0:0:
271,200,157643,1,2,0:0:0:0:
275,290,157843,1,10,0:0:0:0:
412,241,158043,2,0,L|524:265,2,95.9999970703126,2|10|2,0:0|0:0|0:0,0:0:0:0:
271,200,158643,5,10,0:0:0:0:
184,227,158843,1,2,0:0:0:0:
131,152,159043,1,10,0:0:0:0:
185,78,159243,1,2,0:0:0:0:
272,106,159443,1,10,0:0:0:0:
131,152,159643,2,0,L|22:121,2,95.9999970703126,2|10|2,0:0|0:0|0:0,0:0:0:0:
271,200,160243,5,10,0:0:0:0:
361,227,160443,1,2,0:0:0:0:
416,152,160643,1,10,0:0:0:0:
361,77,160843,1,2,0:0:0:0:
272,106,161043,1,10,0:0:0:0:
247,221,161243,5,2,0:0:0:0:
253,79,161443,1,10,0:0:0:0:
361,227,161643,2,0,L|359:324,1,95.9999970703126,2|10,0:0|0:0,0:0:0:0:
152,322,162043,2,0,L|151:227,1,95.9999970703126,2|10,0:0|0:0,0:0:0:0:
210,143,162443,2,0,P|255:156|301:142,1,95.9999970703126,2|10,0:0|0:0,0:0:0:0:
395,147,162843,5,2,0:0:0:0:
256,64,163043,1,10,0:0:0:0:
117,147,163243,1,14,0:0:0:0:
