osu file format v14

[General]
AudioFilename: audio.mp3
AudioLeadIn: 0
PreviewTime: 58450
Countdown: 0
SampleSet: Soft
StackLeniency: 0.9
Mode: 0
LetterboxInBreaks: 0
WidescreenStoryboard: 1

[Editor]
DistanceSpacing: 1
BeatDivisor: 4
GridSize: 32
TimelineZoom: 1.400001

[Metadata]
Title:Hazy Shade of Winter
TitleUnicode:Hazy Shade of Winter
Artist:The Bangles
ArtistUnicode:The Bangles
Creator:CraEZy
Version:Easy
Source:Stranger Things
Tags:ost Netflix Original 80's 1980's 1987 Punk Less Than Zero Simon and Garfunkel
BeatmapID:1466884
BeatmapSetID:687459

[Difficulty]
HPDrainRate:2
CircleSize:2
OverallDifficulty:2
ApproachRate:2.5
SliderMultiplier:1
SliderTickRate:2

[Events]
//Background and Video events
0,0,"TfzbE9Y.png",0,0
//Break Periods
2,52793,54222
2,75156,76596
2,97596,99027
2,111691,119636
2,125460,130106
//Storyboard Layer 0 (Background)
//Storyboard Layer 1 (Fail)
//Storyboard Layer 2 (Pass)
//Storyboard Layer 3 (Foreground)
//Storyboard Sound Samples

[TimingPoints]
369,610.376398779247,4,2,1,5,1,0
15018,613.496932515337,4,2,1,5,1,0
22992,613.496932515337,4,2,1,5,1,0
30352,394.736842105263,4,2,1,50,1,0
36686,395.908940943583,4,2,1,50,1,0
43025,398.671096345515,4,2,1,50,1,0
43025,-100,4,2,1,50,0,0
55782,395.387149917628,4,2,1,50,1,0
58960,398.009950248756,4,2,1,50,1,1
58960,-100,4,2,1,50,0,1
65338,399.467376830892,4,2,1,50,1,0
65338,-100,4,2,1,50,0,0
74956,396.039603960396,4,2,1,50,1,0
78156,401.33779264214,4,2,1,50,1,0
81366,398.009950248756,4,2,1,50,1,1
81366,-100,4,2,1,50,0,1
87730,401.606425702811,4,2,1,50,1,0
87730,-100,4,2,1,50,0,0
97396,398.671096345515,4,2,1,50,1,0
100587,398.009950248756,4,2,1,50,1,0
103771,396.039603960396,4,2,1,50,1,1
103771,-100,4,2,1,50,0,1
108325,-100,4,2,1,50,0,0
121195,413.793103448276,4,2,1,50,1,0
121195,-100,4,2,1,50,0,0
122850,392.156862745098,4,2,1,50,1,0
125260,400,4,2,1,50,1,0
131666,397.350993377483,4,2,1,50,1,0
138023,396.694214876033,4,2,1,50,1,0
144370,396.039603960396,4,2,1,50,1,0
150706,-100,4,2,1,50,0,0
157043,400,4,2,1,50,1,1
157043,-100,4,2,1,50,0,1
163143,-100,4,2,1,50,0,0
163243,-100,4,2,1,50,0,1
163343,-100,4,2,1,50,0,0

[Colours]
Combo1 : 149,114,207
Combo2 : 223,214,157
Combo3 : 83,206,135
Combo4 : 115,213,210
Combo5 : 226,166,120

[HitObjects]
39,41,30352,5,8,0:0:0:0:
238,52,31141,2,0,B|310:57|310:57|350:94|350:94|423:99,1,200,8|8,0:0|0:0,0:0:0:0:
482,179,32325,1,8,0:0:0:0:
478,278,32720,2,0,P|467:334|428:376,1,100,8|10,0:0|0:0,0:0:0:0:
377,289,33509,5,8,0:0:0:0:
177,296,34299,2,0,P|98:272|71:152,1,200,8|8,0:0|0:0,0:0:0:0:
161,195,35483,1,8,0:0:0:0:
224,117,35878,2,0,L|323:121,1,100,8|8,0:0|0:0,0:0:0:0:
423,131,36667,5,8,0:0:0:0:
261,6,37477,2,0,B|115:-2|115:-2|66:31,1,200,8|8,0:0|0:0,0:0:0:0:
0,100,38666,1,8,0:0:0:0:
5,199,39061,2,0,L|9:298,1,100,8|10,0:0|0:0,0:0:0:0:
81,368,39853,5,8,0:0:0:0:
269,298,40645,2,0,B|379:274|357:328|466:299,1,200,8|8,0:0|0:0,0:0:0:0:
490,202,41833,1,8,0:0:0:0:
448,111,42229,2,0,L|349:115,1,100,8|8,0:0|0:0,0:0:0:0:
253,144,43025,6,0,P|258:70|312:21,2,150,6|0|8,0:0|0:0|0:0,0:0:0:0:
305,336,45018,2,0,P|233:375|109:337,1,200,8|8,0:0|0:0,0:0:0:0:
76,260,46214,6,0,P|70:195|86:157,1,100,2|8,0:0|0:0,0:0:0:0:
152,92,47011,2,0,L|263:88,1,100,0|8,0:0|0:0,0:0:0:0:
444,141,48207,2,0,L|448:252,1,100,8|2,0:0|0:0,0:0:0:0:
418,336,49005,1,8,0:0:0:0:
328,296,49403,6,0,P|279:292|227:320,1,100,2|8,0:0|0:0,0:0:0:0:
143,356,50201,2,0,P|98:377|49:373,1,100,2|8,0:0|0:0,0:0:0:0:
56,172,51397,2,0,L|61:62,1,100,8|2,0:0|0:0,0:0:0:0:
157,45,52194,1,8,0:0:0:0:
238,103,52593,5,6,0:0:0:0:
493,135,55782,6,0,L|372:139,1,100,8|8,0:0|0:0,0:0:0:0:
307,189,56572,2,0,L|186:193,1,100,8|8,0:0|0:0,0:0:0:0:
122,245,57363,2,0,L|1:249,1,100,8|8,0:0|0:0,0:0:0:0:
25,348,58154,1,8,0:0:0:0:
223,328,58960,5,8,0:0:0:0:
320,348,59358,1,8,0:0:0:0:
405,295,59756,2,0,P|416:247|406:198,1,100,8|10,0:0|0:0,0:0:0:0:
359,109,60552,1,8,0:0:0:0:
259,116,60950,2,0,L|151:119,1,100,8|8,0:0|0:0,0:0:0:0:
23,266,62144,5,8,0:0:0:0:
115,227,62542,1,8,0:0:0:0:
201,276,62940,2,0,P|250:286|299:275,1,100,8|10,0:0|0:0,0:0:0:0:
358,195,63736,2,0,L|361:87,2,100,8|8|8,0:0|0:0|0:0,0:0:0:0:
397,286,64930,1,10,0:0:0:0:
338,369,65338,5,6,0:0:0:0:
251,319,65737,2,0,P|203:308|154:319,1,100,8|2,0:0|0:0,0:0:0:0:
70,371,66536,1,8,0:0:0:0:
74,171,67335,2,0,L|77:63,2,100,8|2|8,0:0|0:0|0:0,0:0:0:0:
139,246,68533,6,0,P|204:252|273:151,1,200,2|2,0:0|0:0,0:0:0:0:
271,50,69732,1,8,0:0:0:0:
172,62,70131,2,0,P|164:110|178:158,1,100,2|8,0:0|0:0,0:0:0:0:
348,265,71330,1,8,0:0:0:0:
359,165,71729,5,2,0:0:0:0:
367,65,72128,2,0,P|412:82|447:118,2,100,8|2|8,0:0|0:0|0:0,0:0:0:0:
279,111,73327,1,2,0:0:0:0:
189,68,73726,1,8,0:0:0:0:
103,119,74126,2,0,L|101:219,1,100,2|8,0:0|0:0,0:0:0:0:
168,305,74956,5,6,0:0:0:0:
23,214,78156,6,0,P|71:223|119:209,1,100,8|8,0:0|0:0,0:0:0:0:
209,164,78958,2,0,P|256:150|305:159,1,100,8|8,0:0|0:0,0:0:0:0:
398,195,79761,2,0,P|446:204|494:190,1,100,8|8,0:0|0:0,0:0:0:0:
442,104,80564,1,8,0:0:0:0:
240,104,81366,5,8,0:0:0:0:
140,98,81764,1,8,0:0:0:0:
47,135,82162,2,0,P|36:183|46:232,1,100,8|10,0:0|0:0,0:0:0:0:
120,301,82958,1,8,0:0:0:0:
220,297,83356,2,0,L|328:294,1,100,8|8,0:0|0:0,0:0:0:0:
344,95,84550,5,8,0:0:0:0:
431,145,84948,1,8,0:0:0:0:
472,237,85346,2,0,P|483:285|472:334,1,100,8|10,0:0|0:0,0:0:0:0:
380,373,86142,2,0,L|272:370,2,100,8|8|8,0:0|0:0|0:0,0:0:0:0:
472,333,87336,1,10,0:0:0:0:
392,275,87730,5,6,0:0:0:0:
429,182,88131,2,0,L|426:74,1,100,8|2,0:0|0:0,0:0:0:0:
355,12,88934,1,8,0:0:0:0:
182,113,89738,2,0,P|134:124|85:113,1,100,8|2,0:0|0:0,0:0:0:0:
133,25,90541,1,8,0:0:0:0:
232,26,90942,6,0,B|332:27|332:27|386:62,2,150,2|2|8,0:0|0:0|0:0,0:0:0:0:
182,113,92549,1,2,0:0:0:0:
189,212,92950,2,0,P|237:223|286:212,1,100,8|2,0:0|0:0,0:0:0:0:
464,120,94155,5,6,0:0:0:0:
415,34,94557,2,0,L|307:31,2,100,8|2|8,0:0|0:0|0:0,0:0:0:0:
464,120,95762,1,2,0:0:0:0:
415,206,96163,2,0,L|307:209,1,100,8|2,0:0|0:0,0:0:0:0:
215,213,96966,1,8,0:0:0:0:
259,114,97396,5,6,0:0:0:0:
11,162,100587,6,0,B|62:157|62:157|110:166,1,100,8|8,0:0|0:0,0:0:0:0:
208,184,101383,2,0,B|255:192|255:192|307:188,1,100,8|8,0:0|0:0,0:0:0:0:
406,179,102179,2,0,B|457:174|457:174|505:183,1,100,8|8,0:0|0:0,0:0:0:0:
456,270,102975,1,8,0:0:0:0:
255,262,103771,5,8,0:0:0:0:
155,268,104167,1,8,0:0:0:0:
65,224,104563,2,0,P|54:176|64:127,1,100,8|10,0:0|0:0,0:0:0:0:
140,62,105355,1,8,0:0:0:0:
240,66,105751,2,0,L|348:69,1,100,8|8,0:0|0:0,0:0:0:0:
481,210,106939,5,8,0:0:0:0:
431,297,107335,1,8,0:0:0:0:
339,338,107731,1,8,0:0:0:0:
285,198,108325,6,0,B|259:130|185:91|185:91|162:198|162:198|202:242|207:281|207:281|202:325,1,400
256,192,121196,6,0,B|233:113|279:127|256:39,2,150,6|6|6,0:0|0:0|0:0,0:0:0:0:
256,192,122643,12,0,125260,0:0:0:0:
473,343,131666,5,12,0:0:0:0:
274,332,132460,2,0,B|202:327|202:327|162:290|162:290|89:285,1,200,8|8,0:0|0:0,0:0:0:0:
30,205,133652,1,8,0:0:0:0:
34,106,134050,2,0,P|45:50|84:8,1,100,8|10,0:0|0:0,0:0:0:0:
135,95,134844,5,8,0:0:0:0:
335,88,135639,2,0,P|414:112|441:232,1,200,8|8,0:0|0:0,0:0:0:0:
351,189,136831,1,8,0:0:0:0:
288,267,137228,2,0,L|189:263,1,100,8|8,0:0|0:0,0:0:0:0:
89,253,138023,5,8,0:0:0:0:
248,373,138816,2,0,B|394:381|394:381|443:348,1,200,8|8,0:0|0:0,0:0:0:0:
512,284,140006,1,8,0:0:0:0:
507,185,140403,2,0,L|503:86,1,100,8|10,0:0|0:0,0:0:0:0:
431,16,141196,5,8,0:0:0:0:
243,86,141989,2,0,B|133:110|155:56|46:85,1,200,8|8,0:0|0:0,0:0:0:0:
22,182,143180,1,8,0:0:0:0:
64,273,143576,2,0,L|163:269,1,100,8|8,0:0|0:0,0:0:0:0:
264,264,144370,5,8,0:0:0:0:
435,366,145161,2,0,B|430:294|430:294|393:254|393:254|388:181,1,200,8|8,0:0|0:0,0:0:0:0:
443,97,146349,1,8,0:0:0:0:
459,0,146745,2,0,P|403:11|361:50,1,100,8|10,0:0|0:0,0:0:0:0:
315,120,147537,5,8,0:0:0:0:
142,60,148329,2,0,P|63:84|36:204,1,200,8|8,0:0|0:0,0:0:0:0:
127,163,149518,1,8,0:0:0:0:
194,237,149914,2,0,L|293:233,1,100,8|8,0:0|0:0,0:0:0:0:
393,224,150706,5,8,0:0:0:0:
264,373,151498,2,0,B|118:381|118:381|69:348,1,200,8|8,0:0|0:0,0:0:0:0:
0,284,152686,1,8,0:0:0:0:
5,185,153082,2,0,L|9:86,1,100,8|10,0:0|0:0,0:0:0:0:
81,16,153874,5,8,0:0:0:0:
269,86,154667,2,0,B|379:110|357:56|466:85,1,200,8|8,0:0|0:0,0:0:0:0:
490,182,155855,5,8,0:0:0:0:
473,280,156251,2,0,L|374:276,1,100,8|8,0:0|0:0,0:0:0:0:
281,314,157043,6,0,B|230:319|230:319|182:310,1,100,10|10,0:0|0:0,0:0:0:0:
91,353,157843,2,0,B|61:311|61:311|44:265,1,100,10|10,0:0|0:0,0:0:0:0:
123,203,158643,2,0,L|222:207,2,100,10|10|10,0:0|0:0|0:0,0:0:0:0:
56,128,159843,1,10,0:0:0:0:
135,67,160243,6,0,B|186:62|186:62|234:71,1,100,10|10,0:0|0:0,0:0:0:0:
325,28,161043,2,0,B|354:69|354:69|371:115,1,100,10|10,0:0|0:0,0:0:0:0:
322,203,161843,2,0,L|318:302,2,100,10|10|10,0:0|0:0|0:0,0:0:0:0:
228,167,163043,2,0,L|225:220,1,50,10|14,0:0|0:0,0:0:0:0:
