osu file format v14

[General]
AudioFilename: If - If I Die Young.mp3
AudioLeadIn: 0
PreviewTime: 34654
Countdown: 0
SampleSet: None
StackLeniency: 0.8
Mode: 0
LetterboxInBreaks: 0
WidescreenStoryboard: 1

[Editor]
Bookmarks: 35006,57594,119712,142300,187476,249594
DistanceSpacing: 1
BeatDivisor: 4
GridSize: 4
TimelineZoom: 2.100006

[Metadata]
Title:If I Die Young (Dubstep Remix)
TitleUnicode:If I Die Young (Dubstep Remix)
Artist:The Band Perry
ArtistUnicode:The Band Perry
Creator:R4UP1
Version:The Flowers we saw that Day
Source:
Tags:Techno Dubstep Electronic English Puuce Asonate -M4x if i rip
BeatmapID:1521143
BeatmapSetID:428044

[Difficulty]
HPDrainRate:5
CircleSize:4
OverallDifficulty:8
ApproachRate:9.2
SliderMultiplier:1.7
SliderTickRate:1

[Events]
//Background and Video events
0,0,"howl_at_the_universe_by_nanomortis-da02cbp.jpg",0,0
//Break Periods
2,57794,61259
2,244147,247612
//Storyboard Layer 0 (Background)
//Storyboard Layer 1 (Fail)
//Storyboard Layer 2 (Pass)
//Storyboard Layer 3 (Foreground)
//Storyboard Sound Samples

[TimingPoints]
1124,352.941176470588,4,1,1,60,1,0
1124,-200,4,1,1,60,0,0
12418,-133.333333333333,4,1,1,60,0,0
23359,-200,4,1,1,60,0,0
23712,-133.333333333333,4,1,1,60,0,0
35006,-71.4285714285714,4,1,1,60,0,1
57594,-142.857142857143,4,1,1,60,0,0
61829,-142.857142857143,4,2,1,40,0,0
63241,-125,4,1,1,60,0,0
74535,-100,4,1,1,60,0,0
77623,-100,4,1,1,5,0,0
77712,-100,4,1,1,60,0,0
77976,-100,4,1,1,5,0,0
78065,-100,4,1,1,60,0,0
83271,-100,4,1,1,5,0,0
83359,-100,4,1,1,60,0,0
83623,-100,4,1,1,5,0,0
83712,-100,4,1,1,60,0,0
85829,-133.333333333333,4,1,1,60,0,0
91476,-100,4,1,1,60,0,0
96418,-200,4,1,1,60,0,0
97123,-76.9230769230769,4,1,1,60,0,1
97476,-50,4,1,1,60,0,1
98182,-66.6666666666667,4,1,1,60,0,1
98535,-50,4,1,1,60,0,1
99241,-200,4,1,1,60,0,1
99947,-76.9230769230769,4,1,1,60,0,1
100300,-50,4,1,1,60,0,1
101006,-66.6666666666667,4,1,1,60,0,1
101359,-50,4,1,1,60,0,1
102771,-133.333333333333,4,1,1,60,0,1
103476,-100,4,1,1,60,0,1
104888,-200,4,1,1,60,0,1
108418,-76.9230769230769,4,1,1,60,0,1
108771,-50,4,1,1,60,0,1
109476,-66.6666666666667,4,1,1,60,0,1
109829,-50,4,1,1,60,0,1
110535,-200,4,1,1,60,0,1
111241,-76.9230769230769,4,1,1,60,0,1
111594,-50,4,1,1,60,0,1
112300,-66.6666666666667,4,1,1,60,0,1
112653,-50,4,1,1,60,0,1
114065,-133.333333333333,4,1,1,60,0,1
114771,-100,4,1,1,60,0,1
116888,-200,4,1,1,60,0,1
119712,-125,4,1,0,60,0,0
134094,-125,4,1,0,5,0,0
134182,-125,4,1,0,60,0,0
134447,-125,4,1,0,5,0,0
134535,-125,4,1,0,60,0,0
139741,-125,4,1,0,5,0,0
139829,-125,4,1,0,60,0,0
140094,-125,4,1,0,5,0,0
140182,-125,4,1,0,60,0,0
142300,-76.9230769230769,4,1,1,60,0,1
142653,-50,4,1,1,60,0,1
143359,-66.6666666666667,4,1,1,60,0,1
143712,-50,4,1,1,60,0,1
144418,-200,4,1,1,60,0,1
145123,-76.9230769230769,4,1,1,60,0,1
145476,-50,4,1,1,60,0,1
146182,-66.6666666666667,4,1,1,60,0,1
146535,-50,4,1,1,60,0,1
147241,-200,4,1,1,60,0,1
147947,-123.456790123457,4,1,1,60,0,1
148652,-100,4,1,1,60,0,1
150064,-200,4,1,1,60,0,1
153594,-76.9230769230769,4,1,1,60,0,1
153947,-50,4,1,1,60,0,1
154652,-66.6666666666667,4,1,1,60,0,1
155005,-50,4,1,1,60,0,1
155711,-200,4,1,1,60,0,1
156417,-76.9230769230769,4,1,1,60,0,1
156770,-50,4,1,1,60,0,1
157476,-66.6666666666667,4,1,1,60,0,1
157829,-50,4,1,1,60,0,1
158535,-200,4,1,1,60,0,1
159947,-100,4,1,1,60,0,1
162064,-200,4,1,1,60,0,1
164887,-76.9230769230769,4,1,1,60,0,1
165946,-66.6666666666667,4,1,1,60,0,1
166299,-50,4,1,1,60,0,1
167005,-200,4,1,1,60,0,1
167359,-50,4,1,1,60,0,1
167711,-76.9230769230769,4,1,1,60,0,1
168064,-50,4,1,1,60,0,1
168770,-200,4,1,1,60,0,1
169123,-50,4,1,1,60,0,1
170535,-133.333333333333,4,1,1,60,0,1
171240,-100,4,1,1,60,0,1
172652,-200,4,1,1,60,0,1
176182,-76.9230769230769,4,1,1,60,0,1
177240,-66.6666666666667,4,1,1,60,0,1
177593,-50,4,1,1,60,0,1
178299,-200,4,1,1,60,0,1
178653,-50,4,1,1,60,0,1
179005,-76.9230769230769,4,1,1,60,0,1
179358,-50,4,1,1,60,0,1
180064,-133.333333333333,4,1,1,60,0,1
180417,-50,4,1,1,60,0,1
181829,-200,4,1,1,60,0,1
182535,-100,4,1,1,60,0,1
183947,-200,4,1,1,60,0,1
184652,-200,4,1,1,60,0,1
187476,-200,4,1,0,60,0,0
188182,-200,4,1,0,40,0,0
188800,-200,4,1,0,5,0,0
188888,-200,4,1,0,40,0,0
198771,-133.333333333333,4,1,0,40,0,0
221359,-71.4285714285714,4,1,0,40,0,1
243947,-71.4285714285714,4,1,0,40,0,0
248182,-133.333333333333,4,1,0,40,0,0

[Colours]
Combo1 : 255,169,128
Combo2 : 255,74,102
Combo3 : 40,79,98
SliderTrackOverride : 29,57,71

[HitObjects]
152,300,1124,6,0,L|152:248,1,42.5
152,300,1829,2,0,B|76:320|76:320|56:280|56:280|96:280,1,148.75
152,300,2535,6,0,P|252:224|136:144,1,297.5
172,220,3947,6,0,B|212:232|212:232|260:212,1,85
284,136,4476,1,0,0:0:0:0:
284,136,4829,5,0,0:0:0:0:
304,220,5006,1,0,0:0:0:0:
324,304,5182,1,0,0:0:0:0:
336,312,5271,1,0,0:0:0:0:
348,320,5359,2,0,B|376:304|384:268|384:268|416:236|416:236|408:192|420:156|420:156|452:176|456:224,1,255
453,207,6771,6,0,L|444:152,1,42.5
368,64,7123,2,0,L|359:119,1,42.5
264,192,7476,2,0,L|255:137,1,42.5
152,76,7829,2,0,L|143:131,1,42.5
24,160,8182,6,0,P|16:196|204:312,1,297.5
144,200,9594,6,0,L|232:220,1,85
384,76,10300,2,0,L|296:96,1,85
48,40,11006,5,0,0:0:0:0:
256,192,11359,12,0,12241,0:0:0:0:
48,40,12418,6,0,L|52:120,1,63.7500024318696
100,224,12771,1,0,0:0:0:0:
28,324,12947,1,0,0:0:0:0:
212,316,13123,2,0,L|224:268,1,31.8750012159348
312,188,13300,1,0,0:0:0:0:
316,208,13388,1,0,0:0:0:0:
320,228,13476,2,0,L|364:220,1,31.8750012159348
440,152,13653,2,0,L|396:144,1,31.8750012159348
224,88,13829,6,0,L|299:74,1,63.7500024318696
162,235,14182,2,0,L|86:221,1,63.7500024318696
220,172,14535,2,0,P|244:208|248:248,1,63.7500024318696
148,320,14888,1,0,0:0:0:0:
162,235,15065,1,0,0:0:0:0:
356,320,15241,6,0,P|376:288|380:240,1,63.7500024318696
245,114,15594,2,0,P|225:146|221:194,1,63.7500024318696
428,168,15947,2,0,B|400:112|400:112|364:100,1,95.6250036478044
384,84,16300,2,0,L|353:27,1,63.7500024318696
245,114,16653,5,0,0:0:0:0:
212,204,16829,1,0,0:0:0:0:
204,300,17006,1,0,0:0:0:0:
245,114,17182,1,0,0:0:0:0:
62,173,17359,1,0,0:0:0:0:
204,300,17535,2,0,P|261:283|333:327,1,127.500004863739
257,365,18065,5,0,0:0:0:0:
400,80,18418,1,0,0:0:0:0:
364,240,18594,1,0,0:0:0:0:
244,128,18771,1,0,0:0:0:0:
214,115,18859,1,0,0:0:0:0:
183,112,18947,1,0,0:0:0:0:
152,119,19035,1,0,0:0:0:0:
125,135,19123,2,0,L|112:192,1,31.8750012159348
204,300,19300,2,0,L|190:243,1,31.8750012159348
40,280,19476,6,0,L|24:347,1,63.7500024318696
204,300,19829,1,0,0:0:0:0:
192,208,20006,1,0,0:0:0:0:
183,112,20182,1,0,0:0:0:0:
183,112,20888,6,0,L|256:124,1,63.7500024318696
416,28,21241,2,0,L|343:39,1,63.7500024318696
408,216,21594,2,0,P|424:280|408:336,1,95.6250036478044
444,332,21947,2,0,L|364:348,1,63.7500024318696
252,208,22300,5,0,0:0:0:0:
292,280,22476,1,0,0:0:0:0:
244,348,22653,1,0,0:0:0:0:
252,208,22829,1,0,0:0:0:0:
336,96,23006,1,0,0:0:0:0:
336,96,23359,6,0,P|300:104|256:96,1,63.75
204,80,23712,6,0,L|200:152,2,63.7500024318696
88,136,24241,2,0,L|92:208,2,63.7500024318696
176,232,24771,2,0,L|172:304,1,63.7500024318696
339,295,25123,6,0,L|336:232,1,63.7500024318696
412,128,25476,1,0,0:0:0:0:
412,128,25653,2,0,L|415:64,2,63.7500024318696
284,112,26182,2,0,L|280:48,1,63.7500024318696
172,112,26535,6,0,L|168:184,2,63.7500024318696
287,175,27065,2,0,L|283:111,2,63.7500024318696
200,268,27594,1,0,0:0:0:0:
312,332,27771,1,0,0:0:0:0:
324,340,27859,1,0,0:0:0:0:
336,348,27947,6,0,L|339:284,1,63.7500024318696
464,320,28300,1,0,0:0:0:0:
464,320,28476,2,0,L|467:256,1,63.7500024318696
384,160,28829,1,0,0:0:0:0:
384,160,29006,2,0,L|380:96,1,63.7500024318696
260,140,29359,6,0,L|256:203,2,63.7500024318696
156,212,29888,2,0,L|159:275,2,63.7500024318696
92,100,30418,2,0,L|95:36,1,63.7500024318696
20,140,30771,6,0,L|23:203,1,63.7500024318696
84,316,31123,1,0,0:0:0:0:
84,316,31300,2,0,L|87:252,2,63.7500024318696
200,260,31829,2,0,L|196:196,1,63.7500024318696
304,72,32182,6,0,L|300:135,1,63.7500024318696
340,292,32535,2,0,L|343:228,1,63.7500024318696
296,72,32888,2,0,L|299:135,1,63.7500024318696
347,292,33241,2,0,L|343:228,1,63.7500024318696
216,132,33594,5,0,0:0:0:0:
380,152,33771,1,0,0:0:0:0:
164,196,33947,1,0,0:0:0:0:
416,232,34123,1,0,0:0:0:0:
256,348,34300,1,0,0:0:0:0:
299,135,34476,1,0,0:0:0:0:
348,292,34653,1,0,0:0:0:0:
180,60,34829,1,0,0:0:0:0:
40,348,35006,6,0,P|24:288|32:220,1,118.999996368408,0|0,3:0|0:0,0:0:0:0:
159,117,35359,1,8,0:0:0:0:
120,312,35535,1,0,3:0:0:0:
257,149,35712,2,0,P|261:208|245:265,1,118.999996368408,0|0,0:0|3:0,0:0:0:0:
159,44,36065,1,8,0:0:0:0:
366,130,36241,1,0,0:0:0:0:
402,336,36418,6,0,P|458:332|517:290,1,118.999996368408,0|0,3:0|0:0,0:0:0:0:
442,73,36771,2,0,P|389:45|328:46,1,118.999996368408,8|0,0:0|3:0,0:0:0:0:
243,233,37123,1,0,0:0:0:0:
200,53,37300,1,0,3:0:0:0:
367,142,37476,1,8,0:0:0:0:
100,105,37653,1,0,0:0:0:0:
80,329,37829,6,0,P|68:267|75:206,1,118.999996368408,0|0,3:0|0:0,0:0:0:0:
279,161,38182,1,8,0:0:0:0:
128,29,38359,1,0,0:0:0:0:
171,186,38535,1,0,0:0:0:0:
331,45,38712,1,0,3:0:0:0:
436,236,38888,2,0,L|428:362,1,118.999996368408,8|0,0:0|0:0,0:0:0:0:
193,262,39241,6,0,P|128:251|86:183,1,118.999996368408,0|0,3:0|0:0,0:0:0:0:
339,141,39594,1,8,0:0:0:0:
209,340,39771,1,0,3:0:0:0:
68,141,39947,1,0,0:0:0:0:
262,234,40123,1,0,3:0:0:0:
470,142,40300,2,0,P|462:80|467:10,1,118.999996368408,8|0,0:0|3:0,0:0:0:0:
388,176,40565,1,0,0:0:0:0:
402,206,40653,6,0,P|404:263|393:330,1,118.999996368408,0|0,3:0|0:0,0:0:0:0:
342,94,41006,1,8,0:0:0:0:
494,275,41182,1,0,3:0:0:0:
231,251,41359,2,0,P|165:242|98:219,1,118.999996368408,0|0,0:0|3:0,0:0:0:0:
9,99,41712,1,8,0:0:0:0:
197,110,41888,2,0,P|246:103|266:93,1,59.4999981842042
338,6,42065,6,0,P|420:45|444:115,1,118.999996368408,0|0,3:0|0:0,0:0:0:0:
385,291,42418,1,8,0:0:0:0:
458,139,42594,1,0,3:0:0:0:
187,279,42771,2,0,P|254:266|306:272,1,118.999996368408,0|0,0:0|3:0,0:0:0:0:
116,358,43123,2,0,P|56:363|0:350,1,118.999996368408,8|0,0:0|0:0,0:0:0:0:
118,63,43476,6,0,B|133:119|102:128|120:183,1,118.999996368408,0|0,3:0|0:0,0:0:0:0:
199,31,43829,1,8,0:0:0:0:
30,183,44006,1,0,3:0:0:0:
218,293,44182,1,0,0:0:0:0:
118,63,44359,1,0,3:0:0:0:
124,241,44535,1,8,0:0:0:0:
320,153,44712,1,0,0:0:0:0:
467,363,44888,6,0,L|474:208,1,118.999996368408,0|0,3:0|0:0,0:0:0:0:
381,76,45241,1,8,0:0:0:0:
387,289,45418,1,0,3:0:0:0:
486,58,45594,1,0,0:0:0:0:
290,236,45771,1,0,3:0:0:0:
228,52,45947,1,8,0:0:0:0:
49,131,46123,2,0,P|44:163|31:188,1,59.4999981842042,0|0,3:0|0:0,0:0:0:0:
43,295,46300,6,0,P|76:347|147:367,1,118.999996368408,0|0,3:0|0:0,0:0:0:0:
393,261,46653,1,8,0:0:0:0:
102,215,46829,1,0,0:0:0:0:
314,163,47006,1,0,0:0:0:0:
206,308,47182,1,0,3:0:0:0:
171,88,47359,2,0,L|20:70,1,118.999996368408,8|0,0:0|0:0,0:0:0:0:
240,32,47623,1,0,0:0:0:0:
266,49,47712,6,0,L|417:31,1,118.999996368408,0|0,3:0|0:0,0:0:0:0:
356,232,48065,1,8,0:0:0:0:
240,126,48241,1,0,0:0:0:0:
491,154,48418,2,0,P|487:221|472:277,1,118.999996368408,0|0,0:0|3:0,0:0:0:0:
200,302,48771,2,0,P|132:317|73:350,1,118.999996368408,8|0,0:0|0:0,0:0:0:0:
30,214,49035,1,0,0:0:0:0:
19,177,49123,6,0,P|23:110|38:54,1,118.999996368408,0|0,3:0|0:0,0:0:0:0:
336,48,49476,2,0,B|395:35|436:54|436:54|418:61,2,118.999996368408,8|0|0,0:0|0:0|3:0,0:0:0:0:
497,165,50006,2,0,B|478:222|441:248|441:248|446:228,2,118.999996368408,0|8|0,3:0|0:0|0:0,0:0:0:0:
256,257,50535,5,0,3:0:0:0:
100,116,50712,1,0,3:1:0:0:
188,361,50888,1,8,3:1:0:0:
222,140,51065,1,0,3:1:0:0:
2,208,51241,1,0,3:1:0:0:
182,22,51418,1,0,3:1:0:0:
256,257,51594,1,8,3:1:0:0:
100,116,51771,1,0,3:1:0:0:
342,115,51947,6,0,L|483:123,1,118.999996368408,0|0,3:0|0:0,0:0:0:0:
256,257,52300,2,0,L|115:265,1,118.999996368408,8|0,0:0|3:0,0:0:0:0:
313,344,52653,1,0,0:0:0:0:
458,200,52829,1,0,3:0:0:0:
258,108,53006,1,8,0:0:0:0:
384,277,53182,1,0,0:0:0:0:
472,39,53359,6,0,L|463:157,1,118.999996368408,0|0,3:0|0:0,0:0:0:0:
197,42,53712,2,0,P|257:25|328:48,1,118.999996368408,8|0,0:0|3:0,0:0:0:0:
256,242,54065,1,0,0:0:0:0:
94,107,54241,1,0,3:0:0:0:
313,141,54418,1,8,0:0:0:0:
207,331,54594,1,0,0:0:0:0:
7,198,54771,6,0,P|80:183|137:196,1,118.999996368408,0|0,3:0|0:0,0:0:0:0:
322,323,55123,2,0,P|249:338|192:325,1,118.999996368408,8|0,0:0|3:0,0:0:0:0:
278,116,55476,1,0,0:0:0:0:
451,279,55653,2,0,P|464:240|487:219,1,59.4999981842042,0|0,3:0|0:0,0:0:0:0:
480,108,55829,2,0,P|434:41|356:24,1,118.999996368408,8|0,0:0|0:0,0:0:0:0:
183,262,56182,6,0,B|189:322|165:361|165:361|160:341,2,118.999996368408,0|0|8,3:0|0:0|0:0,0:0:0:0:
157,22,56712,5,0,3:0:0:0:
67,236,56888,1,0,0:0:0:0:
297,207,57065,1,0,3:0:0:0:
112,131,57241,1,8,0:0:0:0:
270,8,57418,1,0,3:0:0:0:
381,193,57594,5,0,0:0:0:0:
211,332,61829,6,0,P|229:338|249:341,2,40.0000016748905
229,330,62182,2,0,P|248:334|268:333,2,40.0000016748905
394,228,62535,6,0,P|375:220|355:217,2,40.0000016748905
375,228,62888,2,0,P|355:223|335:224,2,39.6666654561361
138,311,63241,5,0,0:0:0:0:
138,311,63771,1,0,0:0:0:0:
138,311,63947,2,0,B|152:240,1,68
252,364,64300,2,0,B|238:293,1,68
308,140,64653,2,0,P|340:152|372:196,1,68
292,228,65006,1,0,0:0:0:0:
224,172,65182,1,0,0:0:0:0:
184,92,65359,2,0,B|168:64|176:20|176:20|216:32|196:72,1,136
144,208,65888,1,0,0:0:0:0:
140,216,65976,1,0,0:0:0:0:
136,224,66065,6,0,B|112:152|112:152|80:228,1,136
42,255,66594,2,0,P|70:235|90:203,1,68
8,172,66947,2,0,P|0:132|4:96,2,68
42,255,67476,5,0,0:0:0:0:
16,360,67653,1,0,0:0:0:0:
16,360,67741,1,0,0:0:0:0:
16,360,67829,1,0,0:0:0:0:
124,268,68006,1,0,0:0:0:0:
96,344,68182,2,0,P|132:348|168:336,1,68
248,192,68535,2,0,P|280:183|320:188,1,68
452,288,68888,6,0,B|412:320|368:324|368:324|356:356|400:352,1,136
288,264,69418,1,0,0:0:0:0:
288,264,69594,2,0,P|264:272|200:264,1,68
208,120,69947,2,0,P|232:112|296:120,1,68
156,200,70300,6,0,P|128:176|116:136,2,68
208,120,70829,1,0,0:0:0:0:
208,120,71006,2,0,P|164:60|96:52,1,136
36,204,71535,1,0,0:0:0:0:
36,204,71712,6,0,L|176:232,1,136
324,164,72241,1,0,0:0:0:0:
324,164,72329,1,0,0:0:0:0:
324,164,72418,2,0,B|348:228|348:228|328:292,1,136
256,232,72947,1,0,0:0:0:0:
256,232,73123,6,0,B|232:168|232:168|252:104,1,136
424,44,73653,1,0,0:0:0:0:
408,144,73829,1,0,0:0:0:0:
428,244,74006,2,0,P|380:284|384:372,1,136
451,325,74535,6,0,L|427:241,1,85
257,316,74888,2,0,L|255:228,1,85
392,36,75241,1,0,0:0:0:0:
406,75,75329,1,0,0:0:0:0:
406,118,75417,1,0,0:0:0:0:
391,157,75505,1,0,0:0:0:0:
364,190,75594,2,0,L|308:176,1,42.5
392,36,75771,2,0,L|448:50,1,42.5
360,196,75947,6,0,L|261:170,2,85
468,192,76476,1,0,0:0:0:0:
292,100,76653,1,0,0:0:0:0:
300,92,77006,2,0,L|208:72,1,85
112,16,77359,6,0,P|96:84|128:144,1,127.5
164,200,77712,2,0,P|187:258|170:318,1,127.5
128,384,78065,1,0,0:0:0:0:
92,264,78241,2,0,P|152:260|200:284,1,85
36,348,78594,1,0,0:0:0:0:
36,348,78771,6,0,B|0:272|0:272|24:184,1,170
120,48,79300,1,0,0:0:0:0:
174,115,79476,1,0,0:0:0:0:
163,199,79653,2,0,P|224:196|280:296,1,170
200,276,80182,6,0,P|216:228|276:200,1,85
362,280,80535,2,0,P|312:290|258:252,1,85
416,176,80888,1,0,0:0:0:0:
434,138,80976,1,0,0:0:0:0:
433,96,81064,1,0,0:0:0:0:
412,59,81152,1,0,0:0:0:0:
377,35,81241,2,0,L|320:24,1,42.5
416,176,81418,2,0,L|473:187,1,42.5
372,28,81594,6,0,L|284:10,2,85
280,176,82123,1,0,0:0:0:0:
276,204,82212,1,0,0:0:0:0:
276,232,82300,2,0,P|276:280|248:324,2,85
200,256,82829,1,0,0:0:0:0:
364,308,83006,6,0,B|444:280|444:280|400:264,1,127.5
360,192,83359,2,0,P|352:144|420:72,1,127.5
436,156,83712,1,0,0:0:0:0:
336,204,83888,2,0,P|324:156|340:104,1,85
444,160,84241,1,0,0:0:0:0:
444,160,84418,6,0,B|449:199|441:216|441:216|449:232|449:232|441:252|441:252|444:277,1,85
265,242,84771,2,0,B|273:233|273:233|294:230|294:230|305:214|305:214|324:213|335:203,1,85
420,344,85123,2,0,B|292:360|292:360|336:320,1,170
322,332,85829,5,0,0:0:0:0:
291,321,85917,1,0,0:0:0:0:
260,315,86005,1,0,0:0:0:0:
228,313,86093,1,0,0:0:0:0:
197,316,86181,1,0,0:0:0:0:
166,323,86270,1,0,0:0:0:0:
136,335,86358,1,0,0:0:0:0:
108,350,86446,1,0,0:0:0:0:
82,369,86534,5,0,0:0:0:0:
68,341,86623,1,0,0:0:0:0:
60,310,86711,1,0,0:0:0:0:
58,278,86799,1,0,0:0:0:0:
62,247,86887,1,0,0:0:0:0:
73,217,86976,1,0,0:0:0:0:
76,185,87064,1,0,0:0:0:0:
71,154,87152,1,0,0:0:0:0:
58,124,87240,5,0,0:0:0:0:
81,132,87329,1,0,0:0:0:0:
105,136,87417,1,0,0:0:0:0:
128,136,87505,1,0,0:0:0:0:
152,132,87593,1,0,0:0:0:0:
175,124,87682,1,0,0:0:0:0:
196,113,87770,1,0,0:0:0:0:
215,99,87858,1,0,0:0:0:0:
231,81,87947,5,0,0:0:0:0:
232,50,88035,1,0,0:0:0:0:
216,23,88123,1,0,0:0:0:0:
188,9,88211,1,0,0:0:0:0:
156,13,88299,1,0,0:0:0:0:
132,33,88388,1,0,0:0:0:0:
123,63,88476,1,0,0:0:0:0:
131,93,88564,1,0,0:0:0:0:
154,114,88652,5,0,0:0:0:0:
170,132,88741,1,0,0:0:0:0:
182,152,88829,1,0,0:0:0:0:
191,175,88917,1,0,0:0:0:0:
197,198,89005,1,0,0:0:0:0:
198,222,89094,1,0,0:0:0:0:
196,245,89182,1,0,0:0:0:0:
190,268,89270,1,0,0:0:0:0:
181,290,89359,6,0,L|172:336,3,31.8750012159348
257,355,89712,2,0,L|256:324,3,31.8750012159348
344,320,90065,5,0,0:0:0:0:
359,337,90153,1,0,0:0:0:0:
381,347,90241,1,0,0:0:0:0:
405,347,90329,1,0,0:0:0:0:
426,336,90417,1,0,0:0:0:0:
441,318,90506,1,0,0:0:0:0:
447,295,90594,1,0,0:0:0:0:
443,272,90682,1,0,0:0:0:0:
429,252,90771,5,0,0:0:0:0:
416,223,90859,1,0,0:0:0:0:
409,192,90947,1,0,0:0:0:0:
407,161,91035,1,0,0:0:0:0:
411,129,91123,1,0,0:0:0:0:
420,99,91212,1,0,0:0:0:0:
436,71,91300,1,0,0:0:0:0:
456,46,91388,1,0,0:0:0:0:
480,25,91476,6,0,L|408:40,1,42.5
369,137,91653,2,0,L|441:122,1,42.5
469,21,91829,2,0,L|398:41,1,42.5
379,140,92006,2,0,L|450:120,1,42.5
458,18,92182,2,0,L|390:45,1,42.5
390,143,92359,2,0,L|458:116,1,42.5
448,17,92535,2,0,L|381:49,1,42.5
400,144,92712,2,0,L|467:112,1,42.5
240,44,92888,6,0,L|232:88,1,42.5
300,220,93065,2,0,L|303:177,1,42.5
241,52,93241,2,0,L|236:96,1,42.5
298,211,93418,2,0,L|297:168,1,42.5
80,40,93594,6,0,L|28:52,1,42.5
112,204,93771,2,0,L|164:192,1,42.5
69,44,93947,2,0,L|19:60,1,42.5
122,199,94123,2,0,L|172:183,1,42.5
56,48,94300,5,0,0:0:0:0:
50,79,94388,1,0,0:0:0:0:
45,110,94476,1,0,0:0:0:0:
39,142,94564,1,0,0:0:0:0:
34,173,94653,1,0,0:0:0:0:
56,209,94741,1,0,0:0:0:0:
64,251,94829,1,0,0:0:0:0:
56,292,94917,1,0,0:0:0:0:
33,328,95006,5,0,0:0:0:0:
74,320,95094,1,0,0:0:0:0:
117,320,95182,1,0,0:0:0:0:
158,328,95270,1,0,0:0:0:0:
200,338,95358,1,0,0:0:0:0:
241,348,95447,1,0,0:0:0:0:
283,355,95535,1,0,0:0:0:0:
325,355,95623,1,0,0:0:0:0:
366,346,95711,5,0,0:0:0:0:
415,305,95800,1,0,0:0:0:0:
440,247,95888,1,0,0:0:0:0:
438,184,95976,1,0,0:0:0:0:
408,128,96064,1,0,0:0:0:0:
357,91,96153,1,0,0:0:0:0:
295,80,96241,1,0,0:0:0:0:
234,97,96329,1,0,0:0:0:0:
187,139,96418,6,0,P|200:88|196:56,1,85
188,140,97123,6,0,B|160:168|160:208|160:208|124:240|124:240|136:260|172:256,1,165.749992412568
416,324,97476,2,0,B|391:338|347:330|347:330|380:318,1,85
240,200,97653,2,0,B|260:180|304:176|304:176|276:196,1,85
480,88,97829,2,0,B|436:104|400:84|400:84|384:112|384:112|356:104|332:112|332:112|324:88|304:72|304:72|268:88|280:124,1,255
240,200,98182,2,0,L|224:240,6,31.8750012159348
264,300,98535,6,0,B|300:324|300:324|256:344,1,85
112,300,98712,2,0,B|76:276|76:276|120:256,1,85
104,320,98888,2,0,B|32:276|32:276|112:236,1,170
264,300,99153,1,0,0:0:0:0:
264,300,99241,6,0,P|300:288|244:280,1,148.75
240,288,99947,6,0,B|272:280|296:256|296:256|324:252|324:252|336:224|364:224|364:224|356:248,1,165.749992412568
436,344,100300,2,0,B|468:316|468:316|480:264,1,85
344,64,100476,2,0,P|316:108|316:168,1,85
464,148,100653,2,0,B|424:120|376:128|376:128|340:104|340:104|304:104|276:80|276:80|252:88|252:88|280:108,1,255
400,212,101006,2,0,L|440:240,6,31.8750012159348
316,232,101359,6,0,B|252:248|252:248|272:220,1,85
224,112,101535,2,0,B|158:123|158:123|187:140,1,85
156,260,101712,2,0,B|124:260|100:280|100:280|64:276|64:276|44:296|20:296|20:296|0:272|4:240|28:220|60:224|52:256,1,255
92,372,102065,5,0,0:0:0:0:
170,338,102153,1,0,0:0:0:0:
253,324,102241,1,0,0:0:0:0:
338,330,102329,1,0,0:0:0:0:
419,355,102418,1,0,0:0:0:0:
482,302,102506,1,0,0:0:0:0:
488,220,102594,1,0,0:0:0:0:
433,158,102682,1,0,0:0:0:0:
350,155,102771,2,0,B|320:156|292:172|292:172|240:192|200:156|200:156|187:186|232:208,1,223.125008511544
256,97,103476,5,0,0:0:0:0:
327,40,103594,1,0,0:0:0:0:
340,129,103711,1,0,0:0:0:0:
260,83,103829,5,0,0:0:0:0:
335,50,103947,1,0,0:0:0:0:
326,131,104065,1,0,0:0:0:0:
268,73,104182,5,0,0:0:0:0:
339,62,104300,1,0,0:0:0:0:
314,129,104418,1,0,0:0:0:0:
277,67,104535,5,0,0:0:0:0:
340,73,104653,1,0,0:0:0:0:
303,124,104771,1,0,0:0:0:0:
308,88,104888,6,0,L|328:72,5,14.1666666666667
384,124,105241,2,0,L|407:113,5,14.1666666666667
460,164,105594,6,0,B|444:204|452:236|452:236|436:264|436:264|432:284|440:300,1,127.5
364,344,106300,6,0,L|328:340,1,21.25
260,244,106476,2,0,L|296:248,1,21.25
196,284,106653,1,0,0:0:0:0:
186,264,106741,1,0,0:0:0:0:
183,244,106829,1,0,0:0:0:0:
187,223,106917,1,0,0:0:0:0:
196,204,107005,1,0,0:0:0:0:
205,184,107094,1,0,0:0:0:0:
207,163,107182,1,0,0:0:0:0:
205,142,107271,2,0,P|200:120|204:104,1,21.25
260,244,107447,5,0,0:0:0:0:
269,262,107535,1,0,0:0:0:0:
272,283,107623,1,0,0:0:0:0:
269,304,107712,2,0,P|260:348|280:384,1,85
368,56,108418,6,0,B|394:110|378:150|378:150|422:158|418:110,1,165.749992412568
288,116,108771,2,0,B|245:111|245:111|208:87,1,85
8,156,108947,2,0,B|50:160|50:160|87:184,1,85
200,360,109123,2,0,B|144:348|128:308|128:308|80:328|80:276|80:276|64:248|0:268|48:308,1,255
204,276,109476,2,0,L|248:268,6,31.8750012159348
332,292,109829,6,0,B|372:304|372:304|408:336,1,85
404,135,110006,2,0,B|372:164|372:164|332:176,1,85
452,136,110182,2,0,B|387:193|387:193|307:217,1,170
312,44,110447,1,0,0:0:0:0:
312,44,110535,6,0,P|352:64|292:64,1,148.75
280,56,111241,6,0,B|220:36|172:68|172:68|176:88|220:92,1,165.749992412568
412,40,111594,2,0,B|404:84|404:84|416:132,1,85
456,320,111771,2,0,P|440:288|432:316,1,85
478,213,111947,2,0,P|362:253|370:371,1,255
446,306,112300,2,0,L|467:337,6,31.8750012159348
478,213,112653,6,0,P|456:180|460:220,1,85
332,360,112829,2,0,P|354:393|350:353,1,85
296,148,113006,2,0,P|204:108|154:238,1,255
223,190,113359,6,0,P|186:150|142:139,1,85
160,336,113535,1,0,0:0:0:0:
243,345,113623,1,0,0:0:0:0:
323,317,113711,1,0,0:0:0:0:
383,258,113799,1,0,0:0:0:0:
412,179,113887,1,0,0:0:0:0:
405,95,113976,1,0,0:0:0:0:
362,22,114065,6,0,P|446:62|382:90,1,191.250007295609
180,68,114771,5,0,0:0:0:0:
323,317,114947,1,0,0:0:0:0:
80,204,115123,5,0,0:0:0:0:
328,300,115300,1,0,0:0:0:0:
136,356,115476,5,0,0:0:0:0:
168,56,115653,1,0,0:0:0:0:
332,280,115829,5,0,0:0:0:0:
64,200,116006,1,0,0:0:0:0:
324,64,116182,5,0,0:0:0:0:
224,292,116359,1,0,0:0:0:0:
156,44,116535,5,0,0:0:0:0:
336,260,116712,1,0,0:0:0:0:
476,32,116888,6,0,B|480:72|464:104|464:104|476:132|476:132|468:156|472:160,1,127.5
480,328,117594,5,0,0:0:0:0:
328,116,117771,1,0,0:0:0:0:
192,328,117947,5,0,0:0:0:0:
416,192,118123,1,0,0:0:0:0:
96,132,118300,5,0,0:0:0:0:
352,284,118476,1,0,0:0:0:0:
228,32,118653,5,0,0:0:0:0:
344,300,118829,1,0,0:0:0:0:
404,60,119006,5,0,0:0:0:0:
88,144,119182,1,0,0:0:0:0:
424,208,119359,5,0,0:0:0:0:
212,40,119535,1,0,0:0:0:0:
256,344,119712,5,0,0:0:0:0:
110,169,120241,1,0,0:0:0:0:
44,226,120417,2,0,B|42:294,1,68,8|0,0:0|0:0,0:0:0:0:
180,111,120771,2,0,B|182:43,1,68
312,258,121123,6,0,P|351:258|394:244,1,68
333,171,121476,1,0,0:0:0:0:
291,343,121653,1,0,0:0:0:0:
127,288,121829,2,0,P|76:286|26:349,1,136,8|0,0:0|0:0,0:0:0:0:
192,329,122358,1,0,0:0:0:0:
206,291,122446,1,0,0:0:0:0:
199,250,122535,6,0,P|170:204|137:183,2,68
38,160,123065,2,0,P|34:194|41:232,1,68,0|8,0:0|0:0,0:0:0:0:
162,121,123418,2,0,P|166:87|159:49,2,68
44,253,123946,5,0,0:0:0:0:
162,121,124123,1,0,0:0:0:0:
202,116,124211,1,0,0:0:0:0:
242,118,124299,1,0,0:0:0:0:
410,147,124476,1,0,0:0:0:0:
420,291,124653,2,0,L|425:365,1,68,8|0,0:0|0:0,0:0:0:0:
289,221,125005,2,0,P|321:214|361:217,1,68
218,339,125359,6,0,P|184:341|151:333,2,68
194,240,125888,1,0,0:0:0:0:
194,240,126064,2,0,P|188:206|188:167,1,68,8|0,0:0|0:0,0:0:0:0:
277,39,126418,2,0,P|276:72|270:106,1,68
104,207,126770,6,0,P|76:183|38:179,2,68
42,262,127299,1,0,0:0:0:0:
42,262,127476,2,0,P|87:290|178:243,1,136,8|0,0:0|0:0,0:0:0:0:
234,132,128005,1,0,0:0:0:0:
409,69,128182,6,0,L|402:154,1,68
239,199,128535,2,0,L|232:114,1,68
226,54,128799,1,0,0:0:0:0:
226,54,128888,2,0,P|167:90|160:155,1,136,8|0,0:0|0:0,0:0:0:0:
246,281,129417,1,0,0:0:0:0:
246,281,129594,6,0,B|314:250|315:319|400:269,1,136
152,318,130123,1,0,0:0:0:0:
183,155,130299,1,8,0:0:0:0:
345,204,130476,2,0,P|407:183|465:119,1,136
167,204,131005,6,0,P|119:191|79:163,1,68
113,34,131359,2,0,P|161:47|201:75,1,68
259,203,131711,1,8,0:0:0:0:
253,236,131799,1,0,0:0:0:0:
236,265,131887,1,0,0:0:0:0:
208,285,131975,1,0,0:0:0:0:
174,294,132064,2,0,L|176:348,1,34
337,300,132241,2,0,L|341:236,1,34
167,204,132418,6,0,L|163:117,2,68
344,193,132946,1,0,0:0:0:0:
178,363,133123,1,8,0:0:0:0:
118,134,133476,2,0,L|122:61,1,68
206,190,133829,6,0,P|153:230|96:231,1,102
31,188,134182,2,0,P|69:222|118:233,1,102
264,235,134535,1,8,0:0:0:0:
157,364,134712,2,0,P|128:319|124:282,1,68
278,162,135064,1,0,0:0:0:0:
278,162,135241,6,0,P|266:109|183:85,1,136
42,115,135770,1,0,0:0:0:0:
153,18,135946,1,8,0:0:0:0:
37,134,136123,2,0,B|24:168|24:168|61:285,1,136
195,351,136652,6,0,L|262:345,1,68
366,224,137006,2,0,L|433:230,1,68
314,285,137358,1,8,0:0:0:0:
293,258,137446,1,0,0:0:0:0:
285,224,137534,1,0,0:0:0:0:
292,191,137622,1,0,0:0:0:0:
311,162,137711,2,0,L|360:125,1,34
323,37,137888,2,0,L|274:74,1,34
167,140,138065,6,0,P|128:149|86:146,2,68
44,214,138593,1,0,0:0:0:0:
21,188,138682,1,0,0:0:0:0:
14,154,138770,2,0,P|24:104|54:76,2,68,8|0|0,0:0|0:0|0:0,0:0:0:0:
81,233,139299,1,0,0:0:0:0:
283,321,139476,6,0,P|331:287|380:292,1,102
419,206,139829,2,0,P|381:238|372:288,1,102
456,283,140182,1,8,0:0:0:0:
283,321,140358,2,0,P|273:270|278:229,1,68
286,107,140711,1,0,0:0:0:0:
420,56,140888,6,0,L|511:51,1,68
323,180,141241,2,0,L|232:185,1,68
435,248,141594,2,0,P|462:190|427:110,1,136,8|0,0:0|0:0,0:0:0:0:
256,320,142300,6,0,B|248:296|232:284|232:284|240:256|208:252|208:252|224:200|184:156,1,165.749992412568
56,336,142653,2,0,B|84:356|124:360|124:360|108:376,1,85
132,228,142829,2,0,B|104:208|64:204|64:204|80:188,1,85
256,320,143006,2,8,B|272:301|275:281|275:281|303:274|290:244|290:244|356:232|392:176|356:112,1,255,0|0,0:0|0:0,0:0:0:0:
288,160,143359,2,0,P|252:164|236:160,6,31.8750012159348
168,124,143712,6,0,P|148:96|180:108,1,85
132,228,143888,2,0,P|98:231|120:206,1,85
148,232,144065,2,0,P|81:239|125:188,1,170
244,312,144329,1,0,0:0:0:0:
256,320,144418,6,0,B|292:316|320:272|320:272|336:308|320:352,1,148.75
244,312,145123,6,0,B|200:296|176:248|192:188|236:204|248:224|244:236,1,165.749992412568
156,336,145476,2,0,P|132:296|128:232,1,85
234,153,145653,2,0,P|246:197|234:260,1,85
96,140,145829,2,0,P|148:40|288:20,1,255
328,84,146182,2,0,P|360:112|372:116,6,31.8750012159348
444,136,146535,6,0,B|444:160|456:176|456:176|444:196|444:216,1,85
308,336,146712,2,0,B|308:312|296:296|296:296|308:276|308:256,1,85
416,296,146888,2,0,L|136:300,1,255
108,232,147241,6,0,L|120:240,1,10.625
107,152,147418,2,0,L|114:165,1,10.625
147,83,147594,2,0,L|146:98,1,10.625
215,44,147771,2,0,L|208:56,1,10.625
108,232,147947,6,0,P|124:112|224:44,1,240.975005883179
295,43,148653,5,0,0:0:0:0:
277,123,148770,1,0,0:0:0:0:
331,186,148888,1,0,0:0:0:0:
412,180,149006,5,0,0:0:0:0:
367,111,149123,1,0,0:0:0:0:
284,117,149241,1,0,0:0:0:0:
249,191,149358,1,0,0:0:0:0:
284,266,149476,1,0,0:0:0:0:
367,272,149594,1,0,0:0:0:0:
412,203,149712,5,0,0:0:0:0:
331,197,149830,1,0,0:0:0:0:
277,260,149948,1,0,0:0:0:0:
295,340,150065,6,0,L|271:335,5,14.1666666666667
201,362,150418,2,0,L|176:367,5,14.1666666666667
105,347,150771,6,0,B|107:320|97:303|97:303|98:276|98:276|88:251|88:251|118:239|118:239|113:268,1,148.75
68,180,151476,6,0,L|100:168,1,21.25
220,64,151653,2,0,L|198:90,1,21.25
280,184,151829,1,0,0:0:0:0:
297,196,151917,1,0,0:0:0:0:
310,213,152005,1,0,0:0:0:0:
318,232,152093,1,0,0:0:0:0:
322,253,152181,1,0,0:0:0:0:
320,274,152270,1,0,0:0:0:0:
312,294,152358,1,0,0:0:0:0:
300,311,152447,2,0,P|296:324|296:344,1,21.25
240,256,152623,5,0,0:0:0:0:
220,246,152711,1,0,0:0:0:0:
200,242,152799,1,0,0:0:0:0:
179,243,152888,2,0,P|168:216|196:240,1,85
179,243,153594,6,0,B|148:208|156:168|156:168|112:144|112:84,1,165.749992412568
313,208,153947,2,0,B|272:208|272:208|236:184,1,85
256,384,154123,2,0,B|219:363|219:363|200:324,1,85
384,300,154300,6,0,P|424:236|328:92,1,255
313,208,154653,2,0,P|309:232|313:248,6,31.8750012159348
384,300,155006,6,0,P|340:332|300:336,1,85
176,180,155182,2,0,B|184:137|184:137|207:174,1,85
160,187,155359,2,0,B|144:147|144:147|181:124|181:124|223:133|223:133|223:175,1,170
168,312,155623,1,0,0:0:0:0:
156,324,155712,6,0,P|108:320|160:296,1,148.75
168,312,156418,6,0,B|84:296|84:296|124:220,1,165.749992412568
308,353,156771,2,0,B|272:372|272:372|228:364,1,85
320,171,156947,2,0,B|298:204|298:204|256:220,1,85
235,9,157123,2,0,B|231:51|231:51|203:83|203:83|224:124|220:168|172:228|100:200,1,255
132,124,157476,2,0,P|128:104|120:88,6,31.8750012159348
64,164,157829,6,0,B|52:208|52:208|64:248,1,85
220,360,158006,2,0,B|232:316|232:316|220:276,1,85
132,316,158182,2,0,L|404:312,1,255
420,236,158535,6,0,L|408:248,1,10.625
420,148,158712,2,0,L|415:164,1,10.625
376,71,158888,2,0,L|380:88,1,10.625
299,28,159065,2,0,L|312:40,1,10.625
420,236,159241,6,0,B|408:276|420:304|420:304|404:328|404:328|388:320|388:304,1,127.5
212,27,159947,5,0,0:0:0:0:
176,320,160123,1,0,0:0:0:0:
64,84,160300,5,0,0:0:0:0:
316,256,160476,1,0,0:0:0:0:
32,272,160653,5,0,0:0:0:0:
220,16,160829,1,0,0:0:0:0:
328,272,161006,5,0,0:0:0:0:
76,100,161182,1,0,0:0:0:0:
376,72,161359,5,0,0:0:0:0:
168,328,161535,1,0,0:0:0:0:
228,4,161712,5,0,0:0:0:0:
340,288,161888,1,0,0:0:0:0:
32,272,162065,6,0,B|24:248|36:224|36:224|28:192|28:192|40:172|36:144,1,127.5
336,72,162771,5,0,0:0:0:0:
160,340,162947,1,0,0:0:0:0:
124,60,163123,5,0,0:0:0:0:
368,208,163300,1,0,0:0:0:0:
20,276,163476,5,0,0:0:0:0:
284,308,163653,1,0,0:0:0:0:
120,48,163829,5,0,0:0:0:0:
156,328,164006,1,0,0:0:0:0:
380,200,164182,5,0,0:0:0:0:
36,148,164359,1,0,0:0:0:0:
340,64,164535,5,0,0:0:0:0:
8,280,164712,1,0,0:0:0:0:
288,335,164888,6,0,L|284:308,1,27.6249987354279
250,338,164976,2,0,L|253:311,1,27.6249987354279
212,332,165065,2,0,L|222:306,1,27.6249987354279
178,316,165153,2,0,L|193:293,1,27.6249987354279
148,292,165241,2,0,L|169:274,1,27.6249987354279
126,260,165329,2,0,L|151:249,1,27.6249987354279
112,224,165418,2,0,L|140:219,1,27.6249987354279
109,186,165506,2,0,L|136:189,1,27.6249987354279
115,148,165594,6,0,P|164:152|208:44,1,165.749992412568
144,80,165947,2,0,P|128:76|96:56,6,31.8750012159348
44,36,166300,6,0,P|28:80|32:128,1,85
148,292,166476,2,0,P|160:256|124:268,1,85
196,356,166653,2,0,P|240:300|216:204,1,170
99,355,166918,1,0,0:0:0:0:
83,342,167006,6,0,P|60:312|52:272,1,63.75
203,364,167359,6,0,P|234:334|250:295,1,85
45,291,167535,2,0,P|61:330|92:360,1,85
148,292,167712,6,0,B|136:256|156:212|156:212|140:188|140:188|160:160|156:88,1,165.749992412568
320,283,168065,2,0,P|278:282|240:264,1,85
392,120,168241,2,0,P|354:139|312:143,1,85
424,232,168418,2,0,B|460:256|460:256|316:332|316:332|320:284,1,255
456,340,168771,6,0,L|396:372,1,63.75
424,232,169123,5,0,0:0:0:0:
388,160,169241,1,0,0:0:0:0:
468,164,169359,1,0,0:0:0:0:
438,241,169476,5,0,0:0:0:0:
372,167,169594,1,0,0:0:0:0:
468,147,169712,1,0,0:0:0:0:
456,248,169829,6,0,P|429:238|407:221,1,56.6666666666667
368,258,169947,2,0,P|384:280|408:297,1,56.6666666666667
351,334,170065,2,0,P|332:312|322:286,1,56.6666666666667
269,301,170182,2,0,P|272:329|285:355,1,56.6666666666667
217,358,170300,2,0,P|211:330|216:302,1,56.6666666666667
162,289,170418,2,0,P|151:315|149:343,1,56.6666666666667
84,328,170535,2,0,B|84:288|100:264|100:264|64:248|40:212|44:168|68:136,1,191.250007295609
297,44,171241,1,0,0:0:0:0:
287,106,171329,1,0,0:0:0:0:
251,157,171417,1,0,0:0:0:0:
195,187,171505,1,0,0:0:0:0:
132,188,171594,5,0,0:0:0:0:
193,196,171682,1,0,0:0:0:0:
237,241,171770,1,0,0:0:0:0:
244,303,171858,1,0,0:0:0:0:
211,357,171946,1,0,0:0:0:0:
152,378,172035,1,0,0:0:0:0:
93,359,172123,1,0,0:0:0:0:
57,308,172211,1,0,0:0:0:0:
61,245,172299,1,0,0:0:0:0:
71,183,172388,1,0,0:0:0:0:
66,119,172476,1,0,0:0:0:0:
45,59,172564,1,0,0:0:0:0:
10,6,172653,6,0,L|52:16,1,42.5
102,236,173006,2,0,L|60:245,1,42.5
200,112,173359,2,0,B|240:96|284:116|284:116|288:140|256:152,1,127.5
104,236,174065,2,0,L|64:252,2,28.3333333333333
189,337,174418,2,0,L|172:360,2,28.3333333333333
324,356,174771,5,0,0:0:0:0:
379,350,174888,1,0,0:0:0:0:
428,321,175006,1,0,0:0:0:0:
459,275,175123,1,0,0:0:0:0:
466,219,175241,1,0,0:0:0:0:
449,165,175359,1,0,0:0:0:0:
411,124,175476,5,0,0:0:0:0:
356,129,175593,1,0,0:0:0:0:
325,174,175711,1,0,0:0:0:0:
339,227,175829,1,0,0:0:0:0:
321,277,175946,1,0,0:0:0:0:
268,276,176064,1,0,0:0:0:0:
252,226,176182,6,0,L|244:272,1,27.6249987354279
235,219,176271,2,0,L|205:255,1,27.6249987354279
224,206,176359,2,0,L|180:221,1,27.6249987354279
221,188,176447,2,0,L|176:180,1,27.6249987354279
228,171,176535,6,0,P|236:140|236:132,2,36.8333316472372
172,100,176712,2,0,P|174:81|180:64,2,36.8333316472372
252,60,176888,6,0,P|296:84|288:192,1,165.749992412568
235,136,177241,2,0,L|208:128|180:136,6,31.8750012159348
140,176,177594,6,0,P|148:240|200:228,1,85
292,312,177771,2,0,P|320:283|309:244,1,85
352,364,177947,2,0,P|396:288|368:200,1,170
280,324,178212,1,0,0:0:0:0:
264,332,178300,6,0,B|232:336|232:336|188:316,1,63.75
292,312,178653,6,0,L|280:400,1,85
151,260,178829,2,0,L|139:172,1,85
304,120,179006,6,0,L|328:104,6,27.6249987354279
388,160,179359,2,0,P|380:204|412:272,1,85
151,260,179535,2,0,P|159:216|127:148,1,85
64,300,179712,2,0,P|129:356|248:252,1,255
124,372,180065,6,0,P|184:372|232:336,1,95.6250036478044
151,259,180418,5,0,0:0:0:0:
110,157,180535,1,0,0:0:0:0:
154,56,180653,1,0,0:0:0:0:
257,16,180770,1,0,0:0:0:0:
358,60,180888,1,0,0:0:0:0:
397,164,181006,1,0,0:0:0:0:
351,264,181123,6,0,P|328:264|292:304,1,56.6666666666667
344,209,181241,2,0,P|316:224|296:260,1,56.6666666666667
309,165,181359,2,0,P|292:196|284:228,1,56.6666666666667
256,148,181476,2,0,L|256:216,1,56.6666666666667
202,165,181594,2,0,P|217:189|226:216,1,56.6666666666667
167,209,181712,2,0,P|192:221|210:243,1,56.6666666666667
151,259,181829,6,0,P|174:258|210:298,2,63.75
352,268,182535,5,0,0:0:0:0:
410,245,182623,1,0,0:0:0:0:
444,193,182711,1,0,0:0:0:0:
440,130,182799,1,0,0:0:0:0:
400,82,182887,1,0,0:0:0:0:
339,68,182976,1,0,0:0:0:0:
281,92,183064,1,0,0:0:0:0:
250,147,183152,1,0,0:0:0:0:
256,209,183241,5,0,0:0:0:0:
262,147,183329,1,0,0:0:0:0:
231,92,183417,1,0,0:0:0:0:
173,68,183505,1,0,0:0:0:0:
112,82,183594,1,0,0:0:0:0:
72,130,183682,1,0,0:0:0:0:
68,193,183770,1,0,0:0:0:0:
102,245,183858,1,0,0:0:0:0:
160,268,183947,6,0,B|112:344|112:344|92:304,1,127.5
352,268,184653,6,0,B|328:240|336:196|336:196|320:176|324:144,1,127.5
160,268,185359,5,0,0:0:0:0:
107,251,185476,1,0,0:0:0:0:
58,277,185594,1,0,0:0:0:0:
44,330,185711,1,0,0:0:0:0:
71,378,185829,1,0,0:0:0:0:
125,391,185947,1,0,0:0:0:0:
172,362,186065,1,0,0:0:0:0:
201,314,186182,1,0,0:0:0:0:
202,258,186300,1,0,0:0:0:0:
176,208,186417,1,0,0:0:0:0:
149,158,186535,1,0,0:0:0:0:
151,102,186653,1,0,0:0:0:0:
180,54,186770,5,0,0:0:0:0:
196,48,187123,5,0,0:0:0:0:
212,46,187476,5,0,0:0:0:0:
407,176,188182,2,0,B|396:260|396:260|437:310,1,148.75
449,325,188888,2,0,B|306:367|306:367|327:209,1,297.5
236,339,190300,6,0,P|280:312|301:282,1,85
335,148,190829,1,0,0:0:0:0:
182,158,191182,5,0,0:0:0:0:
108,135,191359,1,0,0:0:0:0:
43,175,191535,1,0,0:0:0:0:
40,185,191623,1,0,0:0:0:0:
37,195,191712,6,0,B|105:214|105:214|159:278|159:278|230:242|230:242|302:252,1,297.5
267,82,193124,6,0,L|257:23,1,42.5
367,125,193476,2,0,L|357:66,1,42.5
278,206,193829,2,0,L|268:147,1,42.5
468,164,194182,2,0,L|458:105,1,42.5
204,183,194535,6,0,B|225:325|225:325|290:281|290:281|278:200,1,297.5
358,230,195947,6,0,L|371:319,1,85
425,179,196653,2,0,L|412:90,1,85
204,183,197359,5,0,0:0:0:0:
256,192,197712,12,0,198594,0:0:0:0:
321,149,198771,5,0,0:0:0:0:
317,263,199123,2,0,L|314:342,1,63.7500024318696
142,328,199476,2,0,L|84:323,1,31.8750012159348
21,270,199653,1,0,0:0:0:0:
14,238,199741,1,0,0:0:0:0:
16,206,199829,1,0,0:0:0:0:
111,111,200006,1,0,0:0:0:0:
131,246,200182,5,0,0:0:0:0:
23,121,200359,1,0,0:0:0:0:
194,100,200535,2,0,P|200:58|191:27,1,63.7500024318696
77,184,200888,1,0,0:0:0:0:
257,251,201065,1,0,0:0:0:0:
88,258,201241,1,0,0:0:0:0:
268,325,201418,1,0,0:0:0:0:
430,227,201594,6,0,L|435:137,1,63.7500024318696
355,208,201859,1,0,0:0:0:0:
353,242,201947,2,0,L|348:311,1,63.7500024318696
213,170,202300,2,0,P|178:144|132:132,1,63.7500024318696
51,177,202565,1,0,0:0:0:0:
44,206,202653,2,0,P|41:241|46:275,1,63.7500024318696
191,332,203006,6,0,L|283:328,2,63.7500024318696
289,250,203535,1,0,0:0:0:0:
401,264,203712,2,0,L|466:272,2,63.7500024318696
422,350,204241,1,0,0:0:0:0:
374,145,204418,5,0,0:0:0:0:
216,199,204771,2,0,P|212:236|223:281,1,63.7500024318696
289,122,205123,2,0,P|291:148|289:167,1,31.8750012159348
174,107,205300,1,0,0:0:0:0:
168,75,205388,1,0,0:0:0:0:
174,43,205476,1,0,0:0:0:0:
66,131,205653,1,0,0:0:0:0:
284,89,205829,5,0,0:0:0:0:
347,249,206006,1,0,0:0:0:0:
433,152,206182,1,0,0:0:0:0:
282,181,206359,1,0,0:0:0:0:
388,43,206535,1,0,0:0:0:0:
433,152,206712,1,0,0:0:0:0:
406,285,206888,2,0,L|388:376,1,63.7500024318696
294,243,207241,6,0,L|281:180,2,63.7500024318696
374,198,207771,1,0,0:0:0:0:
395,85,207947,2,0,L|406:22,2,63.7500024318696
458,156,208476,1,0,0:0:0:0:
294,64,208653,6,0,P|256:72|211:65,2,63.7500024318696
195,165,209182,1,0,0:0:0:0:
106,262,209359,2,0,P|101:302|112:337,2,63.7500024318696
302,270,210065,6,0,P|349:320|424:305,1,127.500004863739
374,247,210594,1,0,0:0:0:0:
247,220,210771,2,0,P|227:285|277:343,1,127.500004863739
302,270,211300,1,0,0:0:0:0:
263,148,211476,2,0,P|196:163|171:236,1,127.500004863739
247,220,212005,1,0,0:0:0:0:
108,143,212182,1,0,0:0:0:0:
246,53,212359,1,0,0:0:0:0:
246,53,212535,2,0,L|259:141,1,63.7500024318696
435,270,212888,6,0,L|453:140,1,127.500004863739
467,57,213418,1,0,0:0:0:0:
319,74,213594,2,0,L|331:210,1,127.500004863739
339,290,214123,1,0,0:0:0:0:
201,271,214300,2,0,L|219:141,1,127.500004863739
264,329,214829,1,0,0:0:0:0:
122,196,215006,1,0,0:0:0:0:
85,376,215182,1,0,0:0:0:0:
85,376,215359,2,0,P|129:354|149:322,1,63.7500024318696
201,220,215712,6,0,P|201:164|129:109,1,127.500004863739
122,196,216241,1,0,0:0:0:0:
217,61,216418,2,0,P|168:33|84:67,1,127.500004863739
153,114,216947,1,0,0:0:0:0:
262,188,217123,2,0,P|321:205|376:176,1,127.500004863739
312,123,217653,1,0,0:0:0:0:
264,277,217829,2,0,L|267:367,1,63.7500024318696
446,275,218182,2,0,L|449:185,1,63.7500024318696
267,369,218535,5,0,0:0:0:0:
264,277,218888,1,0,0:0:0:0:
128,318,219241,1,0,0:0:0:0:
125,226,219594,1,0,0:0:0:0:
32,352,219947,5,0,0:0:0:0:
240,276,220123,1,0,0:0:0:0:
60,176,220300,1,0,0:0:0:0:
192,352,220476,1,0,0:0:0:0:
212,112,220653,1,0,0:0:0:0:
112,300,220829,1,0,0:0:0:0:
304,204,221006,1,0,0:0:0:0:
116,96,221182,1,0,0:0:0:0:
252,340,221359,6,0,B|340:344|340:344|272:260,1,178.499994552612
200,276,221712,2,0,P|148:272|116:236,1,59.4999981842042
194,81,221888,2,0,L|180:200,1,118.999996368408
116,96,222241,1,0,0:0:0:0:
266,221,222418,2,0,L|251:339,1,118.999996368408
180,200,222771,6,0,P|208:152|340:168,1,178.499994552612
312,68,223123,2,0,P|272:80|248:112,1,59.4999981842042
314,262,223300,2,0,P|330:182|318:142,1,118.999996368408
220,296,223653,1,0,0:0:0:0:
438,164,223829,2,0,L|302:144,1,118.999996368408
490,29,224182,6,0,P|527:109|508:194,1,178.499994552612
396,124,224535,2,0,L|440:168,1,59.4999981842042
300,208,224712,2,0,L|312:72,1,118.999996368408
380,336,225065,1,0,0:0:0:0:
176,288,225241,2,0,L|164:152,1,118.999996368408
268,356,225594,6,0,P|296:380|296:324,1,118.999996368408
88,288,225947,1,0,0:0:0:0:
360,232,226123,1,0,0:0:0:0:
375,228,226476,1,0,0:0:0:0:
72,292,226653,2,0,P|40:296|88:260,1,178.499994552612
152,296,227006,6,0,P|216:316|296:232,1,178.499994552612
191,173,227359,2,0,P|193:202|208:228,1,59.4999981842042
362,234,227535,2,0,P|329:186|272:180,1,118.999996368408
387,376,227888,1,0,0:0:0:0:
458,182,228065,2,0,L|435:41,1,118.999996368408
441,260,228418,6,0,P|480:317|501:243,1,178.499994552612
364,260,228771,2,0,P|364:288|372:324,1,59.4999981842042
458,182,228947,2,0,L|435:41,1,118.999996368408
276,168,229300,1,0,0:0:0:0:
504,246,229476,2,0,L|484:363,1,118.999996368408
232,272,229829,6,0,L|420:256,1,178.499994552612
368,328,230182,2,0,P|336:300|328:268,1,59.4999981842042
389,146,230359,2,0,P|417:226|405:266,1,118.999996368408
244,112,230712,1,0,0:0:0:0:
448,192,230888,2,0,P|480:156|480:84,1,118.999996368408
243,111,231241,6,0,P|320:188|404:120,1,237.999992736817
168,52,231771,2,0,P|152:164|176:300,1,237.999992736817
324,108,232300,1,0,0:0:0:0:
388,40,232476,1,0,0:0:0:0:
316,116,232653,6,0,P|284:176|376:228,1,178.499994552612
304,296,233006,2,0,P|284:272|276:224,1,59.4999981842042
360,344,233182,2,0,L|184:336,1,118.999996368408
384,160,233535,1,0,0:0:0:0:
304,296,233712,2,0,L|128:288,1,118.999996368408
432,228,234065,5,0,0:0:0:0:
500,324,234241,1,0,0:0:0:0:
384,336,234418,1,0,0:0:0:0:
512,244,234594,2,0,P|444:148|352:216,1,237.999992736817
448,384,235123,1,0,0:0:0:0:
468,376,235476,6,0,L|344:360,1,118.999996368408
44,376,235829,2,0,L|168:360,1,118.999996368408
468,248,236182,2,0,L|352:296,1,118.999996368408
44,248,236535,2,0,L|159:296,1,118.999996368408
392,144,236888,5,0,0:0:0:0:
44,376,237065,1,0,0:0:0:0:
140,100,237241,5,0,0:0:0:0:
389,382,237418,1,0,0:0:0:0:
341,62,237594,5,0,0:0:0:0:
190,364,237771,1,0,0:0:0:0:
211,33,237947,5,0,0:0:0:0:
272,330,238124,1,0,0:0:0:0:
496,128,238300,6,0,P|504:204|456:300,1,178.499994552612
408,228,238653,2,0,P|440:212|480:212,1,59.4999981842042
328,384,238829,2,0,L|312:246,1,118.999996368408
460,360,239182,1,0,0:0:0:0:
224,268,239359,2,0,P|132:268|88:308,1,118.999996368408
264,352,239712,6,0,P|308:308|268:184,1,178.499994552612
360,296,240065,2,0,P|400:280|416:248,1,59.4999981842042
339,99,240241,2,0,P|299:143|290:201,1,118.999996368408
464,64,240594,1,0,0:0:0:0:
493,211,240771,2,0,P|434:217|384:188,1,118.999996368408
218,37,241123,5,0,0:0:0:0:
207,162,241300,1,0,0:0:0:0:
289,67,241476,1,0,0:0:0:0:
168,96,241653,1,0,0:0:0:0:
283,144,241829,1,0,0:0:0:0:
221,22,242006,1,0,0:0:0:0:
195,171,242183,1,0,0:0:0:0:
303,66,242359,1,0,0:0:0:0:
155,88,242536,1,0,0:0:0:0:
288,157,242712,1,0,0:0:0:0:
228,12,242888,1,0,0:0:0:0:
184,176,243065,1,0,0:0:0:0:
315,68,243241,5,0,0:0:0:0:
289,170,243418,1,0,0:0:0:0:
184,176,243594,1,0,0:0:0:0:
147,78,243771,1,0,0:0:0:0:
228,12,243947,5,0,0:0:0:0:
146,99,248182,6,0,L|191:90,2,42.5000016212464
181,109,248535,2,0,L|226:100,2,42.5000016212464
382,140,248888,6,0,L|337:149,2,42.5000016212464
347,130,249241,2,0,L|302:139,2,42.5000016212464
140,179,249594,5,0,0:0:0:0:
220,232,250123,1,0,0:0:0:0:
140,179,250300,2,0,L|60:188,1,63.7500024318696
180,104,250653,2,0,L|100:95,1,63.7500024318696
236,40,251006,6,0,P|256:68|264:120,1,63.7500024318696
140,179,251359,1,0,0:0:0:0:
36,144,251535,1,0,0:0:0:0:
96,264,251712,2,0,P|104:316|32:376,1,127.500004863739
192,240,252241,2,0,L|156:244,1,31.8750012159348
28,300,252418,6,0,L|116:304,1,63.7500024318696
232,352,252771,1,0,0:0:0:0:
96,264,252947,1,0,0:0:0:0:
304,292,253123,2,0,P|332:268|340:216,1,63.7500024318696
268,228,253388,1,0,0:0:0:0:
264,212,253476,1,0,0:0:0:0:
384,316,253653,1,0,0:0:0:0:
232,352,253829,5,0,0:0:0:0:
316,368,254006,1,0,0:0:0:0:
316,368,254094,1,0,0:0:0:0:
316,368,254182,1,0,0:0:0:0:
264,212,254359,1,0,0:0:0:0:
384,316,254535,1,0,0:0:0:0:
308,284,254712,1,0,0:0:0:0:
432,216,254888,2,0,L|440:140,1,63.7500024318696
384,316,255241,6,0,L|520:332,1,127.500004863739
336,232,255771,1,0,0:0:0:0:
400,308,255947,2,0,P|420:284|432:228,1,63.7500024318696
260,360,256300,2,0,L|350:370,1,63.7500024318696
204,184,256653,6,0,B|192:224|208:248|208:248|208:280|188:296,1,95.6250036478044
196,296,257006,1,0,0:0:0:0:
280,212,257182,1,0,0:0:0:0:
280,212,257271,1,0,0:0:0:0:
280,212,257359,2,0,L|288:144,1,63.7500024318696
380,168,257712,2,0,L|372:100,1,63.7500024318696
248,236,258065,6,0,B|288:220|312:252|312:252|340:232|340:232|392:260|436:220,1,191.250007295609
212,160,258771,2,0,P|168:220|236:320,1,191.250007295609
287,148,259476,5,0,0:0:0:0:
80,44,259829,2,0,L|88:112,1,63.7500024318696
188,224,260182,1,0,0:0:0:0:
92,204,260359,1,0,0:0:0:0:
188,224,260888,6,0,P|236:220|200:200,1,95.6250036478044
172,216,261241,2,0,P|192:288|224:304,1,95.6250036478044
240,308,261594,1,0,0:0:0:0:
271,303,261682,1,0,0:0:0:0:
302,310,261770,1,0,0:0:0:0:
328,328,261858,1,0,0:0:0:0:
347,353,261947,2,0,L|368:304,1,31.8750012159348
240,308,262123,2,0,L|219:357,1,31.8750012159348
332,224,262300,6,0,P|300:212|248:212,1,63.7500024318696
348,352,262653,1,0,0:0:0:0:
424,212,262829,1,0,0:0:0:0:
240,308,263006,1,0,0:0:0:0:
328,344,263535,1,0,0:0:0:0:
240,308,263712,6,0,P|184:300|144:312,1,95.6250036478044
116,324,264065,2,0,P|124:284|88:300,1,95.6250036478044
144,256,264418,2,0,P|152:200|108:124,1,127.500004863739
28,344,265123,2,0,L|160:356,1,127.500004863739
228,212,265653,1,0,0:0:0:0:
60,264,265829,1,0,0:0:0:0:
156,280,266006,1,0,0:0:0:0:
156,280,266535,6,0,P|168:200|164:172,1,95.6250036478044
120,168,266888,2,0,B|90:206|90:206|146:208,1,95.6250036478044
120,128,267241,1,0,0:0:0:0:
111,97,267329,1,0,0:0:0:0:
120,67,267417,1,0,0:0:0:0:
144,46,267505,1,0,0:0:0:0:
175,40,267594,2,0,L|212:48,1,31.8750012159348
120,128,267771,2,0,L|83:120,1,31.8750012159348
232,148,267947,6,0,P|220:184|196:216,1,63.7500024318696
175,40,268300,1,0,0:0:0:0:
304,84,268476,1,0,0:0:0:0:
120,128,268653,1,0,0:0:0:0:
192,192,269182,1,0,0:0:0:0:
120,128,269359,6,0,P|68:132|100:160,1,95.6250036478044
68,84,269712,2,0,P|60:32|20:8,1,95.6250036478044
28,172,270065,2,0,L|16:268,2,95.6250036478044
101,212,270771,2,0,P|192:168|100:128,1,255.000009727478
16,266,271829,2,0,L|20:312,2,31.8750012159348
