osu file format v14

[General]
AudioFilename: audio.mp3
AudioLeadIn: 0
PreviewTime: -1
Countdown: 0
SampleSet: Normal
StackLeniency: 0.7
Mode: 0
LetterboxInBreaks: 0
WidescreenStoryboard: 0

[Editor]
DistanceSpacing: 2
BeatDivisor: 4
GridSize: 4
TimelineZoom: 1

[Metadata]
Title:Kilby Girl
TitleUnicode:Kilby Girl
Artist:The Backseat Lovers
ArtistUnicode:The Backseat Lovers
Creator:PurpyWurp
Version:Blowing Smoke Into The Night
Source:
Tags:
BeatmapID:3690337
BeatmapSetID:1800093

[Difficulty]
HPDrainRate:6
CircleSize:3.5
OverallDifficulty:7
ApproachRate:9.3
SliderMultiplier:1.4
SliderTickRate:1

[Events]
//Background and Video events
0,0,"download (5).png",0,0
//Break Periods
//Storyboard Layer 0 (Background)
//Storyboard Layer 1 (Fail)
//Storyboard Layer 2 (Pass)
//Storyboard Layer 3 (Foreground)
//Storyboard Layer 4 (Overlay)
//Storyboard Sound Samples

[TimingPoints]
90,365.853658536585,4,1,0,100,1,0
11614,-66.6666666666667,4,1,0,100,0,0
11980,-133.333333333333,4,1,0,100,0,0
15089,-66.6666666666667,4,1,0,100,0,0
15821,-100,4,1,0,100,0,0
17833,-133.333333333333,4,1,0,100,0,0
18382,-100,4,1,0,100,0,0
20394,-133.333333333333,4,1,0,100,0,0
20943,-100,4,1,0,100,0,0
21309,-200,4,1,0,100,0,0
21675,-66.6666666666667,4,1,0,100,0,0
22041,-200,4,1,0,100,0,0
22407,-66.6666666666667,4,1,0,100,0,0
23138,-100,4,1,0,100,0,0
23870,-100,4,1,0,100,0,0
27163,-100,4,1,0,100,0,0
29358,-133.333333333333,4,1,0,100,0,0
30455,-133.333333333333,4,1,0,100,0,0
35211,-100,4,1,0,100,0,0
38138,-12.5,4,1,0,100,0,0
39602,-100,4,1,0,100,0,0
39968,-66.6666666666667,4,1,0,100,0,0
41065,-12.5,4,1,0,100,0,0
42894,-66.6666666666667,4,1,0,100,0,0
43260,-100,4,1,0,100,0,0
43992,-12.5,4,1,0,100,0,0
44724,-100,4,1,0,100,0,0
46004,-100,4,1,0,100,0,0
46919,-12.5,4,1,0,100,0,0
48382,-100,4,1,0,100,0,0
48748,-66.6666666666667,4,1,0,100,0,0
49846,-12.5,4,1,0,100,0,0
51309,-100,4,1,0,100,0,0
54602,-66.6666666666667,4,1,0,100,0,0
54968,-50,4,1,0,100,0,0
55699,-100,4,1,0,100,0,0
57711,-66.6666666666667,4,1,0,100,0,0
57894,-66.6666666666667,4,1,0,100,0,0
59724,-100,4,1,0,100,0,0
62285,-100,4,1,0,100,0,0
64480,-66.6666666666667,4,1,0,100,0,0
65211,-100,4,1,0,100,0,0
67589,-66.6666666666667,4,1,0,100,0,0
67772,-100,4,1,0,100,0,0
73260,-66.6666666666667,4,1,0,100,0,0
75821,-57.1428571428571,4,1,0,100,0,0
76553,-66.6666666666667,4,1,0,100,0,0
76919,-80,4,1,0,100,0,0
77650,-66.6666666666667,4,1,0,100,0,0
79114,-80,4,1,0,100,0,0
79480,-66.6666666666667,4,1,0,100,0,0
79846,-100,4,1,0,100,0,0
80577,-66.6666666666667,4,1,0,100,0,0
82041,-80,4,1,0,100,0,0
82772,-66.6666666666667,4,1,0,100,0,0
83504,-66.6666666666667,4,1,0,100,0,0
83504,-66.6666666666667,4,1,0,100,0,0
87894,-100,4,1,0,100,0,0
90821,-80,4,1,0,100,0,0
92285,-100,4,1,0,100,0,0
92650,-100,4,1,0,100,0,0
98138,-133.333333333333,4,1,0,100,0,0
98504,-100,4,1,0,100,0,0
98870,-200,4,1,0,100,0,0
99236,-80,4,1,0,100,0,0
101065,-200,4,1,0,100,0,0
101431,-80,4,1,0,100,0,0
102163,-100,4,1,0,100,0,0
103626,-66.6666666666667,4,1,0,100,0,0
103992,-200,4,1,0,100,0,0
104907,-100,4,1,0,100,0,0
106553,-66.6666666666667,4,1,0,100,0,0
106919,-200,4,1,0,100,0,0
107285,-66.6666666666667,4,1,0,100,0,0

[HitObjects]
120,153,11614,6,0,P|169:194|205:181,1,105.000004005432
281,157,11980,2,0,P|323:143|411:158,1,105
432,304,12529,1,0,0:0:0:0:
432,304,12711,1,0,0:0:0:0:
449,215,13077,6,0,P|452:170|437:106,1,105.000004005432
293,71,13992,1,0,0:0:0:0:
110,144,14175,1,0,0:0:0:0:
110,144,14358,1,0,0:0:0:0:
110,144,14541,2,0,P|85:197|83:256,1,105.000004005432
144,309,15089,6,0,P|183:277|235:292,1,105.000004005432
372,173,15455,1,0,0:0:0:0:
372,173,15638,1,0,0:0:0:0:
372,173,15821,2,0,P|378:216|371:253,1,70
263,243,16187,5,0,0:0:0:0:
263,243,16370,1,0,0:0:0:0:
263,243,16553,2,0,P|256:214|262:173,1,70
318,87,16919,5,0,0:0:0:0:
378,165,17102,1,0,0:0:0:0:
365,257,17285,1,0,0:0:0:0:
365,257,17468,2,0,B|345:288|345:288|308:285,1,70
189,297,17833,6,0,P|146:274|128:218,1,105.000004005432
158,107,18382,2,0,P|207:141|229:137,1,70
324,76,18748,1,0,0:0:0:0:
324,76,18931,2,0,P|351:143|314:210,1,140
281,309,19663,5,0,0:0:0:0:
229,186,19846,1,0,0:0:0:0:
167,270,20029,2,0,P|109:275|76:259,1,70
65,175,20394,2,0,P|84:135|76:72,1,105
170,58,20943,6,0,P|206:77|249:75,1,70
334,51,21309,2,0,P|346:73|344:91,1,35
360,197,21675,2,0,P|306:185|259:197,1,105.000004005432
87,172,22041,6,0,L|87:220,1,35
95,284,22407,2,0,P|147:264|207:272,1,105.000004005432
294,285,22772,1,0,0:0:0:0:
294,285,22955,1,0,0:0:0:0:
294,285,23138,6,0,P|331:293|370:281,1,70
426,141,23687,1,0,0:0:0:0:
426,141,24053,1,0,0:0:0:0:
426,141,24236,2,0,B|390:123|390:123|351:132,1,70
300,184,24602,6,0,B|268:200|268:200|226:182,1,70
235,186,25150,1,0,0:0:0:0:
79,177,25516,1,0,0:0:0:0:
45,104,25699,1,0,0:0:0:0:
91,42,25882,2,0,P|140:79|170:83,1,70
212,155,26248,2,0,P|227:185|225:225,1,70
281,268,26614,5,0,0:0:0:0:
339,191,26797,1,0,0:0:0:0:
382,277,26980,1,0,0:0:0:0:
281,268,27163,2,0,P|242:256|206:267,1,70
121,320,27529,6,0,P|88:315|66:286,1,70
48,192,27894,1,0,0:0:0:0:
52,100,28077,1,0,0:0:0:0:
139,104,28260,1,0,0:0:0:0:
139,104,28443,5,0,0:0:0:0:
141,193,28626,2,0,P|172:233|208:228,1,70
357,245,28992,1,0,0:0:0:0:
282,117,29175,1,0,0:0:0:0:
277,212,29358,2,0,P|225:215|180:165,2,105.000004005432
372,210,30455,5,0,0:0:0:0:
372,210,30638,2,0,P|346:258|299:277,1,105
172,299,31370,1,0,0:0:0:0:
108,252,31553,1,0,0:0:0:0:
108,252,31919,2,0,P|87:233|82:195,1,52.5000020027161
86,96,32468,5,0,0:0:0:0:
86,96,32651,2,0,P|136:130|183:129,1,105.000004005432
269,157,33382,1,0,0:0:0:0:
269,157,33565,1,0,0:0:0:0:
196,99,35029,5,0,0:0:0:0:
196,99,35120,1,0,0:0:0:0:
196,99,35211,2,0,B|286:97|286:97|286:126|286:126|320:153|356:136|356:136|358:205|358:205|319:266|249:262|233:223|233:223|195:242|195:242|193:288|193:288|156:288|156:288|139:278,1,560
146,87,38138,6,0,B|166:119|166:119|156:165|156:165|117:185|117:246|139:301,1,210.000008010865
400,183,38504,1,0,0:0:0:0:
400,183,38687,1,0,0:0:0:0:
278,280,38870,1,0,0:0:0:0:
278,280,39053,1,0,0:0:0:0:
125,196,39236,5,0,0:0:0:0:
125,196,39419,1,0,0:0:0:0:
143,63,39602,2,0,P|171:96|214:92,1,70
280,57,39968,2,0,P|295:103|277:157,1,105
113,204,40333,5,0,0:0:0:0:
113,204,40516,1,0,0:0:0:0:
227,136,40699,1,0,0:0:0:0:
227,136,40882,1,0,0:0:0:0:
391,297,41065,6,0,B|371:265|371:265|381:219|381:219|420:199|420:138|406:106,1,210.000008010865
291,90,41431,1,0,0:0:0:0:
291,90,41614,1,0,0:0:0:0:
95,118,41797,5,0,0:0:0:0:
95,118,41980,1,0,0:0:0:0:
284,221,42163,1,0,0:0:0:0:
284,221,42346,1,0,0:0:0:0:
156,287,42529,6,0,B|118:254|118:254|137:222|137:222|140:176|130:147|130:147|156:121,1,183.750007009506
282,81,42894,2,0,P|251:129|274:166,1,105.000004005432
253,247,43260,2,0,P|288:260|324:251,1,70
361,328,43626,1,0,0:0:0:0:
361,328,43809,1,0,0:0:0:0:
414,114,43992,6,0,B|400:129|400:129|410:158|407:204|407:204|388:236|388:236|426:269,1,183.750007009506
184,257,44358,1,0,0:0:0:0:
252,93,44541,1,0,0:0:0:0:
294,172,44724,2,0,B|309:205|309:205|299:238,1,70
193,172,45089,6,0,B|180:138|180:138|190:106,1,70
416,138,45455,1,0,0:0:0:0:
302,188,45638,1,0,0:0:0:0:
426,238,45821,1,0,0:0:0:0:
350,291,46004,6,0,P|321:302|283:299,1,70
185,330,46370,2,0,P|155:266|176:198,1,140
260,61,46919,2,0,B|297:95|297:95|268:130|258:164|258:164|288:208,1,175
322,282,47285,1,0,0:0:0:0:
322,282,47468,1,0,0:0:0:0:
110,192,47650,5,0,0:0:0:0:
110,192,47833,1,0,0:0:0:0:
209,129,48016,1,0,0:0:0:0:
209,129,48199,1,0,0:0:0:0:
309,69,48382,6,0,P|332:108|317:138,1,70
244,215,48748,2,0,P|299:255|345:245,1,105.000004005432
313,73,49297,5,0,0:0:0:0:
313,73,49480,1,0,0:0:0:0:
313,73,49663,1,0,0:0:0:0:
313,73,49846,2,0,B|336:120|319:160|319:160|294:178|294:178|326:223|298:262,1,210.000008010865
160,266,50211,5,0,0:0:0:0:
160,266,50394,1,0,0:0:0:0:
168,43,50577,1,0,0:0:0:0:
132,155,50760,1,0,0:0:0:0:
109,52,50943,5,0,0:0:0:0:
174,159,51126,1,0,0:0:0:0:
225,93,51309,2,0,B|261:72|261:72|295:89,1,70
313,174,51675,2,0,B|294:207|294:207|322:233,1,70
354,315,52041,5,0,0:0:0:0:
354,315,52224,1,0,0:0:0:0:
152,239,52407,1,0,0:0:0:0:
152,239,52589,1,0,0:0:0:0:
113,104,52772,6,0,P|155:131|185:126,1,70
288,99,53138,1,0,0:0:0:0:
288,99,53321,1,0,0:0:0:0:
422,172,53504,2,0,P|393:202|360:204,1,70
275,222,53870,5,0,0:0:0:0:
275,222,54053,1,0,0:0:0:0:
414,319,54236,6,0,P|380:274|356:272,1,70
288,315,54602,2,0,P|234:272|224:226,1,105.000004005432
104,208,54968,2,0,P|157:150|221:132,1,140
305,101,55333,1,0,0:0:0:0:
305,101,55516,1,0,0:0:0:0:
356,194,55699,6,0,P|294:251|234:248,1,140
176,118,56248,2,0,P|137:157|119:264,1,140
212,212,57163,1,0,0:0:0:0:
270,68,57346,1,0,0:0:0:0:
286,183,57529,1,0,0:0:0:0:
193,51,57711,1,0,0:0:0:0:
154,186,58077,6,0,P|116:142|119:94,1,105.000004005432
117,97,58626,1,0,0:0:0:0:
367,85,59724,2,0,P|318:106|288:151,1,105
256,191,60089,1,0,0:0:0:0:
129,281,61187,5,0,0:0:0:0:
101,259,61278,1,0,0:0:0:0:
84,228,61369,1,0,0:0:0:0:
79,194,61461,1,0,0:0:0:0:
82,159,61552,1,0,0:0:0:0:
93,121,61644,1,0,0:0:0:0:
106,93,61736,5,0,0:0:0:0:
132,70,61827,1,0,0:0:0:0:
166,62,61918,1,0,0:0:0:0:
199,79,62010,1,0,0:0:0:0:
222,111,62102,1,0,0:0:0:0:
258,124,62193,1,0,0:0:0:0:
298,119,62284,1,0,0:0:0:0:
339,102,62376,1,0,0:0:0:0:
366,85,62468,2,0,L|417:51,5,35
422,142,63016,5,0,0:0:0:0:
445,167,63107,1,0,0:0:0:0:
457,200,63198,1,0,0:0:0:0:
466,241,63290,1,0,0:0:0:0:
456,275,63382,1,0,0:0:0:0:
435,303,63473,1,0,0:0:0:0:
409,325,63564,1,0,0:0:0:0:
375,329,63656,1,0,0:0:0:0:
337,325,63748,2,0,P|318:324|304:312,7,35
165,319,64480,5,0,0:0:0:0:
116,302,64571,1,0,0:0:0:0:
88,259,64662,1,0,0:0:0:0:
69,212,64754,1,0,0:0:0:0:
61,160,64845,1,0,0:0:0:0:
68,108,64936,1,0,0:0:0:0:
82,58,65029,1,0,0:0:0:0:
82,58,65120,1,0,0:0:0:0:
82,58,65211,2,0,L|126:52,7,35
193,120,65943,5,0,0:0:0:0:
214,147,66034,1,0,0:0:0:0:
244,165,66125,1,0,0:0:0:0:
278,173,66217,1,0,0:0:0:0:
312,168,66308,1,0,0:0:0:0:
356,153,66400,1,0,0:0:0:0:
393,141,66492,5,0,0:0:0:0:
421,160,66583,1,0,0:0:0:0:
437,191,66674,1,0,0:0:0:0:
437,225,66766,1,0,0:0:0:0:
433,269,66858,1,0,0:0:0:0:
410,295,66949,1,0,0:0:0:0:
378,307,67040,1,0,0:0:0:0:
343,303,67132,1,0,0:0:0:0:
301,287,67224,5,0,0:0:0:0:
268,275,67315,1,0,0:0:0:0:
233,271,67406,1,0,0:0:0:0:
198,275,67498,1,0,0:0:0:0:
159,290,67589,1,0,0:0:0:0:
111,302,67680,1,0,0:0:0:0:
64,293,67772,5,0,0:0:0:0:
41,266,67863,1,0,0:0:0:0:
30,233,67954,1,0,0:0:0:0:
32,198,68046,1,0,0:0:0:0:
53,167,68138,5,0,0:0:0:0:
75,194,68229,1,0,0:0:0:0:
103,214,68320,1,0,0:0:0:0:
135,227,68412,1,0,0:0:0:0:
170,231,68503,1,0,0:0:0:0:
204,227,68595,1,0,0:0:0:0:
237,214,68686,1,0,0:0:0:0:
264,193,68778,1,0,0:0:0:0:
299,176,68870,2,0,P|311:169|333:174,7,35
410,267,69602,5,0,0:0:0:0:
436,244,69693,1,0,0:0:0:0:
453,213,69784,1,0,0:0:0:0:
459,179,69876,1,0,0:0:0:0:
453,145,69967,1,0,0:0:0:0:
438,102,70059,1,0,0:0:0:0:
411,79,70150,1,0,0:0:0:0:
378,68,70241,1,0,0:0:0:0:
347,86,70333,5,0,0:0:0:0:
308,105,70424,1,0,0:0:0:0:
275,117,70515,1,0,0:0:0:0:
241,121,70607,1,0,0:0:0:0:
203,122,70699,1,0,0:0:0:0:
171,107,70790,1,0,0:0:0:0:
136,102,70881,1,0,0:0:0:0:
102,108,70973,1,0,0:0:0:0:
68,125,71065,2,0,P|51:134|43:154,7,35
63,261,71797,5,0,0:0:0:0:
93,244,71888,1,0,0:0:0:0:
127,236,71979,1,0,0:0:0:0:
162,239,72071,1,0,0:0:0:0:
202,255,72163,1,0,0:0:0:0:
225,280,72254,1,0,0:0:0:0:
257,294,72345,1,0,0:0:0:0:
292,293,72437,1,0,0:0:0:0:
334,275,72529,5,0,0:0:0:0:
362,255,72620,1,0,0:0:0:0:
379,226,72711,1,0,0:0:0:0:
389,192,72803,1,0,0:0:0:0:
385,145,72894,2,0,P|376:130|355:120,3,35
217,65,73260,5,0,0:0:0:0:
168,83,73351,1,0,0:0:0:0:
131,120,73442,1,0,0:0:0:0:
111,166,73534,1,0,0:0:0:0:
102,216,73626,1,0,0:0:0:0:
111,265,73717,1,0,0:0:0:0:
145,303,73808,1,0,0:0:0:0:
191,331,73900,1,0,0:0:0:0:
239,328,73992,5,0,0:0:0:0:
285,306,74083,1,0,0:0:0:0:
311,261,74174,1,0,0:0:0:0:
306,210,74266,1,0,0:0:0:0:
284,171,74358,1,0,0:0:0:0:
234,151,74449,1,0,0:0:0:0:
189,161,74540,1,0,0:0:0:0:
163,206,74632,1,0,0:0:0:0:
149,256,74724,5,0,0:0:0:0:
163,305,74815,1,0,0:0:0:0:
203,337,74906,1,0,0:0:0:0:
258,348,74998,1,0,0:0:0:0:
304,336,75089,1,0,0:0:0:0:
336,296,75180,1,0,0:0:0:0:
337,244,75271,1,0,0:0:0:0:
306,203,75363,1,0,0:0:0:0:
271,170,75455,5,0,0:0:0:0:
264,221,75546,1,0,0:0:0:0:
227,256,75637,1,0,0:0:0:0:
175,261,75729,1,0,0:0:0:0:
129,244,75821,1,0,0:0:0:0:
79,209,75912,1,0,0:0:0:0:
64,151,76003,1,0,0:0:0:0:
90,97,76095,1,0,0:0:0:0:
134,57,76187,5,0,0:0:0:0:
192,41,76278,1,0,0:0:0:0:
249,62,76369,1,0,0:0:0:0:
284,111,76461,1,0,0:0:0:0:
302,164,76553,1,0,0:0:0:0:
277,209,76644,1,0,0:0:0:0:
229,227,76735,1,0,0:0:0:0:
181,208,76827,1,0,0:0:0:0:
137,203,76919,5,0,0:0:0:0:
94,205,77010,1,0,0:0:0:0:
60,232,77101,1,0,0:0:0:0:
50,274,77193,1,0,0:0:0:0:
62,314,77285,1,0,0:0:0:0:
90,345,77376,1,0,0:0:0:0:
133,351,77467,1,0,0:0:0:0:
168,327,77559,1,0,0:0:0:0:
207,312,77650,5,0,0:0:0:0:
254,291,77741,1,0,0:0:0:0:
306,291,77832,1,0,0:0:0:0:
354,313,77924,1,0,0:0:0:0:
396,335,78016,1,0,0:0:0:0:
447,330,78107,1,0,0:0:0:0:
490,305,78198,1,0,0:0:0:0:
509,255,78290,1,0,0:0:0:0:
495,215,78382,5,0,0:0:0:0:
471,169,78473,1,0,0:0:0:0:
424,147,78564,1,0,0:0:0:0:
374,160,78656,1,0,0:0:0:0:
340,193,78748,1,0,0:0:0:0:
294,217,78839,1,0,0:0:0:0:
242,218,78930,1,0,0:0:0:0:
195,195,79022,1,0,0:0:0:0:
172,162,79114,5,0,0:0:0:0:
163,118,79205,1,0,0:0:0:0:
179,75,79296,1,0,0:0:0:0:
221,56,79388,1,0,0:0:0:0:
269,66,79480,1,0,0:0:0:0:
304,102,79571,1,0,0:0:0:0:
305,154,79662,1,0,0:0:0:0:
271,192,79754,1,0,0:0:0:0:
239,212,79846,5,0,0:0:0:0:
209,229,79937,1,0,0:0:0:0:
174,234,80028,1,0,0:0:0:0:
141,224,80120,1,0,0:0:0:0:
99,215,80211,1,0,0:0:0:0:
66,225,80302,1,0,0:0:0:0:
48,254,80393,1,0,0:0:0:0:
52,288,80485,1,0,0:0:0:0:
83,315,80577,5,0,0:0:0:0:
126,342,80668,1,0,0:0:0:0:
178,340,80759,1,0,0:0:0:0:
219,309,80851,1,0,0:0:0:0:
252,279,80943,1,0,0:0:0:0:
290,313,81034,1,0,0:0:0:0:
341,323,81125,1,0,0:0:0:0:
390,306,81217,1,0,0:0:0:0:
432,280,81309,5,0,0:0:0:0:
455,233,81400,1,0,0:0:0:0:
455,181,81491,1,0,0:0:0:0:
431,134,81583,1,0,0:0:0:0:
406,102,81675,1,0,0:0:0:0:
381,147,81766,1,0,0:0:0:0:
337,175,81857,1,0,0:0:0:0:
286,177,81949,1,0,0:0:0:0:
243,159,82041,5,0,0:0:0:0:
226,119,82132,1,0,0:0:0:0:
240,79,82223,1,0,0:0:0:0:
278,60,82315,1,0,0:0:0:0:
318,72,82407,1,0,0:0:0:0:
346,103,82498,1,0,0:0:0:0:
346,146,82589,1,0,0:0:0:0:
316,176,82681,1,0,0:0:0:0:
277,183,82772,5,0,0:0:0:0:
229,162,82863,1,0,0:0:0:0:
177,160,82954,1,0,0:0:0:0:
126,173,83046,1,0,0:0:0:0:
88,202,83138,1,0,0:0:0:0:
63,246,83229,1,0,0:0:0:0:
76,296,83320,1,0,0:0:0:0:
119,323,83412,1,0,0:0:0:0:
163,331,83504,6,0,B|192:317|192:317|223:339,7,52.5000020027161
308,300,84236,2,0,B|329:278|329:278|312:242,7,52.5000020027161
319,258,84968,1,0,0:0:0:0:
43,105,87894,6,0,L|115:92,1,70
87,187,88260,2,0,L|161:174,1,70
469,105,88626,2,0,L|397:92,1,70
425,187,88992,2,0,L|351:174,1,70
283,100,89541,5,0,0:0:0:0:
134,192,89907,2,0,B|98:250|98:250|134:324,1,140
274,195,90455,1,0,0:0:0:0:
352,309,90638,1,0,0:0:0:0:
256,291,90821,2,0,P|202:270|151:280,1,87.5
101,257,91187,6,0,P|65:214|84:105,1,175
164,43,91736,1,0,0:0:0:0:
204,142,91919,2,0,P|250:163|290:153,1,87.5
358,103,92285,2,0,P|395:130|396:161,1,70
450,273,92650,6,0,P|384:241|294:265,1,140
212,297,93199,1,0,0:0:0:0:
151,217,93382,2,0,B|134:183|153:146,1,70
261,149,93748,2,0,P|269:189|258:229,1,70
78,135,94114,1,0,0:0:0:0:
78,135,94297,1,0,0:0:0:0:
151,190,94480,6,0,P|192:208|237:190,1,70
284,144,94846,2,0,P|332:139|377:162,1,70
358,272,95211,2,0,P|324:284|286:271,1,70
196,261,95577,2,0,P|157:247|108:260,2,70
277,291,96126,5,0,0:0:0:0:
277,291,96492,1,0,0:0:0:0:
362,253,96675,2,0,P|383:189|361:121,1,140
272,70,97224,1,0,0:0:0:0:
272,70,97407,2,0,P|242:88|205:87,1,70
139,42,97772,6,0,P|100:65|93:117,1,70
84,210,98138,2,0,P|115:194|148:198,1,52.5000020027161
151,273,98504,2,0,P|193:290|216:269,1,70
393,136,98870,2,0,P|406:152|400:177,1,35
211,181,99236,2,0,P|282:171|303:183,1,87.5
387,290,99602,5,0,0:0:0:0:
387,290,99785,1,0,0:0:0:0:
445,234,99968,2,0,P|449:192|439:145,1,87.5
382,76,100333,1,0,0:0:0:0:
382,76,100516,1,0,0:0:0:0:
180,180,100699,1,0,0:0:0:0:
180,180,100882,1,0,0:0:0:0:
86,293,101065,6,0,P|108:290|120:298,1,35
292,334,101431,2,0,P|299:277|284:242,1,87.5
105,199,101797,1,0,0:0:0:0:
105,199,101980,1,0,0:0:0:0:
159,262,102163,2,0,P|200:266|249:244,1,70
376,226,102529,5,0,0:0:0:0:
327,100,102711,2,0,P|271:114|198:72,1,140
53,224,103260,1,0,0:0:0:0:
102,69,103443,1,0,0:0:0:0:
144,164,103626,2,0,P|198:173|250:147,1,105.000004005432
415,244,104175,6,0,P|431:277|410:299,1,70
178,295,104724,1,0,0:0:0:0:
206,153,105089,2,0,P|269:186|264:255,1,140
81,222,105638,1,0,0:0:0:0:
81,222,105821,1,0,0:0:0:0:
81,222,106004,1,0,0:0:0:0:
224,78,106187,6,0,P|253:112|296:115,1,70
392,65,106553,2,0,P|423:106|410:168,1,105.000004005432
297,279,106919,2,0,P|280:267|259:272,1,35
179,300,107285,2,0,P|139:257|158:198,1,105
