osu file format v14

[General]
AudioFilename: audio.mp3
AudioLeadIn: 0
PreviewTime: 30125
Countdown: 0
SampleSet: Soft
StackLeniency: 0.5
Mode: 0
LetterboxInBreaks: 0
WidescreenStoryboard: 0

[Editor]
Bookmarks: 53844,86871
DistanceSpacing: 1.1
BeatDivisor: 4
GridSize: 32
TimelineZoom: 2.163736

[Metadata]
Title:Hikari e (TV Size)
TitleUnicode:ヒカリへ (TV Size)
Artist:The BABYSTARS
ArtistUnicode:ザ・ベイビースターズ
Creator:iYiyo
Version:Irohas' Insane
Source:ONE PIECE
Tags:Yohanes Atsuro Janssen Irohas Mugiwarasekai Mortem ワンピース opening 3 op3 toei animation pirates Anime Japanese j-rock jrock rock ベビスタ Bebisuta 田中明仁 Akihito Tanaka 高橋りきや Takahashi Rikiya
BeatmapID:1815634
BeatmapSetID:851839

[Difficulty]
HPDrainRate:6
CircleSize:4.2
OverallDifficulty:8
ApproachRate:9
SliderMultiplier:1.6
SliderTickRate:1

[Events]
//Background and Video events
0,0,"one-piece0088.jpg",0,0
Video,247,"video.mp4"
//Break Periods
2,5870,25352
//Storyboard Layer 0 (Background)
//Storyboard Layer 1 (Fail)
//Storyboard Layer 2 (Pass)
//Storyboard Layer 3 (Foreground)
//Storyboard Layer 4 (Overlay)
//Storyboard Sound Samples

[TimingPoints]
582,317.460317460317,4,2,1,50,1,0
3105,317.460317460317,4,2,1,50,1,0
4073,317.460317460317,4,2,1,50,1,0
4581,314.13612565445,4,2,1,50,1,0
5194,314.13612565445,4,2,1,50,1,0
5670,317.460317460317,4,2,1,50,1,0
15484,317.460317460317,4,2,1,50,1,0
15800,317.460317460317,4,2,1,50,1,0
19313,317.460317460317,4,2,1,50,1,0
20891,317.460317460317,4,2,1,50,1,0
23450,315.78947368421,4,2,1,50,1,0
24871,306.122448979592,4,2,1,50,1,0
25024,304.568527918782,4,2,1,50,1,0
25326,310.880829015544,4,2,1,60,1,0
25636,304.568527918782,4,2,1,60,1,0
25952,317.460317460317,4,2,1,70,1,0
25952,-133.333333333333,4,2,1,70,0,0
27235,333.333333333333,4,2,1,70,1,0
27235,-133.333333333333,4,2,1,70,0,0
27568,306.122448979592,4,2,1,70,1,0
27889,317.460317460317,4,2,1,70,1,0
27889,-125,4,2,1,70,0,0
28376,-100,4,2,1,70,0,0
28535,320.855614973262,4,2,1,70,1,0
28695,-142.857142857143,4,2,1,70,0,0
29179,314.96062992126,4,2,1,70,1,0
29486,319.659030367608,4,2,1,70,1,0
29486,-125,4,2,1,70,0,0
29805,-83.3333333333333,4,2,1,70,0,0
29885,-83.3333333333333,4,2,1,5,0,0
30285,327.868852459016,4,2,1,30,1,0
30612,309.278350515464,4,2,1,30,1,0
31052,317.460317460317,4,2,1,80,1,1
31290,-100,4,2,1,5,0,1
31369,-100,4,2,1,80,0,1
33829,-100,4,2,1,5,0,1
33909,-100,4,2,1,80,0,1
39226,-100,4,2,1,5,0,1
39305,-100,4,2,1,80,0,1
39938,317.460317460317,4,2,1,80,1,1
40250,317.460317460317,4,2,1,80,1,1
40402,317.460317460317,4,2,1,80,1,1
40402,-92.5925925925926,4,2,1,80,0,1
40698,348.837209302325,4,2,1,80,1,1
40872,-83.3333333333333,4,2,1,80,0,1
40959,-83.3333333333333,4,2,1,5,0,1
41022,324.324324324324,4,2,1,80,1,1
41186,331.491712707182,4,2,1,80,1,1
41434,-100,4,2,1,5,0,1
41517,-86.9565217391304,4,2,1,80,0,1
41683,298.507462686567,4,2,1,80,1,1
41832,331.491712707183,4,2,1,80,1,1
41997,309.278350515464,4,2,1,80,1,1
42151,331.491712707183,4,2,1,80,1,1
42316,310.880829015544,4,2,1,80,1,1
42471,317.460317460317,4,2,1,80,1,1
42947,-111.111111111111,4,2,1,80,0,1
43423,-100,4,2,1,80,0,1
43745,317.460317460317,4,2,1,80,1,1
46287,322.58064516129,4,2,1,80,1,1
46932,310.880829015544,4,2,1,80,1,1
47087,304.568527918782,4,2,1,80,1,1
47239,310.880829015544,4,2,1,80,1,1
47554,320.855614973262,4,2,1,80,1,1
47794,-100,4,2,1,5,0,1
47876,-100,4,2,1,80,0,1
48192,288.461538461538,4,2,1,80,1,1
48408,-100,4,2,1,5,0,1
48480,-100,4,2,1,80,0,1
48801,317.460317460317,4,2,1,70,1,0
48801,-111.111111111111,4,2,1,70,0,0
49435,315.789473684211,4,2,1,70,1,0
49435,-111.111111111111,4,2,1,70,0,0
49750,307.692307692308,4,2,1,70,1,0
49750,-111.111111111111,4,2,1,70,0,0
50067,317.460317460317,4,2,1,70,1,0
50067,-111.111111111111,4,2,1,70,0,0
50700,317.460317460317,4,2,1,70,1,0
51017,304.568527918782,4,2,1,70,1,0
51017,-111.111111111111,4,2,1,70,0,0
51330,317.460317460317,4,2,1,70,1,0
51330,-111.111111111111,4,2,1,70,0,0
52287,312.5,4,2,1,70,1,0
52287,-111.111111111111,4,2,1,70,0,0
52599,285.714285714286,4,2,1,70,1,0
52893,317.460317460317,4,2,1,70,1,0
53844,317.460317460317,4,2,1,40,1,0
53844,-166.666666666667,4,2,1,40,0,0
54334,317.460317460317,4,2,1,40,1,0
54334,-166.666666666667,4,2,1,40,0,0
54659,317.460317460317,4,2,1,40,1,0
55135,322.58064516129,4,2,1,40,1,0
55296,317.460317460317,4,2,1,40,1,0
55296,-166.666666666667,4,2,1,40,0,0
55621,317.460317460317,4,2,1,40,1,0
55621,-166.666666666667,4,2,1,40,0,0
55944,317.460317460317,4,2,1,40,1,0
56410,317.460317460317,4,2,1,40,1,0
56410,-166.666666666667,4,2,1,40,0,0
56901,317.460317460317,4,2,1,40,1,0
57218,306.122448979592,4,2,1,40,1,0
57218,-166.666666666667,4,2,1,40,0,0
57371,317.460317460317,4,2,1,40,1,0
57529,-166.666666666667,4,2,1,40,0,0
58482,333.333333333333,4,2,1,40,1,0
58649,317.460317460317,4,2,1,40,1,0
58964,312.5,4,2,1,40,1,0
58964,-166.666666666667,4,2,1,40,0,0
59432,317.460317460317,4,2,1,40,1,0
60225,310.880829015544,4,2,1,40,1,0
60384,307.692307692308,4,2,1,40,1,0
60845,319.148936170213,4,2,1,40,1,0
60845,-166.666666666667,4,2,1,40,0,0
61165,317.460317460317,4,2,1,40,1,0
61473,327.868852459016,4,2,1,40,1,0
61473,-200,4,2,1,40,0,0
61979,298.507462686567,4,2,1,40,1,0
62426,333.333333333333,4,2,1,40,1,0
62759,317.460317460317,4,2,1,40,1,0
62917,-166.666666666667,4,2,1,40,0,0
63403,317.460317460317,4,2,1,40,1,0
63720,-83.3333333333333,4,2,1,40,0,0
63799,-83.3333333333333,4,2,1,5,0,0
63868,612.244897959184,4,2,1,40,1,0
64023,317.460317460317,4,2,1,40,1,0
64023,-166.666666666667,4,2,1,40,0,0
65292,346.820809248555,4,2,1,40,1,0
65465,309.278350515464,4,2,1,40,1,0
65465,-166.666666666667,4,2,1,40,0,0
66558,317.460317460317,4,2,1,40,1,0
66558,-166.666666666667,4,2,1,40,0,0
67669,326.086956521739,4,2,1,40,1,0
67994,317.460317460317,4,2,1,40,1,0
67994,-166.666666666667,4,2,1,40,0,0
69098,317.460317460317,4,2,1,40,1,0
69098,-166.666666666667,4,2,1,40,0,0
70378,317.460317460317,4,2,1,40,1,0
70378,-166.666666666667,4,2,1,40,0,0
71008,317.460317460317,4,2,1,40,1,0
71008,-166.666666666667,4,2,1,40,0,0
72276,317.460317460317,4,2,1,40,1,0
72752,300,4,2,1,50,1,0
73052,317.460317460317,4,2,1,50,1,0
73374,301.507537688442,4,2,1,50,1,0
73845,310.880829015544,4,2,1,50,1,0
74000,317.460317460317,4,2,1,60,1,0
74000,-117.647058823529,4,2,1,60,0,0
74634,329.67032967033,4,2,1,60,1,0
74634,-111.111111111111,4,2,1,60,0,0
74798,319.148936170213,4,2,1,60,1,0
74957,-111.111111111111,4,2,1,60,0,0
75276,315.789473684211,4,2,1,60,1,0
75276,-111.111111111111,4,2,1,60,0,0
75591,340.909090909091,4,2,1,60,1,0
75762,317.460317460317,4,2,1,60,1,0
75762,-111.111111111111,4,2,1,60,0,0
76563,317.460317460317,4,2,1,60,1,0
76563,-117.647058823529,4,2,1,60,0,0
77197,-111.111111111111,4,2,1,60,0,0
77835,317.460317460317,4,2,1,60,1,0
77835,-117.647058823529,4,2,1,60,0,0
78469,312.5,4,2,1,60,1,0
78625,-153.846153846153,4,2,1,60,0,0
78781,300,4,2,1,60,1,0
79088,324.324324324324,4,2,1,60,1,0
79088,-117.647058823529,4,2,1,60,0,0
79574,-111.111111111111,4,2,1,60,0,0
80061,317.460317460317,4,2,1,60,1,0
80061,-111.111111111111,4,2,1,60,0,0
80695,310.880829015544,4,2,1,60,1,0
81005,-111.111111111111,4,2,1,60,0,0
81316,309.278350515464,4,2,1,60,1,0
81316,-111.111111111111,4,2,1,60,0,0
81784,317.460317460317,4,2,1,60,1,0
81784,-125,4,2,1,60,0,0
82734,317.460317460317,4,2,1,60,1,0
82734,-125,4,2,1,60,0,0
83371,317.460317460317,4,2,1,60,1,0
83688,-125,4,2,1,60,0,0
84333,300,4,2,1,60,1,0
84950,317.460317460317,4,2,1,60,1,0
85275,317.460317460317,4,2,1,60,1,0
85602,327.868852459016,4,2,1,60,1,0
85602,-83.3333333333333,4,2,1,60,0,0
85683,-83.3333333333333,4,2,1,5,0,0
86093,320.855614973262,4,2,1,30,1,0
86413,309.278350515464,4,2,1,30,1,0
86567,284.36018957346,4,2,1,30,1,0
86709,317.460317460317,4,2,1,30,1,0
86871,331.491712707182,4,2,1,80,1,1
87119,-100,4,2,1,5,0,1
87202,-100,4,2,1,80,0,1
87533,309.278350515464,4,2,1,80,1,1
87688,317.460317460317,4,2,1,80,1,1
88005,306.122448979592,4,2,1,80,1,1
88157,317.460317460317,4,2,1,80,1,1
88633,312.5,4,2,1,80,1,1
88633,-105.263157894737,4,2,1,80,0,1
88945,327.868852459016,4,2,1,80,1,1
89429,317.460317460317,4,2,1,80,1,1
89667,-100,4,2,1,5,0,1
89746,-100,4,2,1,80,0,1
93714,-111.111111111111,4,2,1,80,0,1
94026,317.460317460317,4,2,1,80,1,1
94184,-111.111111111111,4,2,1,80,0,1
94502,317.460317460317,4,2,1,80,1,1
95057,-100,4,2,1,5,0,1
95136,-100,4,2,1,80,0,1
95769,317.460317460317,4,2,1,80,1,1
96232,350.877192982456,4,2,1,80,1,1
96495,-100,4,2,1,5,0,1
96566,310.880829015544,4,2,1,80,1,1
96566,-100,4,2,1,80,0,1
97032,317.460317460317,4,2,1,80,1,1
97270,-100,4,2,1,5,0,1
97349,-100,4,2,1,80,0,1
98304,319.148936170213,4,2,1,80,1,1
98782,303.030303030303,4,2,1,80,1,1
98782,-111.111111111111,4,2,1,80,0,1
99086,317.460317460317,4,2,1,80,1,1
99244,-111.111111111111,4,2,1,80,0,1
99566,320.855614973262,4,2,1,80,1,1
99566,-111.111111111111,4,2,1,80,0,1
100054,317.460317460317,4,2,1,80,1,1
100847,317.460317460317,4,2,1,80,1,1
101323,-111.111111111111,4,2,1,80,0,1
101800,-100,4,2,1,80,0,1
102113,317.460317460317,4,2,1,80,1,1
102589,314.13612565445,4,2,1,80,1,1
103385,317.460317460317,4,2,1,80,1,1
103705,317.460317460317,4,2,1,80,1,1
104334,314.13612565445,4,2,1,80,1,1
104648,-111.111111111111,4,2,1,80,0,1
105119,317.460317460317,4,2,1,80,1,1
105444,337.078651685393,4,2,1,80,1,1
105954,317.460317460317,4,2,1,80,1,0
107658,307.692307692308,4,2,1,80,1,0
107734,277.777777777778,4,2,1,80,1,0
107915,307.692307692308,4,2,1,80,1,0

[Colours]
Combo1 : 255,128,64
Combo2 : 255,55,55
Combo3 : 0,240,120
Combo4 : 255,255,94
Combo5 : 0,128,255

[HitObjects]
256,192,582,12,0,2804,3:0:0:0:
256,192,3105,12,6,5670,3:2:0:0:
22,151,25952,6,0,P|-8:114|10:33,2,120.000004577637,6|2|10,3:2|3:2|0:0,0:0:0:0:
281,28,26904,2,0,P|275:62|269:110,1,60.0000022888184,2|0,0:0|3:2,0:0:0:0:
195,142,27235,1,2,3:2:0:0:
270,189,27401,6,0,B|332:190|321:146|397:155,1,115,8|0,0:0|3:2,0:0:0:0:
454,103,27889,2,0,P|469:133|472:172,1,64,10|0,0:0|0:0,0:0:0:0:
343,246,28206,2,0,P|328:216|325:177,1,64,2|0,0:0|0:0,0:0:0:0:
430,293,28535,1,2,3:2:0:0:
352,345,28695,2,0,P|292:335|219:321,1,111.999996582031,0|0,0:0|0:0,0:0:0:0:
119,223,29179,5,10,0:0:0:0:
198,178,29336,1,8,0:0:0:0:
134,310,29486,2,0,P|146:355|157:398,1,64,2|2,3:2|3:2,0:0:0:0:
273,276,29805,6,0,L|200:262,1,47.9999985351563,12|0,0:0|0:0,0:0:0:0:
141,96,31052,6,0,P|195:87|275:75,1,120,4|0,3:2|0:0,0:0:0:0:
344,57,31369,2,0,P|337:97|328:151,1,80,8|0,0:0|0:0,0:0:0:0:
446,222,31686,2,0,P|456:174|439:141,1,80,2|2,3:2|3:2,0:0:0:0:
349,270,32004,1,8,0:0:0:0:
431,323,32163,6,0,P|481:315|533:307,1,80,0|2,0:0|3:2,0:0:0:0:
341,362,32480,2,0,P|324:323|333:282,1,80,2|8,3:2|0:0,0:0:0:0:
251,212,32798,2,0,B|162:244|162:244|114:215|135:174,1,160,2|2,3:2|3:2,0:0:0:0:
0,282,33274,2,0,P|42:300|87:290,1,80,8|0,0:0|0:0,0:0:0:0:
200,142,33591,6,0,P|185:63|173:5,1,120,2|0,3:2|0:0,0:0:0:0:
273,0,33909,2,0,P|295:36|290:80,1,80,8|0,0:0|0:0,0:0:0:0:
103,178,34226,2,0,P|54:170|10:163,1,80,2|2,3:2|3:2,0:0:0:0:
190,75,34544,1,8,0:0:0:0:
254,138,34702,6,0,P|244:190|239:236,1,80,0|2,0:0|3:2,0:0:0:0:
153,339,35020,2,0,P|147:299|139:260,1,80,0|8,0:0|0:0,0:0:0:0:
251,368,35337,2,0,B|336:381|316:316|410:333,1,160,2|2,3:2|3:2,0:0:0:0:
485,278,35813,5,8,0:0:0:0:
399,204,35972,1,0,0:0:0:0:
496,109,36131,2,0,P|489:149|480:203,1,80,2|0,3:2|0:0,0:0:0:0:
365,294,36448,5,8,0:0:0:0:
227,219,36607,2,0,P|277:211|329:203,1,80,0|2,0:0|3:2,0:0:0:0:
113,306,36925,2,0,P|63:298|11:290,1,80,2|8,3:2|0:0,0:0:0:0:
215,384,37242,6,0,P|220:344|228:305,1,80,0|2,0:0|3:2,0:0:0:0:
136,124,37559,2,0,P|130:163|122:202,1,80,2|8,3:2|0:0,0:0:0:0:
300,284,37877,2,0,B|380:305|368:233|459:262,1,160,2|2,3:2|3:2,0:0:0:0:
512,361,38353,2,0,P|463:350|417:344,1,80,8|0,0:0|0:0,0:0:0:0:
319,201,38671,2,0,P|303:157|312:119,1,80,2|0,3:2|0:0,0:0:0:0:
181,72,38988,6,0,P|190:131|199:190,1,120,8|0,0:0|0:0,0:0:0:0:
160,267,39305,2,0,P|192:278|241:268,1,80,2|2,3:2|3:2,0:0:0:0:
82,176,39623,2,0,P|42:183|3:189,1,80,8|0,0:0|0:0,0:0:0:0:
181,72,39938,5,2,3:2:0:0:
86,38,40096,1,2,3:2:0:0:
182,173,40250,1,8,0:0:0:0:
278,116,40402,6,0,B|367:148|367:148|415:119|394:78,1,161.5,2|2,3:2|3:2,0:0:0:0:
503,53,40872,2,0,P|490:86|487:107,1,47.9999985351563,8|0,0:0|0:0,0:0:0:0:
495,109,41186,6,0,P|441:100|361:88,1,120,4|0,3:2|0:0,0:0:0:0:
292,70,41517,2,0,P|299:110|309:165,1,92.0000017547608,8|0,0:0|0:0,0:0:0:0:
408,266,41832,2,0,P|415:226|424:172,1,80,2|2,3:2|3:2,0:0:0:0:
344,330,42151,1,8,0:0:0:0:
494,286,42316,1,0,0:0:0:0:
332,218,42471,2,0,P|281:204|248:216,1,80,2|2,3:2|3:2,0:0:0:0:
78,286,42788,1,8,0:0:0:0:
156,367,42947,6,0,P|163:311|176:208,1,143.999995605469,2|2,3:2|3:2,0:0:0:0:
67,118,43423,2,0,P|75:160|82:208,1,80,8|0,0:0|0:0,0:0:0:0:
256,337,43745,6,0,P|296:301|392:325,1,160,2|8,3:2|0:0,0:0:0:0:
509,224,44221,2,0,P|468:244|422:238,1,80,0|2,0:0|3:2,0:0:0:0:
367,87,44538,1,2,3:2:0:0:
465,135,44697,1,8,0:0:0:0:
348,199,44856,2,0,P|308:192|248:184,1,80,0|2,0:0|3:2,0:0:0:0:
163,67,45173,1,2,3:2:0:0:
246,0,45332,2,0,P|264:38|266:80,1,80,8|2,0:0|3:2,0:0:0:0:
146,171,45649,6,0,P|107:165|68:157,1,80,0|2,0:0|3:2,0:0:0:0:
3,266,45967,2,0,P|53:258|104:253,1,80,8|0,0:0|0:0,0:0:0:0:
239,313,46287,6,0,P|198:299|151:308,1,80,2|0,3:2|0:0,0:0:0:0:
336,237,46609,1,8,0:0:0:0:
259,134,46770,2,0,P|252:173|245:212,1,80,0|2,0:0|3:2,0:0:0:0:
397,299,47087,2,0,P|444:299|488:273,1,80,2|8,3:2|0:0,0:0:0:0:
473,285,47554,6,0,P|463:239|447:157,1,120,2|0,3:2|0:0,0:0:0:0:
457,89,47874,2,0,P|417:96|357:104,1,80,8|0,0:0|0:0,0:0:0:0:
293,241,48192,6,0,P|248:234|146:219,1,120,2|0,3:2|0:0,0:0:0:0:
96,177,48480,2,0,P|79:216|88:257,1,80,8|0,0:0|0:0,0:0:0:0:
214,187,48801,6,0,P|204:142|180:33,1,143.999995605469,4|8,3:2|0:0,0:0:0:0:
300,6,49277,1,0,0:0:0:0:
300,6,49435,2,0,P|290:47|281:96,1,71.9999978027344,2|2,3:2|3:2,0:0:0:0:
96,177,49750,2,0,P|58:169|2:160,1,71.9999978027344,8|0,0:0|0:0,0:0:0:0:
168,276,50067,2,0,P|203:269|238:262,1,71.9999978027344,2|2,3:2|3:2,0:0:0:0:
301,165,50384,6,0,P|337:194|436:172,1,143.999995605469,8|0,0:0|0:0,0:0:0:0:
450,82,50858,1,2,3:2:0:0:
450,82,51017,2,0,P|415:90|379:95,1,71.9999978027344,8|0,0:0|0:0,0:0:0:0:
503,262,51330,2,0,P|517:220|509:185,1,71.9999978027344,2|2,3:2|3:2,0:0:0:0:
394,180,51647,6,0,P|409:250|425:320,1,143.999995605469,8|2,0:0|3:2,0:0:0:0:
349,366,52123,1,2,3:2:0:0:
349,366,52287,2,0,P|302:350|264:355,1,71.9999978027344,8|0,0:0|0:0,0:0:0:0:
137,240,52599,1,2,3:2:0:0:
228,279,52741,1,2,0:0:0:0:
105,334,52893,1,8,0:0:0:0:
222,281,53051,1,8,0:0:0:0:
139,234,53210,5,0,3:0:0:0:
111,155,53369,1,0,3:0:0:0:
83,76,53527,1,0,3:0:0:0:
77,71,53844,6,0,P|118:45|176:65,1,95.9999970703126,4|2,0:2|0:0,0:0:0:0:
253,133,54334,2,0,P|262:83|272:32,1,98.3,2|2,3:2|0:0,0:0:0:0:
172,48,54817,5,0,3:2:0:0:
334,160,55135,1,0,0:0:0:0:
348,171,55296,2,0,P|387:164|408:158,1,47.9999985351563,0|2,3:2|0:0,0:0:0:0:
477,193,55621,2,0,P|500:153|490:107,1,98,2|2,0:0|0:0,0:0:0:0:
375,201,56261,5,2,0:0:0:0:
388,217,56410,2,0,P|397:266|405:311,1,95.9999970703126,6|2,3:2|0:0,0:0:0:0:
470,369,56901,1,2,3:2:0:0:
316,270,57218,2,0,P|278:279|256:283,1,47.9999985351563,2|0,0:0|3:2,0:0:0:0:
201,225,57529,6,0,P|156:214|116:238,1,95.9999970703126,2|0,0:0|3:2,0:0:0:0:
80,337,58005,1,2,0:0:0:0:
85,339,58164,2,0,B|142:345|135:301|193:308,1,95.9999970703126,2|2,0:0|0:0,0:0:0:0:
8,281,58807,5,2,0:0:0:0:
11,276,58964,2,0,B|12:204|-39:234|-58:134|24:115|58:168,1,191.999994140625,6|2,3:2|0:0,0:0:0:0:
137,337,60225,1,2,0:0:0:0:
320,361,60845,2,0,P|338:315|316:254,1,96.3,2|2,3:2|3:2,0:0:0:0:
249,244,61473,6,0,P|211:248|115:269,1,123.6,6|2,3:2|3:2,0:0:0:0:
174,98,62426,1,2,3:2:0:0:
303,185,62759,1,0,0:0:0:0:
306,190,62917,2,0,P|349:214|442:187,1,147,2|2,3:2|3:2,0:0:0:0:
502,108,63720,6,0,P|497:84|492:61,1,47.9999985351563,10|0,0:0|0:0,0:0:0:0:
512,55,64023,6,0,B|436:72|453:11|365:31,2,143.999995605469,6|2|0,3:2|3:2|3:2,0:0:0:0:
401,122,65292,1,2,0:0:0:0:
394,128,65465,2,0,P|330:115|281:111,1,95.9999970703126,0|2,3:2|0:0,0:0:0:0:
216,63,65928,2,0,P|162:85|109:69,1,95.9999970703126,0|0,3:2|3:2,0:0:0:0:
0,220,66558,6,0,P|38:185|137:210,2,143.999995605469,6|2|0,3:2|3:2|3:2,0:0:0:0:
61,374,67832,5,0,0:0:0:0:
65,368,67994,2,0,P|72:317|81:262,1,95.9999970703126,2|2,3:2|0:0,0:0:0:0:
156,213,68470,2,0,P|185:255|169:309,1,95.9999970703126,2|0,3:2|3:2,0:0:0:0:
312,335,69098,6,0,B|353:323|414:307|414:307|456:318|461:374,1,191.999994140625,6|2,3:2|0:0,0:0:0:0:
453,174,70378,2,0,P|414:147|369:157,1,95.9999970703126
156,213,71008,6,0,P|204:235|262:220,1,95.9999970703126,2|2,3:2|3:2,0:0:0:0:
350,159,71642,2,0,P|332:237|314:318,1,143.999995605469,6|2,3:2|3:2,0:0:0:0:
190,179,72593,5,10,0:0:0:0:
271,154,72752,1,2,0:0:0:0:
219,309,73052,5,2,3:2:0:0:
138,284,73210,1,10,0:0:0:0:
0,122,73374,5,2,0:0:0:0:
81,97,73524,1,2,3:2:0:0:
219,309,73675,5,10,0:0:0:0:
57,259,73845,1,8,0:0:0:0:
187,130,74000,6,0,P|235:138|330:154,1,136.000002593994,4|2,3:2|3:2,0:0:0:0:
392,95,74476,1,8,0:0:0:0:
458,153,74634,2,0,P|450:187|440:230,1,71.9999978027344,0|2,0:0|3:2,0:0:0:0:
320,329,74957,2,0,P|306:291|310:257,1,71.9999978027344,2|8,3:2|0:0,0:0:0:0:
249,181,75276,6,0,B|167:207|167:207|131:185|136:138,1,143.999995605469,2|2,3:2|3:2,0:0:0:0:
1,267,75762,2,0,L|81:251,1,71.9999978027344,8|2,0:0|3:2,0:0:0:0:
0,145,76079,1,2,3:2:0:0:
110,74,76238,2,0,P|103:118|96:168,1,71.9999978027344,2|8,3:2|0:0,0:0:0:0:
204,274,76563,6,0,P|233:250|331:272,1,136.000002593994,2|2,3:2|3:2,0:0:0:0:
394,321,77039,1,8,0:0:0:0:
470,271,77197,2,0,P|478:235|486:200,1,71.9999978027344,0|2,0:0|3:2,0:0:0:0:
346,106,77515,2,0,P|354:141|365:185,1,71.9999978027344,2|8,3:2|0:0,0:0:0:0:
258,273,77835,6,0,B|187:290|200:228|111:257,1,136.000002593994,2|2,3:2|3:2,0:0:0:0:
259,184,78311,1,8,0:0:0:0:
179,123,78469,5,0,0:0:0:0:
347,236,78625,2,0,P|388:225|416:218,1,51.999997619629,2|2,3:2|3:2,0:0:0:0:
479,237,78931,1,8,0:0:0:0:
337,243,79088,6,0,P|346:197|366:85,1,136.000002593994,4|2,3:2|3:2,0:0:0:0:
270,50,79574,1,8,0:0:0:0:
264,51,79736,2,0,P|248:87|255:127,1,71.9999978027344,0|2,0:0|3:2,0:0:0:0:
442,182,80061,2,0,P|473:176|528:166,1,71.9999978027344,2|8,3:2|0:0,0:0:0:0:
361,109,80378,1,2,3:2:0:0:
281,170,80537,6,0,P|291:223|309:323,1,142,0|8,0:0|0:0,0:0:0:0:
388,366,81005,2,0,P|404:322|400:286,1,71.9999978027344,0|2,0:0|3:2,0:0:0:0:
220,251,81316,2,0,P|204:295|208:331,1,71.9999978027344,2|8,3:2|0:0,0:0:0:0:
207,317,81784,6,0,P|167:310|116:303,1,64,6|0,3:2|0:0,0:0:0:0:
28,232,82101,2,0,P|59:227|91:221,1,64,8|0,0:0|0:0,0:0:0:0:
170,183,82418,5,2,3:2:0:0:
93,106,82577,1,2,3:2:0:0:
193,39,82734,2,0,P|186:65|172:114,1,64,8|0,0:0|0:0,0:0:0:0:
279,203,83051,6,0,P|322:197|407:187,1,129.4,2|8,3:2|0:0,0:0:0:0:
442,279,83529,1,0,0:0:0:0:
442,279,83688,2,0,P|410:273|378:268,1,64,2|2,3:2|3:2,0:0:0:0:
487,195,84005,5,8,0:0:0:0:
281,361,84333,1,2,3:2:0:0:
248,281,84483,1,8,0:0:0:0:
367,176,84633,1,2,3:2:0:0:
337,256,84783,1,2,3:2:0:0:
269,179,84950,5,8,0:0:0:0:
427,265,85108,1,2,3:2:0:0:
281,361,85275,1,2,3:2:0:0:
340,261,85433,1,2,3:2:0:0:
281,361,85602,6,0,P|275:330|267:295,1,47.9999985351563,12|0,0:0|0:0,0:0:0:0:
285,315,86871,6,0,B|338:326|343:276|405:288,1,120,4|0,3:2|0:0,0:0:0:0:
441,362,87202,2,0,P|399:365|357:342,1,80,8|0,0:0|0:0,0:0:0:0:
494,206,87533,2,0,P|487:246|478:304,1,80,2|2,3:2|3:2,0:0:0:0:
354,150,87846,1,8,0:0:0:0:
434,93,88005,6,0,P|482:103|536:109,1,80,0|2,0:0|3:2,0:0:0:0:
398,228,88315,2,0,P|356:246|311:236,1,80,2|8,3:2|0:0,0:0:0:0:
235,173,88633,2,0,P|244:122|262:15,1,151.999995941162,2|2,3:2|3:2,0:0:0:0:
127,10,89108,2,0,P|136:52|144:103,1,80,8|0,0:0|0:0,0:0:0:0:
336,156,89429,6,0,P|380:148|476:133,1,120,2|0,3:2|0:0,0:0:0:0:
511,65,89746,2,0,P|462:50|420:59,1,80,8|0,0:0|0:0,0:0:0:0:
432,223,90063,2,0,P|471:225|508:211,1,80,2|2,3:2|3:2,0:0:0:0:
327,151,90381,1,8,0:0:0:0:
424,55,90540,6,0,P|416:91|406:148,1,80,0|2,0:0|3:2,0:0:0:0:
281,224,90857,2,0,P|239:206|194:216,1,80,2|8,3:2|0:0,0:0:0:0:
369,285,91175,2,0,B|452:258|452:258|506:282|495:330,1,160,2|2,3:2|3:2,0:0:0:0:
433,367,91651,5,8,0:0:0:0:
360,292,91809,1,0,0:0:0:0:
247,384,91968,2,0,P|293:376|342:368,1,80,2|0,3:2|0:0,0:0:0:0:
163,226,92286,1,8,0:0:0:0:
266,178,92444,6,0,P|259:217|252:256,1,80,0|2,0:0|3:2,0:0:0:0:
133,384,92762,2,0,P|115:344|117:304,1,80,2|8,3:2|0:0,0:0:0:0:
0,215,93079,6,0,P|48:205|96:196,1,80,0|2,0:0|3:2,0:0:0:0:
175,81,93397,2,0,P|135:75|96:66,1,80,0|8,0:0|0:0,0:0:0:0:
213,206,93714,2,0,B|287:221|275:162|369:185,1,141.6,2|2,3:2|3:2,0:0:0:0:
417,284,94184,2,0,P|373:274|322:268,1,71.9999978027344,8|0,0:0|0:0,0:0:0:0:
471,139,94502,6,0,P|489:179|487:219,1,80,2|0,3:2|0:0,0:0:0:0:
345,142,94819,2,0,P|360:63|372:5,1,120,8|0,0:0|0:0,0:0:0:0:
272,0,95136,2,0,P|250:36|255:80,1,80,2|2,3:2|3:2,0:0:0:0:
133,157,95454,2,0,P|125:117|117:78,1,80,8|0,0:0|0:0,0:0:0:0:
74,227,95769,1,2,3:2:0:0:
217,165,95927,1,2,3:2:0:0:
85,96,96086,1,8,0:0:0:0:
195,261,96232,6,0,B|254:270|248:224|315:234,1,120,2|0,3:2|0:0,0:0:0:0:
385,277,96566,1,8,0:0:0:0:
293,319,96721,5,8,0:0:0:0:
387,185,96876,1,8,0:0:0:0:
473,331,97032,6,0,P|484:272|497:213,1,120,4|0,3:2|0:0,0:0:0:0:
512,114,97349,2,0,P|472:121|412:129,1,80,8|0,0:0|0:0,0:0:0:0:
279,67,97666,2,0,P|323:53|375:65,1,80,2|2,3:2|3:2,0:0:0:0:
178,187,97984,1,8,0:0:0:0:
265,238,98143,2,0,P|271:198|278:159,1,81.4,0|2,0:0|3:2,0:0:0:0:
71,124,98463,2,0,P|77:163|84:202,1,80,0|8,0:0|0:0,0:0:0:0:
162,352,98782,6,0,P|188:329|304:363,1,143.999995605469,2|2,3:2|3:2,0:0:0:0:
368,245,99244,2,0,P|328:239|291:232,1,71.9999978027344,8|0,0:0|0:0,0:0:0:0:
370,354,99566,6,0,P|423:344|525:333,1,143.999995605469,2|8,3:2|0:0,0:0:0:0:
364,253,100054,2,0,P|346:211|352:169,1,80,0|2,0:0|3:2,0:0:0:0:
462,96,100371,1,2,3:2:0:0:
371,57,100530,1,8,0:0:0:0:
483,18,100688,5,0,0:0:0:0:
360,163,100847,1,2,3:2:0:0:
278,4,101006,1,2,3:2:0:0:
129,96,101165,2,0,P|200:106|290:121,1,160,8|0,0:0|0:0,0:0:0:0:
285,11,101640,5,2,3:2:0:0:
119,0,101800,2,0,P|82:14|54:43,1,80,8|0,0:0|0:0,0:0:0:0:
66,173,102113,2,0,P|105:178|144:185,1,80,2|0,3:2|0:0,0:0:0:0:
196,84,102430,1,8,0:0:0:0:
271,217,102589,6,0,P|276:177|284:138,1,80,0|2,0:0|3:2,0:0:0:0:
173,264,102903,2,0,P|156:302|159:342,1,80,2|8,3:2|0:0,0:0:0:0:
142,348,103385,6,0,B|198:336|198:336|226:355|226:355|313:334,1,160.3,2|8,3:2|0:0,0:0:0:0:
369,182,103863,1,0,0:0:0:0:
267,242,104022,1,2,3:2:0:0:
416,341,104181,1,2,3:2:0:0:
363,270,104334,5,8,0:0:0:0:
363,270,104491,1,0,0:0:0:0:
423,334,104648,2,0,P|466:326|502:318,1,71.9999978027344,2|0,3:2|0:0,0:0:0:0:
276,257,104962,2,0,P|240:251|190:244,1,71.9999978027344,8|0,0:0|0:0,0:0:0:0:
370,48,105277,5,8,0:0:0:0:
278,86,105444,1,8,0:0:0:0:
317,175,105612,1,2,3:2:0:0:
411,138,105781,1,2,3:2:0:0:
347,111,105954,5,4,0:2:0:0:
256,192,106033,12,0,107915,3:1:0:0:
