osu file format v14

[General]
AudioFilename: audio.mp3
AudioLeadIn: 0
PreviewTime: 30125
Countdown: 0
SampleSet: Soft
StackLeniency: 0.7
Mode: 0
LetterboxInBreaks: 0
WidescreenStoryboard: 1

[Editor]
DistanceSpacing: 1.1
BeatDivisor: 4
GridSize: 32
TimelineZoom: 2.163737

[Metadata]
Title:Hikari e (TV Size)
TitleUnicode:ヒカリへ (TV Size)
Artist:The BABYSTARS
ArtistUnicode:ザ・ベイビースターズ
Creator:iYiyo
Version:Blue Sky
Source:ONE PIECE
Tags:Yohanes Atsuro Janssen Irohas Mugiwarasekai Mortem ワンピース opening 3 op3 toei animation pirates Anime Japanese j-rock jrock rock ベビスタ Bebisuta 田中明仁 Akihito Tanaka 高橋りきや Takahashi Rikiya
BeatmapID:1818327
BeatmapSetID:851839

[Difficulty]
HPDrainRate:6
CircleSize:4.2
OverallDifficulty:8.5
ApproachRate:9.3
SliderMultiplier:1.8
SliderTickRate:1

[Events]
//Background and Video events
0,0,"one-piece0088.jpg",0,0
Video,247,"video.mp4"
//Break Periods
//Storyboard Layer 0 (Background)
//Storyboard Layer 1 (Fail)
//Storyboard Layer 2 (Pass)
//Storyboard Layer 3 (Foreground)
//Storyboard Layer 4 (Overlay)
//Storyboard Sound Samples

[TimingPoints]
582,317.460317460317,4,2,1,50,1,0
582,-200,4,2,1,50,0,0
3105,317.460317460317,4,2,1,50,1,0
3105,-200,4,2,1,50,0,0
4073,317.460317460317,4,2,1,50,1,0
4581,314.13612565445,4,2,1,50,1,0
5194,314.13612565445,4,2,1,50,1,0
5670,317.460317460317,4,2,1,50,1,0
15484,317.460317460317,4,2,1,50,1,0
15800,317.460317460317,4,2,1,50,1,0
19313,317.460317460317,4,2,1,50,1,0
20891,317.460317460317,4,2,1,50,1,0
23450,315.78947368421,4,2,1,50,1,0
24871,306.122448979592,4,2,1,50,1,0
25024,304.568527918782,4,2,1,50,1,0
25326,310.880829015544,4,2,1,60,1,0
25636,304.568527918782,4,2,1,60,1,0
25952,317.460317460317,4,2,1,70,1,0
27235,333.333333333333,4,2,1,70,1,0
27568,306.122448979592,4,2,1,70,1,0
27889,317.460317460317,4,2,1,70,1,0
28535,320.855614973262,4,2,1,70,1,0
29179,314.96062992126,4,2,1,70,1,0
29486,319.659030367608,4,2,1,70,1,0
30285,327.868852459016,4,2,1,30,1,0
30612,309.278350515464,4,2,1,30,1,0
31052,317.460317460317,4,2,1,80,1,1
31052,-83.3333333333333,4,2,1,80,0,1
39938,317.460317460317,4,2,1,80,1,1
39938,-83.3333333333333,4,2,1,80,0,1
40250,317.460317460317,4,2,1,80,1,1
40402,317.460317460317,4,2,1,80,1,1
40698,348.837209302325,4,2,1,80,1,1
41022,324.324324324324,4,2,1,80,1,1
41186,331.491712707182,4,2,1,80,1,1
41186,-83.3333333333333,4,2,1,80,0,1
41683,298.507462686567,4,2,1,80,1,1
41683,-83.3333333333333,4,2,1,80,0,1
41832,331.491712707183,4,2,1,80,1,1
41832,-83.3333333333333,4,2,1,80,0,1
41997,309.278350515464,4,2,1,80,1,1
41997,-83.3333333333333,4,2,1,80,0,1
42151,331.491712707183,4,2,1,80,1,1
42151,-83.3333333333333,4,2,1,80,0,1
42316,310.880829015544,4,2,1,80,1,1
42316,-83.3333333333333,4,2,1,80,0,1
42471,317.460317460317,4,2,1,80,1,1
42471,-83.3333333333333,4,2,1,80,0,1
43745,317.460317460317,4,2,1,80,1,1
43745,-83.3333333333333,4,2,1,80,0,1
46287,322.58064516129,4,2,1,80,1,1
46287,-83.3333333333333,4,2,1,80,0,1
46932,310.880829015544,4,2,1,80,1,1
46932,-83.3333333333333,4,2,1,80,0,1
47087,304.568527918782,4,2,1,80,1,1
47087,-83.3333333333333,4,2,1,80,0,1
47239,310.880829015544,4,2,1,80,1,1
47554,320.855614973262,4,2,1,80,1,1
47554,-83.3333333333333,4,2,1,80,0,1
48192,288.461538461538,4,2,1,80,1,1
48192,-83.3333333333333,4,2,1,80,0,1
48801,317.460317460317,4,2,1,70,1,0
48801,-83.3333333333333,4,2,1,70,0,0
49435,315.789473684211,4,2,1,70,1,0
49750,307.692307692308,4,2,1,70,1,0
49750,-83.3333333333333,4,2,1,70,0,0
50067,317.460317460317,4,2,1,70,1,0
50067,-83.3333333333333,4,2,1,70,0,0
50700,317.460317460317,4,2,1,70,1,0
51017,304.568527918782,4,2,1,70,1,0
51017,-83.3333333333333,4,2,1,70,0,0
51330,317.460317460317,4,2,1,70,1,0
51330,-83.3333333333333,4,2,1,70,0,0
52287,312.5,4,2,1,70,1,0
52287,-83.3333333333333,4,2,1,70,0,0
52599,285.714285714286,4,2,1,70,1,0
52599,-83.3333333333333,4,2,1,70,0,0
52893,317.460317460317,4,2,1,70,1,0
53844,317.460317460317,4,2,1,40,1,0
53844,-125,4,2,1,40,0,0
54334,317.460317460317,4,2,1,40,1,0
54334,-125,4,2,1,40,0,0
54659,317.460317460317,4,2,1,40,1,0
54659,-125,4,2,1,40,0,0
55135,322.58064516129,4,2,1,40,1,0
55135,-125,4,2,1,40,0,0
55296,317.460317460317,4,2,1,40,1,0
55621,317.460317460317,4,2,1,40,1,0
55621,-125,4,2,1,40,0,0
55944,317.460317460317,4,2,1,40,1,0
55944,-125,4,2,1,40,0,0
56410,317.460317460317,4,2,1,40,1,0
56410,-125,4,2,1,40,0,0
56901,317.460317460317,4,2,1,40,1,0
56901,-125,4,2,1,40,0,0
57218,306.122448979592,4,2,1,40,1,0
57371,317.460317460317,4,2,1,40,1,0
57371,-125,4,2,1,40,0,0
58482,333.333333333333,4,2,1,40,1,0
58482,-125,4,2,1,40,0,0
58649,317.460317460317,4,2,1,40,1,0
58964,312.5,4,2,1,40,1,0
58964,-125,4,2,1,40,0,0
59432,317.460317460317,4,2,1,40,1,0
59432,-125,4,2,1,40,0,0
60225,310.880829015544,4,2,1,40,1,0
60225,-125,4,2,1,40,0,0
60384,307.692307692308,4,2,1,40,1,0
60384,-125,4,2,1,40,0,0
60845,319.148936170213,4,2,1,40,1,0
60845,-125,4,2,1,40,0,0
61165,317.460317460317,4,2,1,40,1,0
61473,327.868852459016,4,2,1,40,1,0
61473,-125,4,2,1,40,0,0
61979,298.507462686567,4,2,1,40,1,0
61979,-125,4,2,1,40,0,0
62426,333.333333333333,4,2,1,40,1,0
62426,-125,4,2,1,40,0,0
62759,317.460317460317,4,2,1,40,1,0
62759,-125,4,2,1,40,0,0
63403,317.460317460317,4,2,1,40,1,0
63403,-125,4,2,1,40,0,0
63868,612.244897959184,4,2,1,40,1,0
64023,317.460317460317,4,2,1,40,1,0
64023,-125,4,2,1,40,0,0
65292,346.820809248555,4,2,1,40,1,0
65292,-125,4,2,1,40,0,0
65465,309.278350515464,4,2,1,40,1,0
65465,-125,4,2,1,40,0,0
66558,317.460317460317,4,2,1,40,1,0
66558,-125,4,2,1,40,0,0
67669,326.086956521739,4,2,1,40,1,0
67669,-125,4,2,1,40,0,0
67994,317.460317460317,4,2,1,40,1,0
67994,-125,4,2,1,40,0,0
69098,317.460317460317,4,2,1,40,1,0
69098,-125,4,2,1,40,0,0
70378,317.460317460317,4,2,1,40,1,0
70378,-125,4,2,1,40,0,0
71008,317.460317460317,4,2,1,40,1,0
71008,-125,4,2,1,40,0,0
72276,317.460317460317,4,2,1,40,1,0
72752,300,4,2,1,50,1,0
73052,317.460317460317,4,2,1,50,1,0
73374,301.507537688442,4,2,1,50,1,0
73845,310.880829015544,4,2,1,50,1,0
74000,317.460317460317,4,2,1,60,1,0
74634,329.67032967033,4,2,1,60,1,0
74798,319.148936170213,4,2,1,60,1,0
75276,315.789473684211,4,2,1,60,1,0
75591,340.909090909091,4,2,1,60,1,0
75762,317.460317460317,4,2,1,60,1,0
76563,317.460317460317,4,2,1,60,1,0
77835,317.460317460317,4,2,1,60,1,0
78469,312.5,4,2,1,60,1,0
78781,300,4,2,1,60,1,0
79088,324.324324324324,4,2,1,60,1,0
80061,317.460317460317,4,2,1,60,1,0
80695,310.880829015544,4,2,1,60,1,0
81316,309.278350515464,4,2,1,60,1,0
81784,317.460317460317,4,2,1,60,1,0
82734,317.460317460317,4,2,1,60,1,0
83371,317.460317460317,4,2,1,60,1,0
84333,300,4,2,1,60,1,0
84950,317.460317460317,4,2,1,60,1,0
85275,317.460317460317,4,2,1,60,1,0
85602,327.868852459016,4,2,1,60,1,0
86093,320.855614973262,4,2,1,30,1,0
86413,309.278350515464,4,2,1,30,1,0
86567,284.36018957346,4,2,1,30,1,0
86709,317.460317460317,4,2,1,30,1,0
86871,331.491712707182,4,2,1,80,1,1
86871,-83.3333333333333,4,2,1,80,0,1
87533,309.278350515464,4,2,1,50,1,1
87688,317.460317460317,4,2,1,80,1,1
87688,-83.3333333333333,4,2,1,80,0,1
88005,306.122448979592,4,2,1,80,1,1
88005,-83.3333333333333,4,2,1,80,0,1
88157,317.460317460317,4,2,1,80,1,1
88157,-83.3333333333333,4,2,1,80,0,1
88633,312.5,4,2,1,80,1,1
88633,-83.3333333333333,4,2,1,80,0,1
88945,327.868852459016,4,2,1,80,1,1
89429,317.460317460317,4,2,1,80,1,1
89429,-83.3333333333333,4,2,1,80,0,1
94026,317.460317460317,4,2,1,80,1,1
94502,317.460317460317,4,2,1,80,1,1
94502,-83.3333333333333,4,2,1,80,0,1
95769,317.460317460317,4,2,1,80,1,1
95769,-83.3333333333333,4,2,1,80,0,1
96232,350.877192982456,4,2,1,80,1,1
96566,310.880829015544,4,2,1,80,1,1
97032,317.460317460317,4,2,1,80,1,1
97032,-83.3333333333333,4,2,1,80,0,1
98304,319.148936170213,4,2,1,80,1,1
98304,-83.3333333333333,4,2,1,80,0,1
98782,303.030303030303,4,2,1,50,1,1
98782,-83.3333333333333,4,2,1,50,0,1
99086,317.460317460317,4,2,1,80,1,1
99086,-83.3333333333333,4,2,1,80,0,1
99566,320.855614973262,4,2,1,80,1,1
99566,-83.3333333333333,4,2,1,80,0,1
100054,317.460317460317,4,2,1,80,1,1
100054,-83.3333333333333,4,2,1,80,0,1
100847,317.460317460317,4,2,1,80,1,1
100847,-83.3333333333333,4,2,1,80,0,1
102113,317.460317460317,4,2,1,80,1,1
102113,-83.3333333333333,4,2,1,80,0,1
102589,314.13612565445,4,2,1,80,1,1
102589,-83.3333333333333,4,2,1,80,0,1
103385,317.460317460317,4,2,1,80,1,1
103385,-83.3333333333333,4,2,1,80,0,1
103705,317.460317460317,4,2,1,80,1,1
103705,-83.3333333333333,4,2,1,80,0,1
104334,314.13612565445,4,2,1,80,1,1
104334,-83.3333333333333,4,2,1,80,0,1
105119,317.460317460317,4,2,1,80,1,1
105444,337.078651685393,4,2,1,80,1,1
105954,317.460317460317,4,2,1,80,1,0
107658,307.692307692308,4,2,1,80,1,0
107734,277.777777777778,4,2,1,80,1,0
107915,307.692307692308,4,2,1,80,1,0

[Colours]
Combo1 : 255,128,64
Combo2 : 255,55,55
Combo3 : 0,240,120
Combo4 : 255,255,94
Combo5 : 0,128,255

[HitObjects]
113,258,582,6,0,B|166:276|203:227|203:227|276:226|313:271|313:271|380:248|414:186,1,360,4|2,0:0|0:0,0:0:0:0:
329,97,2169,1,0,3:0:0:0:
287,46,2275,1,0,3:0:0:0:
232,33,2381,1,0,3:0:0:0:
185,44,2487,1,2,3:2:0:0:
162,75,2593,1,0,3:0:0:0:
162,99,2699,1,0,3:0:0:0:
171,113,2804,1,0,3:0:0:0:
180,119,3105,6,0,B|229:131|233:181|233:181|190:211|202:270,1,180,4|0,3:2|0:0,0:0:0:0:
180,119,4073,1,8,0:0:0:0:
333,201,4231,2,0,P|294:179|250:182,1,90,2|0,3:2|0:0,0:0:0:0:
70,198,4581,2,0,P|108:219|152:216,1,90,2|0,3:2|0:0,0:0:0:0:
333,201,4895,1,2,3:2:0:0:
180,119,5052,1,2,3:2:0:0:
327,27,5194,1,2,3:2:0:0:
339,375,5351,1,8,0:0:0:0:
339,375,5670,5,6,3:2:0:0:
430,302,5828,1,2,0:0:0:0:
335,230,5987,2,0,P|292:219|249:230,1,90,10|2,0:0|0:0,0:0:0:0:
178,340,6304,2,0,P|166:297|136:265,1,90,0|0,3:2|3:2,0:0:0:0:
36,203,6622,1,10,0:0:0:0:
142,250,6781,1,2,0:0:0:0:
205,152,6939,1,2,3:2:0:0:
311,199,7098,2,0,P|354:209|397:199,2,90,2|8|0,3:2|0:0|0:0,0:0:0:0:
445,92,7574,1,2,3:2:0:0:
506,191,7733,1,2,3:2:0:0:
436,285,7892,2,0,P|425:328|435:371,1,90,10|0,0:0|0:0,0:0:0:0:
169,261,8209,5,2,3:2:0:0:
243,350,8368,1,2,0:0:0:0:
304,249,8527,2,0,P|314:205|304:162,1,90,10|2,0:0|0:0,0:0:0:0:
216,85,8844,2,0,P|172:74|129:84,1,90,0|0,3:2|3:2,0:0:0:0:
31,277,9162,1,10,0:0:0:0:
122,203,9320,1,2,0:0:0:0:
184,302,9479,1,2,3:2:0:0:
274,227,9638,2,0,P|317:216|360:226,2,90,2|8|0,3:2|0:0|0:0,0:0:0:0:
177,48,10114,1,2,3:2:0:0:
275,111,10273,1,2,3:2:0:0:
372,44,10431,2,0,P|415:33|458:44,1,90,8|0,0:0|0:0,0:0:0:0:
330,353,10749,5,2,3:2:0:0:
362,241,10908,1,2,0:0:0:0:
284,153,11066,2,0,P|240:142|197:153,1,90,10|2,0:0|0:0,0:0:0:0:
35,71,11384,2,0,P|48:114|80:146,1,90,0|0,3:2|3:2,0:0:0:0:
69,336,11701,1,10,0:0:0:0:
143,245,11860,1,2,0:0:0:0:
244,302,12019,1,2,3:2:0:0:
318,211,12177,2,0,P|361:200|404:210,2,90,2|8|0,3:2|0:0|0:0,0:0:0:0:
452,339,12654,1,2,3:2:0:0:
501,232,12812,1,2,3:2:0:0:
446,128,12971,2,0,P|435:84|446:41,1,90,10|2,0:0|0:0,0:0:0:0:
163,94,13289,5,2,3:2:0:0:
274,60,13447,1,2,0:0:0:0:
356,143,13606,2,0,P|398:155|441:143,1,90,10|2,0:0|0:0,0:0:0:0:
475,284,13923,2,0,P|432:271|389:283,1,90,0|0,3:2|3:2,0:0:0:0:
214,351,14241,1,10,0:0:0:0:
111,295,14400,1,2,0:0:0:0:
191,209,14558,1,2,3:2:0:0:
88,153,14717,2,0,P|56:121|45:78,2,90,2|8|0,3:2|0:0|0:0,0:0:0:0:
246,46,15193,1,2,3:2:0:0:
333,123,15352,1,2,3:2:0:0:
446,94,15484,2,0,P|477:125|488:168,1,90,12|0,0:0|0:0,0:0:0:0:
243,330,15801,5,2,3:2:0:0:
189,226,15958,1,2,0:0:0:0:
302,196,16117,1,10,0:0:0:0:
248,92,16276,2,0,P|178:61|95:126,1,180,2|0,0:0|3:2,0:0:0:0:
53,327,16752,1,10,0:0:0:0:
8,218,16911,1,2,0:0:0:0:
80,327,17069,1,2,3:2:0:0:
35,218,17228,2,0,L|221:229,1,180,2|0,3:2|0:0,0:0:0:0:
446,276,17704,1,2,3:2:0:0:
367,188,17863,1,2,3:2:0:0:
459,293,18022,2,0,P|467:249|451:207,1,90,8|0,0:0|0:0,0:0:0:0:
255,20,18339,5,2,3:2:0:0:
164,94,18498,1,2,0:0:0:0:
242,181,18657,1,10,0:0:0:0:
151,254,18815,2,0,B|112:298|133:358|133:358|171:350|208:351,1,180,2|0,0:0|3:2,0:0:0:0:
333,107,19313,1,10,0:0:0:0:
448,127,19471,1,2,0:0:0:0:
334,133,19630,1,2,3:2:0:0:
449,153,19789,2,0,B|451:264|451:264|387:237,1,180,2|0,3:2|0:0,0:0:0:0:
143,181,20265,1,2,3:2:0:0:
231,257,20424,1,2,3:2:0:0:
130,164,20582,2,0,P|121:207|137:249,1,90,8|0,0:0|0:0,0:0:0:0:
431,68,20891,5,2,3:2:0:0:
330,128,21049,1,2,0:0:0:0:
252,40,21208,1,10,0:0:0:0:
150,100,21367,2,0,P|122:182|160:261,1,180,2|0,0:0|3:2,0:0:0:0:
344,337,21843,1,10,0:0:0:0:
451,290,22002,1,2,0:0:0:0:
346,314,22160,1,2,3:2:0:0:
453,267,22319,2,0,B|459:189|459:189|437:159|437:159|445:87,1,180,2|0,3:2|0:0,0:0:0:0:
191,108,22795,1,2,3:2:0:0:
274,26,22954,1,2,3:2:0:0:
174,121,23113,2,0,P|217:129|259:113,1,90,8|0,0:0|0:0,0:0:0:0:
50,33,23450,5,2,3:2:0:0:
86,143,23607,1,2,0:0:0:0:
28,244,23765,1,10,0:0:0:0:
64,353,23923,2,0,P|145:321|226:356,1,180,2|0,0:0|3:2,0:0:0:0:
488,189,24397,1,10,0:0:0:0:
387,247,24555,1,2,3:2:0:0:
477,157,24713,1,2,3:2:0:0:
376,215,24871,2,0,P|309:222|189:203,1,180,2|0,3:2|0:0,0:0:0:0:
199,206,25252,1,8,0:0:0:0:
199,206,25326,1,8,0:0:0:0:
303,17,25481,1,8,0:0:0:0:
95,170,25636,1,2,3:2:0:0:
327,272,25788,1,2,3:2:0:0:
85,93,25952,6,0,P|20:148|47:229,1,180,6|2,3:2|3:2,0:0:0:0:
427,291,26586,2,0,P|491:235|464:154,1,180,10|2,0:0|0:0,0:0:0:0:
372,81,27063,1,0,3:2:0:0:
267,105,27235,2,0,L|279:194,2,90,2|8|2,3:2|0:0|0:0,0:0:0:0:
168,43,27721,1,0,3:2:0:0:
372,81,27889,1,10,0:0:0:0:
227,328,28206,1,2,0:0:0:0:
285,56,28535,5,2,3:2:0:0:
338,363,28855,1,2,3:2:0:0:
285,56,29179,5,10,0:0:0:0:
134,87,29336,1,8,0:0:0:0:
118,239,29486,1,2,3:2:0:0:
258,301,29645,1,2,3:2:0:0:
361,188,29805,1,12,0:0:0:0:
361,188,30285,5,2,0:0:0:0:
400,278,30448,2,0,P|356:289|314:275,1,90,2|2,0:0|0:0,0:0:0:0:
278,185,30766,2,0,P|320:171|361:188,1,90,2|2,0:0|0:0,0:0:0:0:
77,322,31052,6,0,P|60:273|76:222,1,107.999996704102,4|0,3:2|0:0,0:0:0:0:
156,126,31369,1,8,0:0:0:0:
278,185,31528,2,0,P|327:202|378:186,1,107.999996704102,0|2,0:0|3:2,0:0:0:0:
157,24,31845,2,0,P|139:74|155:125,1,107.999996704102,2|8,3:2|0:0,0:0:0:0:
378,186,32163,6,0,P|395:136|379:85,1,107.999996704102,0|2,0:0|3:2,0:0:0:0:
162,254,32480,1,2,3:2:0:0:
256,342,32639,1,8,0:0:0:0:
464,258,32798,2,0,B|414:210|414:210|267:230,1,215.999993408203,2|2,3:2|3:2,0:0:0:0:
90,93,33274,1,8,0:0:0:0:
203,165,33432,1,0,0:0:0:0:
312,85,33591,6,0,P|360:64|411:80,1,107.999996704102,2|0,3:2|0:0,0:0:0:0:
435,340,33909,1,8,0:0:0:0:
342,252,34067,2,0,L|363:146,1,107.999996704102,0|2,0:0|3:2,0:0:0:0:
199,299,34385,2,0,P|150:318|99:302,1,107.999996704102,2|8,3:2|0:0,0:0:0:0:
172,133,34702,6,0,L|150:238,1,107.999996704102,0|2,0:0|3:2,0:0:0:0:
326,49,35020,2,0,L|305:155,1,107.999996704102,0|8,0:0|0:0,0:0:0:0:
408,307,35337,2,0,P|328:355|310:264,1,215.999993408203,2|2,3:2|3:2,0:0:0:0:
397,89,35813,1,8,0:0:0:0:
445,213,35972,1,0,0:0:0:0:
312,192,36131,5,2,3:2:0:0:
477,38,36290,2,0,P|496:92|475:141,1,107.999996704102,0|8,0:0|0:0,0:0:0:0:
312,192,36607,2,0,P|292:142|311:93,1,107.999996704102,0|2,0:0|3:2,0:0:0:0:
363,272,36925,2,0,P|314:292|264:273,1,107.999996704102,2|8,3:2|0:0,0:0:0:0:
209,127,37242,6,0,P|190:77|211:24,1,107.999996704102,0|2,0:0|3:2,0:0:0:0:
101,203,37559,2,0,P|63:246|8:251,1,107.999996704102,2|8,3:2|0:0,0:0:0:0:
221,259,37877,2,0,P|281:268|318:317,1,107.999996704102,2|0,3:2|0:0,0:0:0:0:
407,164,38194,2,0,L|416:280,2,107.999996704102,2|8|0,3:2|0:0|0:0,0:0:0:0:
260,166,38671,6,0,L|268:57,1,107.999996704102,2|0,3:2|0:0,0:0:0:0:
496,144,38988,2,0,L|486:36,1,107.999996704102,8|0,0:0|0:0,0:0:0:0:
267,58,39305,1,2,3:2:0:0:
128,81,39464,1,2,3:2:0:0:
321,283,39623,2,0,L|311:175,1,107.999996704102,8|0,0:0|0:0,0:0:0:0:
85,213,39938,2,0,L|76:321,1,107.999996704102,2|2,3:2|3:2,0:0:0:0:
128,81,40250,5,8,0:0:0:0:
319,119,40402,1,2,3:2:0:0:
190,265,40560,1,0,0:0:0:0:
240,12,40698,5,2,3:2:0:0:
322,251,40872,1,8,0:0:0:0:
74,201,41022,1,0,0:0:0:0:
379,334,41186,6,0,P|415:297|417:241,1,107.999996704102,4|0,3:2|0:0,0:0:0:0:
341,137,41517,1,8,0:0:0:0:
208,163,41683,2,0,P|166:130|145:81,1,107.999996704102,0|2,0:0|3:2,0:0:0:0:
205,298,41997,2,0,P|155:318|102:311,1,107.999996704102,2|8,3:2|0:0,0:0:0:0:
341,137,42316,6,0,P|389:115|441:122,1,107.999996704102,0|2,0:0|3:2,0:0:0:0:
383,347,42629,1,2,3:2:0:0:
283,255,42788,1,8,0:0:0:0:
176,341,42947,2,0,P|132:308|112:259,1,107.999996704102,2|0,3:2|0:0,0:0:0:0:
341,137,43264,1,2,3:2:0:0:
399,240,43423,2,0,L|382:346,1,107.999996704102,8|0,0:0|0:0,0:0:0:0:
176,341,43745,6,0,L|69:326,1,107.999996704102,2|0,3:2|0:0,0:0:0:0:
57,186,44062,1,8,0:0:0:0:
193,146,44221,2,0,L|299:160,1,107.999996704102,0|2,0:0|3:2,0:0:0:0:
430,212,44538,1,2,3:2:0:0:
405,73,44697,1,8,0:0:0:0:
332,310,44856,6,0,P|286:283|233:283,1,107.999996704102,0|2,0:0|3:2,0:0:0:0:
193,146,45173,2,0,L|223:360,1,215.999993408203,2|2,3:2|3:2,0:0:0:0:
52,77,45649,2,0,L|74:236,2,161.999995056153,0|0|0,0:0|0:0|0:0,0:0:0:0:
215,20,46287,6,0,P|267:10|313:35,1,107.999996704102,2|0,3:2|0:0,0:0:0:0:
380,159,46609,1,8,0:0:0:0:
329,289,46770,2,0,P|276:298|230:273,1,107.999996704102,0|2,0:0|3:2,0:0:0:0:
106,209,47087,2,0,L|89:103,1,107.999996704102,2|8,3:2|0:0,0:0:0:0:
205,58,47394,1,0,0:0:0:0:
202,198,47554,6,0,P|252:214|307:181,1,107.999996704102,2|0,3:2|0:0,0:0:0:0:
388,81,47874,2,0,P|434:57|485:73,1,107.999996704102,8|0,0:0|0:0,0:0:0:0:
445,324,48192,1,2,3:2:0:0:
331,351,48336,1,2,3:2:0:0:
210,306,48480,2,0,L|216:198,1,107.999996704102,8|0,0:0|0:0,0:0:0:0:
380,159,48801,6,0,P|398:208|376:255,1,107.999996704102,4|2,3:2|0:0,0:0:0:0:
281,114,49118,2,0,P|261:68|289:15,1,107.999996704102,8|0,0:0|0:0,0:0:0:0:
501,224,49435,1,2,3:2:0:0:
436,310,49592,1,2,3:2:0:0:
327,302,49750,2,0,P|277:284|228:303,1,107.999996704102,8|0,0:0|0:0,0:0:0:0:
57,159,50067,6,0,P|39:208|61:256,1,107.999996704102,2|2,3:2|3:2,0:0:0:0:
160,102,50384,2,0,P|179:53|165:2,1,107.999996704102,8|0,0:0|0:0,0:0:0:0:
306,178,50700,1,2,3:2:0:0:
409,146,50858,1,2,3:2:0:0:
498,206,51017,2,0,L|476:311,1,107.999996704102,8|0,0:0|0:0,0:0:0:0:
306,178,51330,6,0,B|296:70,1,107.999996704102,2|2,3:2|3:2,0:0:0:0:
209,269,51647,2,0,B|217:376,1,107.999996704102,8|0,0:0|0:0,0:0:0:0:
120,75,51964,1,2,3:2:0:0:
209,135,52123,1,2,3:2:0:0:
302,84,52287,2,0,L|409:86,1,107.999996704102,8|0,0:0|0:0,0:0:0:0:
340,306,52599,2,0,L|344:198,1,107.999996704102,2|2,3:2|0:0,0:0:0:0:
482,32,52893,5,8,0:0:0:0:
509,95,53051,1,8,0:0:0:0:
503,142,53210,1,0,3:0:0:0:
482,168,53369,1,0,3:0:0:0:
460,176,53527,1,0,3:0:0:0:
443,173,53686,1,0,3:0:0:0:
435,163,53844,6,0,L|340:168,1,72,4|0,0:2|0:0,0:0:0:0:
288,139,54161,1,2,0:0:0:0:
212,169,54334,2,0,L|216:263,1,72,2|0,3:2|0:0,0:0:0:0:
275,289,54659,2,0,P|207:269|176:333,1,144,2|2,0:0|0:0,0:0:0:0:
103,339,55135,2,0,P|98:298|91:251,1,72,0|0,0:0|3:2,0:0:0:0:
40,207,55454,1,2,0:0:0:0:
108,172,55621,2,0,P|104:131|103:96,1,72,2|0,0:0|3:2,0:0:0:0:
152,37,55944,2,0,P|114:42|76:38,1,72,2|0,0:0|3:2,0:0:0:0:
201,97,56261,1,2,0:0:0:0:
260,45,56410,6,0,P|304:38|348:43,1,72,6|0,3:2|0:0,0:0:0:0:
402,80,56727,1,2,0:0:0:0:
451,149,56901,2,0,P|444:183|443:235,1,72,2|0,3:2|0:0,0:0:0:0:
373,281,57218,2,0,P|361:206|323:97,1,182.4,2|2,0:0|0:0,0:0:0:0:
301,29,57688,2,0,P|344:26|382:21,1,72,2|0,0:0|3:2,0:0:0:0:
244,88,58005,1,2,0:0:0:0:
204,158,58164,2,0,P|203:196|217:231,1,72,2|2,0:0|3:2,0:0:0:0:
247,301,58482,2,0,P|280:282|305:252,1,72,2|0,0:0|3:2,0:0:0:0:
309,175,58807,1,2,0:0:0:0:
309,175,58964,6,0,P|391:108|471:176,1,216,6|2,3:2|3:2,0:0:0:0:
361,295,59590,2,0,L|423:74,1,216,2|2,0:0|0:0,0:0:0:0:
203,175,60225,2,0,P|120:108|40:176,1,216,2|0,0:0|0:0,0:0:0:0:
151,295,60845,2,0,L|88:74,1,216,2|0,3:2|0:0,0:0:0:0:
398,62,61473,6,0,P|363:79|326:74,2,72,6|0|0,3:2|0:0|0:0,0:0:0:0:
463,101,61979,2,0,P|479:135|474:172,1,72,2|0,3:2|0:0,0:0:0:0:
423,231,62277,1,0,0:0:0:0:
347,243,62426,2,0,L|360:318,2,72,2|0|0,3:2|0:0|0:0,0:0:0:0:
271,227,62917,2,0,L|243:76,1,144,2|0,3:2|0:0,0:0:0:0:
318,60,63403,2,0,L|331:135,1,72,2|2,3:2|3:2,0:0:0:0:
345,210,63720,1,10,0:0:0:0:
268,182,63868,1,2,0:0:0:0:
117,254,64023,6,0,P|150:274|187:270,1,72,6|0,3:2|0:0,0:0:0:0:
185,159,64340,1,2,0:0:0:0:
110,177,64499,2,0,L|116:253,1,72,2|0,3:2|0:0,0:0:0:0:
185,159,64816,2,0,L|191:82,1,72,2|0,0:0|3:2,0:0:0:0:
255,41,65134,1,2,0:0:0:0:
331,44,65292,2,0,P|345:79|341:116,1,72,2|0,0:0|3:2,0:0:0:0:
340,193,65619,1,2,0:0:0:0:
395,244,65774,2,0,P|431:258|468:253,1,72,2|0,0:0|3:2,0:0:0:0:
340,193,66083,2,0,L|354:345,1,144,2|0,0:0|0:0,0:0:0:0:
276,342,66558,6,0,B|234:319|234:319|206:327,1,72,6|0,3:2|0:0,0:0:0:0:
142,284,66875,1,2,0:0:0:0:
174,214,67034,2,0,B|216:237|216:237|243:228,1,72,2|0,3:2|0:0,0:0:0:0:
277,158,67351,2,0,L|271:234,1,72,2|0,0:0|3:2,0:0:0:0:
347,231,67669,2,0,B|353:153|353:153|400:211,1,144,2|2,0:0|3:2,0:0:0:0:
445,272,68152,1,2,0:0:0:0:
389,324,68311,2,0,P|353:336|316:325,1,72,2|2,0:0|3:2,0:0:0:0:
256,278,68628,2,0,P|222:259|185:264,1,72,2|0,0:0|3:2,0:0:0:0:
116,298,68946,1,2,0:0:0:0:
186,87,69098,6,0,P|146:181|42:149,1,216,6|0,3:2|3:2,0:0:0:0:
20,68,69732,2,0,L|14:297,1,216,2|2,0:0|0:0,0:0:0:0:
326,87,70378,2,0,P|365:181|470:149,1,216,0|0,0:0|0:0,0:0:0:0:
492,68,71008,2,0,L|498:297,1,216,2|0,3:2|0:0,0:0:0:0:
353,339,71642,6,0,P|336:304|340:267,1,72,6|0,3:2|0:0,0:0:0:0:
234,217,71960,2,0,P|249:252|246:290,1,72,0|2,0:0|3:2,0:0:0:0:
128,302,72276,1,2,0:0:0:0:
97,199,72434,1,2,3:2:0:0:
66,96,72593,2,0,L|156:84,1,90,10|2,0:0|0:0,0:0:0:0:
286,66,72902,1,2,3:2:0:0:
263,181,73052,1,2,3:2:0:0:
389,314,73210,1,10,0:0:0:0:
366,199,73374,1,2,0:0:0:0:
160,163,73524,5,2,3:2:0:0:
231,359,73675,1,10,0:0:0:0:
366,199,73845,1,8,0:0:0:0:
147,88,74000,6,0,P|84:145|115:224,1,180,4|2,3:2|3:2,0:0:0:0:
318,258,74476,1,8,0:0:0:0:
248,149,74634,2,0,L|160:163,1,90,0|2,0:0|3:2,0:0:0:0:
286,20,74957,2,0,L|374:33,1,90,2|8,3:2|0:0,0:0:0:0:
446,300,75276,6,0,P|397:231|317:257,1,180,2|2,3:2|3:2,0:0:0:0:
206,242,75762,1,8,0:0:0:0:
253,139,75920,1,2,3:2:0:0:
120,164,76079,1,2,3:2:0:0:
103,298,76238,1,2,3:2:0:0:
225,356,76396,1,8,0:0:0:0:
317,256,76563,6,0,L|312:68,1,180,2|2,3:2|3:2,0:0:0:0:
188,20,77039,1,8,0:0:0:0:
111,130,77197,2,0,P|68:141|29:121,1,90,0|2,0:0|3:2,0:0:0:0:
245,142,77515,2,0,P|276:172|278:216,1,90,2|8,3:2|0:0,0:0:0:0:
188,20,77835,6,0,L|376:15,1,180,2|2,3:2|3:2,0:0:0:0:
440,130,78311,2,0,L|350:132,1,90,8|0,0:0|0:0,0:0:0:0:
223,179,78625,1,2,3:2:0:0:
260,309,78781,1,2,3:2:0:0:
128,276,78931,1,8,0:0:0:0:
69,81,79088,6,0,B|126:116|126:116|254:77,1,180,4|2,3:2|3:2,0:0:0:0:
371,73,79574,1,8,0:0:0:0:
423,197,79736,2,0,L|333:208,1,90,0|2,0:0|3:2,0:0:0:0:
178,315,80061,2,0,L|268:327,1,90,2|8,3:2|0:0,0:0:0:0:
403,332,80378,5,2,3:2:0:0:
423,197,80537,2,0,L|410:107,1,90,0|2,0:0|3:2,0:0:0:0:
283,60,80850,1,8,0:0:0:0:
190,159,81005,2,0,L|100:171,2,90,0|2|2,0:0|3:2|3:2,0:0:0:0:
283,60,81470,1,8,0:0:0:0:
399,127,81625,5,0,0:0:0:0:
297,306,81784,2,0,P|288:262|307:220,1,90,6|0,3:2|0:0,0:0:0:0:
444,236,82101,2,0,P|411:265|367:271,1,90,8|0,0:0|0:0,0:0:0:0:
210,253,82418,1,2,3:2:0:0:
162,126,82577,1,2,3:2:0:0:
255,29,82734,2,0,P|297:42|323:78,1,90,8|0,0:0|0:0,0:0:0:0:
414,220,83051,6,0,P|431:179|422:135,1,90,2|0,3:2|0:0,0:0:0:0:
365,286,83371,2,0,P|405:303|449:294,1,90,8|0,0:0|0:0,0:0:0:0:
323,78,83688,1,2,3:2:0:0:
194,37,83847,1,2,3:2:0:0:
67,84,84005,2,0,P|57:127|75:168,1,90,8|0,0:0|0:0,0:0:0:0:
369,300,84333,5,2,3:2:0:0:
396,55,84483,1,8,0:0:0:0:
229,238,84633,1,2,3:2:0:0:
472,187,84783,1,2,3:2:0:0:
245,86,84950,5,8,0:0:0:0:
80,271,85108,1,2,3:2:0:0:
321,220,85275,1,2,3:2:0:0:
95,118,85433,1,2,3:2:0:0:
219,334,85602,1,12,0:0:0:0:
219,334,86093,5,2,0:0:0:0:
250,240,86253,2,0,P|293:232|334:249,1,90,2|2,0:0|0:0,0:0:0:0:
219,334,86567,2,0,P|175:341|134:324,1,90,2|2,0:0|0:0,0:0:0:0:
78,79,86871,6,0,L|80:186,1,107.999996704102,4|0,3:2|0:0,0:0:0:0:
203,30,87202,1,8,0:0:0:0:
267,147,87368,2,0,P|219:171|168:157,1,107.999996704102,0|2,0:0|3:2,0:0:0:0:
353,37,87688,2,0,P|401:13|456:30,1,107.999996704102,2|8,3:2|0:0,0:0:0:0:
455,183,88005,6,0,L|344:194,1,107.999996704102,2|2,0:0|3:2,0:0:0:0:
197,209,88315,1,2,3:2:0:0:
279,316,88474,1,8,0:0:0:0:
345,115,88633,2,0,P|316:212|394:279,1,215.999993408203,2|2,3:2|3:2,0:0:0:0:
147,327,89108,1,8,0:0:0:0:
197,209,89272,1,0,0:0:0:0:
184,75,89429,6,0,P|136:51|84:61,1,107.999996704102,2|0,3:2|0:0,0:0:0:0:
197,209,89746,1,8,0:0:0:0:
307,131,89905,2,0,P|350:101|367:50,1,107.999996704102,0|2,0:0|3:2,0:0:0:0:
197,209,90222,2,0,P|199:261|235:300,1,107.999996704102,2|8,3:2|0:0,0:0:0:0:
418,278,90540,6,0,P|370:254|318:264,1,107.999996704102,0|2,0:0|3:2,0:0:0:0:
485,337,90857,2,0,P|507:288|495:236,1,107.999996704102,2|8,3:2|0:0,0:0:0:0:
303,50,91175,2,0,L|319:266,1,215.999993408203,2|2,3:2|3:2,0:0:0:0:
108,315,91651,1,8,0:0:0:0:
166,185,91809,1,0,0:0:0:0:
249,300,91968,5,2,3:2:0:0:
107,314,92127,2,0,L|70:213,1,107.999996704102,0|8,0:0|0:0,0:0:0:0:
249,300,92444,2,0,L|180:384,1,107.999996704102,0|2,0:0|3:2,0:0:0:0:
166,185,92762,2,0,L|273:202,1,107.999996704102,2|8,3:2|0:0,0:0:0:0:
79,161,93079,6,0,P|104:114|153:95,1,107.999996704102,0|2,0:0|3:2,0:0:0:0:
359,225,93397,2,0,P|333:271|284:290,1,107.999996704102,0|8,0:0|0:0,0:0:0:0:
288,95,93714,2,0,L|271:207,1,107.999996704102,2|0,3:2|0:0,0:0:0:0:
98,29,94026,1,2,3:2:0:0:
101,185,94184,1,8,0:0:0:0:
235,104,94343,1,0,0:0:0:0:
238,260,94502,6,0,B|240:324|240:324|277:303,1,107.999996704102,2|0,3:2|0:0,0:0:0:0:
409,207,94819,2,0,B|406:142|406:142|368:162,1,107.999996704102,8|0,0:0|0:0,0:0:0:0:
117,319,95136,1,2,3:2:0:0:
238,260,95295,1,2,3:2:0:0:
359,319,95454,2,0,P|405:343|458:335,1,107.999996704102,8|0,0:0|0:0,0:0:0:0:
243,162,95769,2,0,P|220:209|237:259,1,107.999996704102,2|2,3:2|3:2,0:0:0:0:
393,70,96086,5,8,0:0:0:0:
359,319,96232,1,2,3:2:0:0:
283,94,96407,1,2,3:2:0:0:
469,295,96566,5,8,0:0:0:0:
173,118,96721,1,8,0:0:0:0:
503,46,96876,1,8,0:0:0:0:
250,343,97032,6,0,L|142:328,1,107.999996704102,4|0,3:2|0:0,0:0:0:0:
84,212,97349,1,8,0:0:0:0:
173,118,97508,2,0,L|279:131,1,107.999996704102,0|2,0:0|3:2,0:0:0:0:
390,200,97825,2,0,P|442:208|485:177,1,107.999996704102,2|8,3:2|0:0,0:0:0:0:
263,263,98143,6,0,P|229:304|233:356,1,107.999996704102,0|2,0:0|3:2,0:0:0:0:
280,131,98463,1,0,0:0:0:0:
390,200,98623,1,8,0:0:0:0:
263,264,98782,2,0,L|155:258,1,107.999996704102,2|0,3:2|0:0,0:0:0:0:
139,39,99086,1,2,3:2:0:0:
273,23,99244,2,0,L|279:130,1,107.999996704102,8|0,0:0|0:0,0:0:0:0:
263,264,99566,6,0,B|313:238|313:238|356:265,1,107.999996704102,2|0,3:2|0:0,0:0:0:0:
444,175,99886,1,8,0:0:0:0:
325,111,100054,2,0,B|300:61|300:61|326:16,1,107.999996704102,0|2,0:0|3:2,0:0:0:0:
444,175,100371,1,2,3:2:0:0:
341,265,100530,1,8,0:0:0:0:
207,247,100688,6,0,L|99:232,1,107.999996704102,0|2,0:0|3:2,0:0:0:0:
232,154,101006,2,0,P|181:244|232:334,1,215.999993408203,2|2,3:2|3:2,0:0:0:0:
444,175,101482,2,0,P|477:246|443:316,2,161.999995056153,0|0|0,0:0|0:0|0:0,0:0:0:0:
236,69,102113,6,0,L|129:49,1,107.999996704102,2|0,3:2|0:0,0:0:0:0:
274,192,102430,1,8,0:0:0:0:
312,315,102589,2,0,L|418:295,1,107.999996704102,0|2,0:0|3:2,0:0:0:0:
274,192,102903,2,0,L|167:172,1,107.999996704102,2|8,3:2|0:0,0:0:0:0:
57,241,103217,1,0,0:0:0:0:
274,192,103385,6,0,P|298:145|288:93,1,107.999996704102,2|0,3:2|0:0,0:0:0:0:
57,241,103705,2,0,P|31:287|42:339,1,107.999996704102,8|0,0:0|0:0,0:0:0:0:
379,329,104022,1,2,3:2:0:0:
423,199,104181,1,2,3:2:0:0:
347,86,104334,2,0,L|239:93,1,107.999996704102,8|0,0:0|0:0,0:0:0:0:
57,241,104648,6,0,P|31:287|42:339,1,107.999996704102,2|0,3:2|0:0,0:0:0:0:
379,329,104962,2,0,P|403:282|393:230,1,107.999996704102,8|0,0:0|0:0,0:0:0:0:
392,229,105198,1,8,0:0:0:0:
392,229,105277,1,8,0:0:0:0:
121,119,105444,5,8,0:0:0:0:
387,64,105612,1,2,3:2:0:0:
219,291,105781,1,2,3:2:0:0:
485,236,105954,1,4,0:2:0:0:
256,192,106033,12,0,107915,3:1:0:0:
