osu file format v14

[General]
AudioFilename: audio.mp3
AudioLeadIn: 0
PreviewTime: 85930
Countdown: 0
SampleSet: Soft
StackLeniency: 0.7
Mode: 0
LetterboxInBreaks: 0
WidescreenStoryboard: 0

[Editor]
DistanceSpacing: 1.1
BeatDivisor: 4
GridSize: 4
TimelineZoom: 1.5

[Metadata]
Title:Hikari e (TV Size)
TitleUnicode:ヒカリへ (TV Size)
Artist:The BABYSTARS
ArtistUnicode:ザ・ベイビースターズ
Creator:Yogurtt
Version:THE ONE PIECE IS REAL
Source:ONE PIECE
Tags:op opening 3 Anime Japanese j-rock jrock rock iyiyo koldnoodl cjstmdals nanoya zekk gorou wanpachi cycopton satonodiamond ワンピース
BeatmapID:4010675
BeatmapSetID:1939776

[Difficulty]
HPDrainRate:7
CircleSize:4
OverallDifficulty:9
ApproachRate:9.3
SliderMultiplier:1.8
SliderTickRate:1

[Events]
//Background and Video events
0,0,"cropped-1920-1080-1273169.png",0,0
Video,280,"video.mp4"
//Break Periods
2,54048,63166
//Storyboard Layer 0 (Background)
//Storyboard Layer 1 (Fail)
//Storyboard Layer 2 (Pass)
//Storyboard Layer 3 (Foreground)
//Storyboard Layer 4 (Overlay)
//Storyboard Sound Samples

[TimingPoints]
586,317.460317460317,4,2,1,50,1,0
586,-181.818181818181,4,2,1,50,0,0
1855,324.324324324324,4,2,1,50,1,0
1855,-133.333333333333,4,2,1,50,0,0
2179,314.13612565445,4,2,1,50,1,0
2179,-133.333333333333,4,2,1,50,0,0
3121,319.148936170213,4,2,1,50,1,0
3121,-153.846153846154,4,2,1,50,0,0
4078,325.20325203252,4,2,1,50,1,0
4403,325.20325203252,4,2,1,50,1,0
5053,307.692307692308,4,2,1,50,1,0
5360,317.460317460317,4,2,1,50,1,0
5677,317.460317460317,4,2,1,50,1,0
13296,315.789473684211,4,2,1,50,1,0
15190,309.278350515464,4,2,1,50,1,0
15808,316.622691292876,4,2,1,50,1,0
18340,320.855614973262,4,2,1,50,1,0
20265,317.460317460317,4,2,1,50,1,0
20899,317.460317460317,4,2,1,50,1,0
24708,315.789473684211,4,2,1,50,1,0
25326,-100,4,2,1,60,0,0
25339,306.122448979592,4,2,1,60,1,0
25951,320.855614973262,4,2,1,70,1,0
27234,324.324324324324,4,2,1,70,1,0
28531,320,4,2,1,70,1,0
29811,325.20325203252,4,2,1,70,1,0
30285,-100,4,2,1,30,0,0
30461,303.030303030303,4,2,1,30,1,0
31067,314.13612565445,4,2,1,80,1,0
31067,-100,4,2,1,80,0,1
32323,320,4,2,1,80,1,1
33603,317.460317460317,4,2,1,80,1,1
37412,313.31592689295,4,2,1,80,1,1
38665,317.460317460317,4,2,1,80,1,1
39934,314.96062992126,4,2,1,80,1,1
40563,310.880829015544,4,2,1,80,1,1
41184,322.58064516129,4,2,1,80,1,1
42474,317.460317460317,4,2,1,80,1,1
48188,306.122448979592,4,2,1,80,1,1
48800,317.460317460317,4,2,1,70,1,1
48800,-100,4,2,1,70,0,0
52292,307.692307692308,4,2,1,70,1,0
52599,307.692307692308,4,2,1,70,1,0
53214,317.460317460317,4,2,1,70,1,0
53844,-100,4,2,1,40,0,0
53848,318.555880010619,4,2,1,70,1,0
63723,315.789473684211,4,2,1,40,1,0
63723,-133.333333333333,4,2,1,40,0,0
64038,315.789473684211,4,2,1,40,1,0
64038,-133.333333333333,4,2,1,40,0,0
64353,-133.333333333333,4,2,1,40,0,0
65459,-133.333333333333,4,2,1,40,0,0
66564,317.460317460317,4,2,1,40,1,0
66564,-133.333333333333,4,2,1,40,0,0
66881,-133.333333333333,4,2,1,40,0,0
67992,-133.333333333333,4,2,1,40,0,0
72595,307.692307692308,4,2,1,40,1,0
72752,-100,4,2,1,50,0,0
72902,314.13612565445,4,2,1,50,1,0
73530,317.460317460317,4,2,1,50,1,0
74000,-100,4,2,1,60,0,0
74006,-111.111111111111,4,2,1,60,0,0
74164,317.460317460317,4,2,1,60,1,0
74322,-100,4,2,1,60,0,0
74640,-111.111111111111,4,2,1,60,0,0
74798,320.855614973262,4,2,1,60,1,0
74958,-111.111111111111,4,2,1,60,0,0
75439,320.855614973262,4,2,1,60,1,0
75599,-100,4,2,1,60,0,0
75759,-111.111111111111,4,2,1,60,0,0
77364,317.460317460317,4,2,1,60,1,0
77522,-100,4,2,1,60,0,0
77998,317.460317460317,4,2,1,60,1,0
78315,310.880829015544,4,2,1,60,1,0
79092,329.67032967033,4,2,1,60,1,0
79092,-111.111111111111,4,2,1,60,0,0
79256,329.67032967033,4,2,1,60,1,0
79585,315.789473684211,4,2,1,60,1,0
80532,317.460317460317,4,2,1,60,1,0
81166,309.278350515464,4,2,1,60,1,0
81784,318.725099601594,4,2,1,60,1,0
83058,317.880794701987,4,2,1,60,1,0
85601,329.67032967033,4,2,1,60,1,0
86093,-100,4,2,1,30,0,0
86260,309.278350515464,4,2,1,30,1,0
86878,326.086956521739,4,2,1,80,1,1
86878,-100,4,2,1,80,0,1
87204,317.460317460317,4,2,1,80,1,1
87533,-100,4,2,1,80,0,1
87688,-100,4,2,1,80,0,1
88156,317.460317460317,4,2,1,80,1,1
96409,309.278350515464,4,2,1,80,1,1
96563,-76.9230769230769,4,2,1,80,0,1
97027,320.855614973262,4,2,1,80,1,1
97347,317.460317460317,4,2,1,80,1,1
98299,317.460317460317,4,2,1,80,1,1
98782,-100,4,2,1,80,0,1
99086,-100,4,2,1,80,0,1
102108,320,4,2,1,80,1,1
103388,317.460317460317,4,2,1,80,1,1
105610,324.324324324324,4,2,1,80,1,1
105934,315.789473684211,4,2,1,80,1,0
107670,344.827586206897,4,2,1,80,1,0

[Colours]
Combo1 : 180,43,238
Combo2 : 238,131,34
Combo3 : 24,198,248
Combo4 : 242,24,57

[HitObjects]
133,74,586,6,0,P|114:114|138:265,1,197.307000000001,4|0,2:0|2:0,2:0:0:0:
228,311,1855,2,0,L|313:295,1,67.5000025749208,2|0,2:0|2:0,2:0:0:0:
454,152,2179,6,0,L|389:171,1,45.0000017166138,0|0,3:0|3:0,2:0:0:0:
344,223,2388,2,0,L|284:212,1,45.0000017166138,0|2,3:0|3:2,2:0:0:0:
244,89,2597,2,0,L|256:157,1,45.0000017166138,0|0,3:0|3:0,2:0:0:0:
233,287,2807,1,0,3:0:0:0:
372,324,3121,6,0,L|391:127,1,175.499991966248,4|0,3:2|2:0,2:0:0:0:
366,65,3759,1,0,2:0:0:0:
422,2,4078,5,8,2:0:0:0:
495,188,4240,2,0,P|456:184|395:161,1,90.5535,2|0,3:2|2:0,2:0:0:0:
256,260,4565,2,0,P|298:245|342:239,1,90,2|0,3:2|2:0,2:0:0:0:
235,124,4890,1,2,3:2:0:0:
146,266,5053,1,2,3:2:0:0:
250,378,5206,2,0,L|271:285,1,90.585,2|8,3:2|2:0,2:0:0:0:
246,103,5677,5,6,3:2:0:0:
310,323,5835,1,2,2:0:0:0:
379,188,5994,1,10,2:0:0:0:
164,280,6153,2,0,P|100:306|-8:264,1,180,2|0,2:0|3:2,2:0:0:0:
227,174,6629,2,0,P|235:130|218:70,1,90,10|2,2:0|2:0,2:0:0:0:
41,85,6946,5,2,3:2:0:0:
154,134,7105,1,2,3:2:0:0:
0,191,7264,1,8,2:0:0:0:
226,86,7423,5,0,2:0:0:0:
147,220,7581,1,2,3:2:0:0:
281,299,7740,1,2,3:2:0:0:
154,134,7899,1,10,2:0:0:0:
154,134,8057,1,0,2:0:0:0:
366,366,8216,6,0,B|384:328|384:328|374:268,1,90,2|2,3:2|2:0,2:0:0:0:
208,329,8534,2,0,L|318:311,1,90,10|2,2:0|2:0,2:0:0:0:
186,229,8851,2,0,L|76:211,1,90,0|0,3:2|3:2,2:0:0:0:
29,54,9169,2,0,B|11:92|11:92|18:139,1,90,10|2,2:0|2:0,2:0:0:0:
97,214,9486,5,2,3:2:0:0:
200,146,9645,1,2,3:2:0:0:
268,249,9803,1,8,2:0:0:0:
371,181,9962,1,0,2:0:0:0:
358,369,10121,2,0,P|347:322|352:254,1,90,2|2,3:2|3:2,2:0:0:0:
457,123,10438,2,0,P|467:166|467:211,1,90,8|0,2:0|2:0,2:0:0:0:
325,108,10756,5,2,3:2:0:0:
256,281,10915,1,2,2:0:0:0:
371,181,11073,1,10,2:0:0:0:
260,43,11232,2,0,P|209:78|91:73,1,180,2|0,2:0|3:2,2:0:0:0:
0,187,11708,2,0,P|45:175|113:167,1,90,10|2,2:0|2:0,2:0:0:0:
205,113,12026,6,0,P|193:156|186:200,1,90,2|2,3:2|3:2,2:0:0:0:
119,356,12343,2,0,P|112:311|100:268,1,90,8|0,2:0|2:0,2:0:0:0:
220,292,12661,1,2,3:2:0:0:
220,292,12819,1,2,3:2:0:0:
172,121,12978,1,10,2:0:0:0:
172,121,13137,1,2,2:0:0:0:
279,217,13296,5,2,3:2:0:0:
128,336,13453,1,2,2:0:0:0:
190,207,13611,1,10,2:0:0:0:
358,253,13769,2,0,P|385:194|361:89,1,135,2|0,2:0|2:0,2:0:0:0:
368,100,14085,2,0,P|349:49|357:3,1,90,0|10,3:2|2:0,2:0:0:0:
456,80,14401,5,2,2:0:0:0:
301,174,14559,1,2,3:2:0:0:
395,329,14717,1,2,3:2:0:0:
195,366,14874,2,0,B|180:330|180:330|201:248,1,90,8|0,2:0|2:0,2:0:0:0:
434,259,15190,1,2,3:2:0:0:
267,322,15344,1,2,3:2:0:0:
434,259,15499,1,12,2:0:0:0:
267,322,15653,1,0,2:0:0:0:
327,234,15808,5,2,3:2:0:0:
327,234,15966,1,2,2:0:0:0:
260,152,16124,1,10,2:0:0:0:
260,152,16282,1,2,2:0:0:0:
336,43,16441,1,0,2:0:0:0:
336,43,16599,1,0,3:2:0:0:
157,145,16757,1,10,2:0:0:0:
157,145,16916,1,2,2:0:0:0:
341,216,17074,6,0,P|386:220|468:245,1,90,2|2,3:2|3:2,2:0:0:0:
174,121,17391,2,0,P|219:117|301:92,1,90,8|0,2:0|2:0,2:0:0:0:
217,265,17707,2,0,P|206:308|202:353,1,90,2|2,3:2|3:2,2:0:0:0:
66,212,18024,2,0,P|62:167|51:123,1,90,8|0,2:0|2:0,2:0:0:0:
206,39,18340,5,2,3:2:0:0:
206,39,18500,1,2,2:0:0:0:
139,252,18660,1,10,2:0:0:0:
139,252,18821,1,2,2:0:0:0:
284,201,18981,1,0,2:0:0:0:
284,201,19142,1,0,3:2:0:0:
150,115,19302,1,10,2:0:0:0:
150,115,19462,1,2,2:0:0:0:
216,371,19623,6,0,P|219:326|230:282,1,90,2|2,3:2|3:2,2:0:0:0:
304,166,19944,2,0,P|307:210|318:254,1,90,8|0,2:0|2:0,2:0:0:0:
161,227,20265,2,0,P|117:216|72:212,1,90,2|2,3:2|3:2,2:0:0:0:
330,53,20582,1,8,2:0:0:0:
217,164,20741,1,0,2:0:0:0:
431,108,20899,5,2,3:2:0:0:
431,108,21057,1,2,2:0:0:0:
270,0,21216,1,10,2:0:0:0:
270,0,21375,1,2,2:0:0:0:
342,140,21533,1,0,2:0:0:0:
342,140,21692,1,0,3:2:0:0:
291,284,21851,1,10,2:0:0:0:
291,284,22010,1,2,2:0:0:0:
396,366,22168,6,0,P|399:321|406:276,1,90,2|2,3:2|3:2,2:0:0:0:
415,174,22486,2,0,P|370:180|325:184,1,90,8|0,2:0|2:0,2:0:0:0:
219,111,22803,2,0,P|225:155|229:200,1,90,2|2,3:2|3:2,2:0:0:0:
126,364,23121,2,0,P|129:319|136:274,1,90,8|0,2:0|2:0,2:0:0:0:
89,163,23438,5,2,3:2:0:0:
136,274,23597,1,2,2:0:0:0:
209,131,23756,1,10,2:0:0:0:
54,260,23914,1,2,2:0:0:0:
270,298,24073,5,0,2:0:0:0:
89,163,24232,1,0,3:2:0:0:
287,55,24391,1,10,2:0:0:0:
343,199,24549,1,2,3:2:0:0:
343,199,24629,1,0,2:0:0:0:
343,199,24708,2,0,P|287:215|221:200,1,90,2|2,3:2|3:2,2:0:0:0:
19,112,25023,2,0,P|4:154|5:199,1,90,8|0,2:0|2:0,2:0:0:0:
255,113,25339,5,8,2:0:0:0:
89,163,25492,1,8,2:0:0:0:
327,266,25645,1,2,3:2:0:0:
67,273,25798,1,2,3:2:0:0:
183,381,25951,6,0,P|192:306|197:187,1,180,6|2,3:2|3:2,2:0:0:0:
229,80,26592,1,10,2:0:0:0:
185,222,26753,1,0,2:0:0:0:
327,266,26913,1,2,2:0:0:0:
371,124,27073,1,0,3:2:0:0:
255,165,27234,1,2,3:2:0:0:
405,222,27396,6,0,B|419:272|419:272|394:327,1,90,8|2,2:0|2:0,2:0:0:0:
243,144,27720,1,0,3:2:0:0:
238,279,27882,2,0,L|349:262,1,90,10|0,2:0|2:0,2:0:0:0:
144,206,28206,2,0,L|130:294,1,90,2|0,2:0|2:0,2:0:0:0:
297,359,28531,5,2,3:2:0:0:
247,188,28691,1,0,2:0:0:0:
130,294,28851,1,2,3:2:0:0:
332,215,29011,1,0,2:0:0:0:
95,127,29171,5,10,2:0:0:0:
264,269,29331,1,8,2:0:0:0:
267,53,29491,1,2,3:2:0:0:
141,319,29651,1,2,3:2:0:0:
416,197,29811,5,12,2:0:0:0:
430,171,30298,2,0,P|386:184|324:193,1,90.5535,2|2,2:0|2:0,2:0:0:0:
280,252,30612,2,0,P|236:239|174:230,1,90,2|2,2:0|2:0,2:0:0:0:
282,118,30915,1,2,2:0:0:0:
153,317,31067,6,0,P|112:275|152:142,1,180,4|8,3:2|2:0,2:0:0:0:
258,32,31538,2,0,P|277:84|283:144,1,90,0|2,2:0|3:2,2:0:0:0:
343,282,31852,2,0,P|350:237|367:195,1,90,2|8,3:2|2:0,2:0:0:0:
349,369,32166,1,0,2:0:0:0:
262,200,32323,5,2,3:2:0:0:
430,318,32483,1,2,3:2:0:0:
414,128,32643,1,8,0:2:0:0:
165,291,32803,2,0,B|255:256|244:310|361:276,1,180,2|2,3:2|3:2,2:0:0:0:
167,192,33283,2,0,P|122:184|80:167,1,90,8|0,2:0|2:0,2:0:0:0:
262,200,33603,5,2,3:2:0:0:
84,280,33761,1,0,2:0:0:0:
273,182,33920,1,8,2:0:0:0:
163,96,34079,1,0,2:0:0:0:
201,356,34237,1,2,3:2:0:0:
201,356,34317,1,0,3:0:0:0:
201,356,34396,2,0,P|186:308|192:247,1,90,2|8,3:2|2:0,2:0:0:0:
288,158,34714,6,0,P|332:158|375:172,1,90,0|2,2:0|3:2,2:0:0:0:
195,234,35031,2,0,P|172:272|138:302,1,90,0|8,2:0|2:0,2:0:0:0:
180,114,35349,2,0,P|157:75|148:31,1,90,2|0,3:2|2:0,2:0:0:0:
148,31,35587,1,0,2:0:0:0:
148,31,35666,1,2,3:2:0:0:
304,73,35825,5,8,2:0:0:0:
245,260,35983,1,0,2:0:0:0:
393,364,36142,2,0,P|411:323|409:277,1,90,2|0,3:2|2:0,2:0:0:0:
282,212,36460,2,0,L|167:240,1,90,8|0,2:0|2:0,2:0:0:0:
76,172,36777,2,0,P|57:131|59:86,1,90,2|2,3:2|3:2,2:0:0:0:
244,18,37095,2,0,L|216:133,1,90,8|0,2:0|2:0,2:0:0:0:
194,233,37412,5,2,3:2:0:0:
145,67,37568,1,2,3:2:0:0:
184,256,37725,1,8,2:0:0:0:
330,129,37881,2,0,P|350:171|352:215,1,90,2|0,3:2|2:0,2:0:0:0:
284,384,38195,2,0,P|264:343|261:299,1,90,2|8,3:2|2:0,2:0:0:0:
222,105,38508,1,0,2:0:0:0:
184,256,38665,6,0,P|101:281|31:229,1,180,2|8,3:2|2:0,2:0:0:0:
139,108,39141,2,0,P|119:150|117:194,1,90,0|2,2:0|3:2,2:0:0:0:
316,212,39458,1,2,3:2:0:0:
198,167,39617,1,8,2:0:0:0:
343,135,39776,1,0,2:0:0:0:
184,256,39934,5,2,3:2:0:0:
377,290,40091,1,2,3:2:0:0:
184,144,40248,1,8,2:0:0:0:
393,38,40406,1,2,3:2:0:0:
343,135,40563,5,0,2:0:0:0:
405,228,40718,1,2,3:2:0:0:
289,17,40873,1,8,2:0:0:0:
450,112,41029,1,0,2:0:0:0:
297,209,41184,2,0,P|244:222|119:149,1,180,4|8,3:2|2:0,2:0:0:0:
343,135,41667,5,0,2:0:0:0:
166,240,41829,1,2,3:2:0:0:
163,34,41990,1,2,3:2:0:0:
287,238,42151,1,8,2:0:0:0:
287,238,42232,1,0,2:0:0:0:
287,238,42313,2,0,P|302:287|289:346,1,90,0|2,2:0|3:2,2:0:0:0:
28,337,42632,2,0,P|74:328|135:312,1,90,2|8,3:2|2:0,2:0:0:0:
182,220,42950,6,0,P|128:211|5:172,1,180,2|2,3:2|3:2,2:0:0:0:
271,136,43426,2,0,P|314:146|358:155,1,90,8|0,2:0|2:0,2:0:0:0:
182,220,43743,2,0,P|157:144|189:47,1,180,2|8,3:2|2:0,2:0:0:0:
297,0,44220,1,0,2:0:0:0:
263,183,44378,2,0,P|271:228|246:283,1,90,2|2,3:2|3:2,2:0:0:0:
138,150,44696,1,8,2:0:0:0:
344,303,44854,2,0,P|317:340|261:361,1,90,0|2,2:0|3:2,2:0:0:0:
94,292,45172,6,0,P|151:253|273:282,1,180,2|2,3:2|3:2,2:0:0:0:
284,65,45648,2,0,P|271:108|263:152,1,90,0|0,2:0|2:0,2:0:0:0:
263,183,45886,1,0,2:0:0:0:
263,183,45966,1,8,2:0:0:0:
218,16,46124,1,0,2:0:0:0:
429,123,46283,6,0,P|385:135|341:143,1,90,2|0,3:2|2:0,2:0:0:0:
94,215,46600,2,0,P|137:227|181:235,1,90,8|0,2:0|2:0,2:0:0:0:
340,330,46918,5,2,3:2:0:0:
181,235,47077,1,2,3:2:0:0:
342,144,47235,1,8,2:0:0:0:
249,316,47394,1,0,2:0:0:0:
153,77,47553,5,2,3:2:0:0:
271,228,47712,1,0,2:0:0:0:
102,303,47870,1,8,2:0:0:0:
218,162,48029,1,0,2:0:0:0:
410,228,48188,2,0,P|434:166|403:42,1,180,2|8,3:2|2:0,2:0:0:0:
294,238,48800,6,0,L|311:328,1,90,4|2,3:2|2:0,2:0:0:0:
309,137,49117,1,8,2:0:0:0:
200,280,49276,1,0,2:0:0:0:
385,383,49434,6,0,P|403:338|398:295,1,90,2|2,3:2|3:2,2:0:0:0:
304,214,49752,2,0,P|262:226|187:241,1,90,8|0,2:0|3:0,2:0:0:0:
146,296,49990,1,0,3:0:0:0:
146,296,50069,2,0,P|134:254|119:179,1,90,2|2,3:2|3:2,2:0:0:0:
208,0,50387,2,0,P|188:58|219:140,1,135,8|0,2:0|2:0,2:0:0:0:
236,147,50704,6,0,P|278:135|353:120,1,90,2|2,3:2|3:2,2:0:0:0:
377,35,51022,1,8,2:0:0:0:
422,174,51180,2,0,L|406:249,1,45,0|0,3:0|3:0,2:0:0:0:
392,235,51339,2,0,P|348:225|304:212,1,90,2|2,3:2|3:2,2:0:0:0:
75,224,51657,2,0,P|127:207|227:269,1,180,8|2,2:0|3:2,2:0:0:0:
115,379,52133,2,0,P|124:335|137:291,1,90.567,2|8,3:2|2:0,2:0:0:0:
92,89,52445,5,0,3:2:0:0:
92,89,52522,1,0,3:2:0:0:
92,89,52599,1,2,3:2:0:0:
136,291,52752,1,2,2:0:0:0:
328,166,52906,5,8,2:0:0:0:
179,199,53060,1,8,2:0:0:0:
369,238,53214,1,0,3:0:0:0:
119,138,53372,1,0,3:0:0:0:
399,108,53531,1,0,3:0:0:0:
102,261,53690,1,0,3:0:0:0:
256,192,53848,5,4,2:0:0:0:
260,81,63723,6,0,L|249:6,1,66.9138157894738,10|2,2:0|2:0,2:0:0:0:
345,114,64038,2,0,P|321:168|341:264,1,135,6|2,3:2|2:0,2:0:0:0:
389,305,64511,2,0,P|335:281|239:301,1,135,2|2,3:2|2:0,2:0:0:0:
76,314,64985,6,0,P|82:348|85:388,1,67.5000025749208,0|2,3:2|2:0,2:0:0:0:
173,325,65301,1,2,2:0:0:0:
173,325,65459,2,0,P|166:290|158:172,1,135,0|2,3:2|2:0,2:0:0:0:
162,96,65932,1,0,3:2:0:0:
76,314,66248,1,0,3:0:0:0:
34,152,66564,6,0,P|76:182|173:187,1,135.000005149842,6|2,3:2|2:0,2:0:0:0:
239,224,67040,2,0,P|281:194|392:196,1,135,2|2,3:2|2:0,2:0:0:0:
455,207,67516,2,0,P|450:177|447:122,1,67.5000025749208,0|2,3:2|2:0,2:0:0:0:
378,332,67833,5,0,2:0:0:0:
378,332,67992,2,0,P|383:302|386:252,1,67.5000000000002,2|2,3:2|2:0,2:0:0:0:
225,313,68310,2,0,P|255:308|305:305,1,67.5000000000002,2|2,2:0|3:2,2:0:0:0:
254,224,68627,1,2,2:0:0:0:
139,302,68786,1,0,3:2:0:0:
180,181,68944,1,2,2:0:0:0:
338,217,69103,6,0,P|366:158|350:76,1,135,6|0,3:2|2:0,2:0:0:0:
357,90,69579,1,0,3:2:0:0:
227,27,69738,2,0,P|234:65|245:117,1,67.5000000000002,2|0,2:0|2:0,2:0:0:0:
230,176,70056,2,0,P|237:214|248:266,1,67.5000000000002,0|2,3:0|2:0,2:0:0:0:
242,242,70373,1,0,2:0:0:0:
180,322,70532,6,0,P|113:330|53:302,1,135,0|0,3:0|2:0,2:0:0:0:
15,212,71008,1,2,3:2:0:0:
242,242,71643,6,0,P|206:178|244:35,1,202.500000000001,6|2,3:2|3:2,2:0:0:0:
370,91,72278,2,0,L|295:102,1,67.5000000000002,2|2,2:0|3:2,2:0:0:0:
227,55,72595,1,10,2:0:0:0:
261,227,72748,5,2,2:0:0:0:
261,227,72902,1,2,3:2:0:0:
163,292,73059,1,2,3:2:0:0:
219,135,73216,1,10,2:0:0:0:
289,373,73373,5,2,2:0:0:0:
213,161,73530,1,2,3:2:0:0:
145,306,73688,1,10,2:0:0:0:
356,229,73847,1,8,2:0:0:0:
123,325,74006,6,0,P|97:261|123:155,1,161.4897,4|2,3:2|3:2,2:0:0:0:
202,83,74481,1,8,2:0:0:0:
232,253,74640,2,0,P|276:255|330:243,1,80.9999975280763,0|2,2:0|3:2,2:0:0:0:
228,54,74958,2,0,P|226:115|237:154,1,81.0000000000001,2|8,3:2|2:0,2:0:0:0:
390,336,75279,6,0,P|416:272|390:166,1,161.999995056153,2|2,3:2|3:2,2:0:0:0:
289,205,75759,2,0,P|210:221|179:209,1,81.0000000000001,8|2,2:0|3:2,2:0:0:0:
71,68,76080,1,2,3:2:0:0:
22,154,76241,1,2,3:2:0:0:
106,249,76401,1,8,2:0:0:0:
67,343,76561,6,0,L|57:173,1,162,2|2,3:2|3:2,2:0:0:0:
230,134,77043,1,8,2:0:0:0:
171,301,77203,2,0,L|162:389,1,81.5049000000001,0|2,2:0|3:2,2:0:0:0:
147,162,77522,5,2,3:2:0:0:
185,322,77681,1,8,2:0:0:0:
305,210,77840,2,0,P|290:141|319:24,1,179.433,2|2,3:2|3:2,2:0:0:0:
389,184,78315,2,0,P|391:236|368:279,1,90,8|0,2:0|2:0,2:0:0:0:
162,140,78625,5,2,3:2:0:0:
305,210,78781,1,2,3:2:0:0:
93,271,78936,2,0,P|123:263|162:246,1,45,8|0,2:0|2:0,2:0:0:0:
285,299,79092,6,0,P|221:296|167:379,1,161.999995056153,4|2,3:2|3:2,2:0:0:0:
214,184,79585,1,8,2:0:0:0:
248,372,79742,6,0,P|240:283|219:177,1,180,0|2,2:0|3:2,2:0:0:0:
193,105,80216,1,8,2:0:0:0:
131,276,80374,5,2,3:2:0:0:
214,184,80532,1,0,2:0:0:0:
105,50,80690,2,0,P|94:99|102:165,1,90,2|8,3:2|2:0,2:0:0:0:
227,211,81008,2,0,P|276:200|342:208,1,90,0|2,2:0|3:2,2:0:0:0:
482,132,81320,2,0,P|438:142|393:141,1,90,2|8,3:2|2:0,2:0:0:0:
326,72,81629,1,0,2:0:0:0:
388,314,81784,6,0,P|410:246|390:135,2,180,6|8|2,3:2|2:0|3:2,2:0:0:0:
237,257,82580,1,2,3:2:0:0:
195,140,82740,1,8,2:0:0:0:
252,275,82899,1,0,2:0:0:0:
117,216,83058,1,2,3:2:0:0:
271,90,83216,1,0,2:0:0:0:
167,296,83375,6,0,P|177:340|185:407,1,90,8|0,2:0|2:0,2:0:0:0:
262,189,83693,2,0,P|217:182|173:172,1,90,2|2,3:2|3:2,2:0:0:0:
0,295,84011,2,0,P|43:285|88:278,1,90,8|0,2:0|2:0,2:0:0:0:
151,62,84329,5,2,3:2:0:0:
53,190,84488,1,8,2:0:0:0:
240,89,84647,1,2,3:2:0:0:
33,205,84806,1,2,3:2:0:0:
301,278,84965,5,8,2:0:0:0:
131,149,85124,1,2,3:2:0:0:
300,28,85283,1,2,3:2:0:0:
190,248,85442,1,2,3:2:0:0:
395,343,85601,1,12,2:0:0:0:
413,362,86095,6,0,P|401:294|407:247,1,90.546,2|2,2:0|2:0,2:0:0:0:
365,175,86414,2,0,P|409:175|453:185,1,90,2|2,2:0|2:0,2:0:0:0:
505,306,86723,1,2,2:0:0:0:
279,264,86878,6,0,P|259:176|268:86,1,180,4|8,3:2|2:0,2:0:0:0:
393,70,87362,2,0,P|386:123|380:174,1,90,0|2,2:0|3:2,2:0:0:0:
230,13,87680,1,2,3:2:0:0:
124,197,87838,1,8,2:0:0:0:
267,87,87997,1,2,2:0:0:0:
279,264,88156,2,0,P|243:283|163:285,1,90,2|2,3:2|3:2,2:0:0:0:
21,225,88473,1,8,2:0:0:0:
134,40,88632,6,0,P|153:127|144:216,1,180,2|2,3:2|3:2,2:0:0:0:
189,378,89108,2,0,P|184:333|194:289,1,90,8|0,2:0|2:0,2:0:0:0:
347,225,89425,1,2,3:2:0:0:
255,150,89584,1,0,2:0:0:0:
374,205,89743,1,8,2:0:0:0:
264,335,89902,1,0,2:0:0:0:
489,253,90060,1,2,3:2:0:0:
373,97,90219,1,2,3:2:0:0:
417,370,90378,5,8,2:0:0:0:
417,370,90457,1,0,2:0:0:0:
417,370,90536,2,0,P|410:324|400:267,1,90,0|2,2:0|3:2,2:0:0:0:
394,119,90854,2,0,P|438:126|482:133,1,90,2|8,3:2|2:0,2:0:0:0:
290,205,91171,2,0,P|237:167|113:187,1,180,2|2,3:2|3:2,2:0:0:0:
68,262,91648,1,8,2:0:0:0:
6,108,91806,1,0,2:0:0:0:
127,177,91965,1,2,3:2:0:0:
0,339,92124,1,0,2:0:0:0:
51,189,92282,5,8,2:0:0:0:
51,189,92362,1,0,2:0:0:0:
51,189,92441,1,0,2:0:0:0:
199,262,92600,1,2,3:2:0:0:
238,55,92759,1,2,3:2:0:0:
118,151,92917,1,8,2:0:0:0:
318,104,93076,6,0,P|367:94|431:76,1,90,0|2,2:0|3:2,2:0:0:0:
141,170,93394,2,0,P|97:181|53:190,1,90,0|8,2:0|2:0,2:0:0:0:
376,189,93711,2,0,P|420:197|463:209,1,90,2|0,3:2|2:0,2:0:0:0:
253,44,94029,1,2,3:2:0:0:
183,275,94187,1,8,2:0:0:0:
369,363,94346,5,0,2:0:0:0:
369,363,94425,1,0,2:0:0:0:
369,363,94505,2,0,P|390:291|364:165,1,180,2|8,3:2|2:0,2:0:0:0:
270,260,94981,2,0,P|223:274|157:270,1,90,0|2,2:0|3:2,2:0:0:0:
80,166,95298,1,2,3:2:0:0:
254,243,95457,1,8,2:0:0:0:
42,364,95616,1,0,2:0:0:0:
264,326,95775,5,2,3:2:0:0:
195,125,95933,1,2,3:2:0:0:
180,373,96092,1,8,2:0:0:0:
379,246,96251,1,2,3:2:0:0:
160,196,96409,1,2,3:2:0:0:
271,20,96563,6,0,P|262:54|256:105,1,58.5,8|0,2:0|2:0,2:0:0:0:
244,299,96718,2,0,P|278:290|329:284,1,58.5,8|0,2:0|2:0,2:0:0:0:
348,168,96872,2,0,P|339:134|333:83,1,58.5,8|0,2:0|2:0,2:0:0:0:
473,155,97027,6,0,P|499:222|448:355,1,180,4|8,3:2|2:0,2:0:0:0:
287,370,97505,1,0,2:0:0:0:
348,168,97664,1,2,3:2:0:0:
392,301,97823,1,2,3:2:0:0:
407,77,97981,1,8,2:0:0:0:
226,174,98140,6,0,P|192:187|126:195,1,90.567,0|2,2:0|3:2,2:0:0:0:
0,273,98457,2,0,P|34:286|100:294,1,90,0|8,2:0|2:0,2:0:0:0:
220,384,98775,2,0,P|208:305|210:180,1,180,2|2,3:2|3:2,2:0:0:0:
128,37,99251,1,8,2:0:0:0:
284,144,99410,1,0,2:0:0:0:
17,149,99568,6,0,B|107:105|97:168|217:107,1,180,2|8,3:2|2:0,2:0:0:0:
291,56,100045,1,0,2:0:0:0:
222,216,100203,1,2,3:2:0:0:
356,289,100362,1,2,3:2:0:0:
284,144,100521,1,8,2:0:0:0:
266,377,100679,2,0,P|259:329|266:270,1,90,0|2,2:0|3:2,2:0:0:0:
370,183,100997,6,0,P|326:233|205:193,1,180,2|2,3:2|3:2,2:0:0:0:
77,100,101473,2,0,P|118:110|174:116,1,90,0|0,2:0|2:0,2:0:0:0:
196,123,101711,1,0,2:0:0:0:
196,123,101791,1,8,2:0:0:0:
28,210,101949,1,0,2:0:0:0:
120,360,102108,6,0,P|125:315|135:271,1,90,2|0,3:2|2:0,2:0:0:0:
247,333,102428,2,0,P|291:327|335:317,1,90,8|0,2:0|2:0,2:0:0:0:
165,190,102748,1,2,3:2:0:0:
353,280,102908,1,2,3:2:0:0:
257,53,103068,1,8,2:0:0:0:
240,258,103228,5,0,2:0:0:0:
240,258,103308,1,0,2:0:0:0:
240,258,103388,1,2,3:2:0:0:
176,16,103546,1,0,2:0:0:0:
334,157,103705,1,8,2:0:0:0:
116,284,103864,1,0,2:0:0:0:
434,331,104022,2,0,P|448:252|429:139,1,180,2|8,3:2|2:0,2:0:0:0:
136,135,104657,5,2,3:2:0:0:
80,248,104816,1,0,2:0:0:0:
193,304,104975,1,8,2:0:0:0:
172,54,105134,5,4,2:3:0:0:
172,54,105213,1,8,2:0:0:0:
172,54,105292,1,8,2:0:0:0:
272,223,105451,1,8,2:0:0:0:
106,331,105610,1,2,3:2:0:0:
125,119,105772,1,2,3:2:0:0:
249,381,105934,5,4,2:0:0:0:
256,192,106012,12,0,107899,3:1:0:0:
