osu file format v14

[General]
AudioFilename: audio.mp3
AudioLeadIn: 0
PreviewTime: 38483
Countdown: 0
SampleSet: Soft
StackLeniency: 0.7
Mode: 0
LetterboxInBreaks: 1
EpilepsyWarning: 1
WidescreenStoryboard: 1

[Editor]
Bookmarks: 31696
DistanceSpacing: 0.4
BeatDivisor: 4
GridSize: 16
TimelineZoom: 8

[Metadata]
Title:The Last Bell I Will Ever Hear
TitleUnicode:The Last Bell I Will Ever Hear
Artist:The Arrogant Sons Of Bitches
ArtistUnicode:The Arrogant Sons Of Bitches
Creator:tutis
Version:vastly's Extra
Source:
Tags:ska skate punk rock english three cheers for disappointment jeff rosenstock balloons jacksfilms take vastly sinyus20 ZevinLevin Vncegd 3d boi [3d]
BeatmapID:4424093
BeatmapSetID:1915203

[Difficulty]
HPDrainRate:5
CircleSize:4
OverallDifficulty:8
ApproachRate:9
SliderMultiplier:1.4
SliderTickRate:0.5

[Events]
//Background and Video events
0,0,"cover_wallpaper.jpg",0,0
//Break Periods
//Storyboard Layer 0 (Background)
//Storyboard Layer 1 (Fail)
//Storyboard Layer 2 (Pass)
//Storyboard Layer 3 (Foreground)
//Storyboard Layer 4 (Overlay)
//Storyboard Sound Samples

[TimingPoints]
386,366.97247706422,4,2,1,60,1,0
1486,327.868852459016,4,2,1,60,1,0
1813,328.767123287671,4,2,1,60,1,0
2799,323.450134770889,4,2,1,60,1,0
3122,341.880341880342,4,2,1,60,1,0
4147,310.363938751497,4,2,1,60,1,0
4457,335.852225020991,4,2,1,60,1,0
5464,319.148936170213,4,2,1,60,1,0
5783,326.975476839237,4,2,1,60,1,0
6436,322.580645161291,4,2,1,60,1,0
7081,322.58064516129,4,2,1,60,1,0
7726,332.409972299169,4,2,1,60,1,0
8723,326.086956521739,4,2,1,60,1,0
8723,-90.9090909090909,4,2,1,60,0,0
9701,351.906158357771,4,2,1,60,1,0
10052,330.578512396695,4,2,1,60,1,0
10052,-90.9090909090909,4,2,1,60,0,0
11043,343.839541547278,4,2,1,60,1,0
11386,-100,4,2,1,65,0,0
11730,329.67032967033,4,2,1,70,1,0
11730,-83.3333333333333,4,2,1,70,0,0
11894,-83.3333333333333,4,2,1,65,0,0
12389,327.868852459016,4,2,1,70,1,0
13044,327.868852459016,4,2,1,70,1,0
13699,335.195530726257,4,2,1,70,1,0
13699,-71.4285714285714,4,2,1,70,0,0
14369,329.670329670329,4,2,1,70,1,0
14451,-71.4285714285714,4,2,1,70,0,0
15028,299.999999999999,4,2,1,70,1,0
15028,-71.4285714285714,4,2,1,70,0,0
15328,354.50516986706,4,2,1,70,1,0
16214,312.5,4,2,1,70,1,0
16370,339.943342776204,4,2,1,70,1,0
16370,-71.4285714285714,4,2,1,70,0,0
17049,329.67032967033,4,2,1,70,1,0
17049,-71.4285714285714,4,2,1,70,0,0
17708,325.20325205834,4,2,1,70,1,0
19008,331.491712707182,4,2,1,70,1,0
19008,-71.4285714285714,4,2,1,70,0,0
20333,331.491712707182,4,2,1,70,1,0
20333,-71.4285714285714,4,2,1,70,0,0
21658,309.278350515464,4,2,1,70,1,0
21658,-71.4285714285714,4,2,1,70,0,0
21967,334.261838440111,4,2,1,70,1,0
22134,-66.6666666666667,4,2,1,70,0,0
22969,332.409972299169,4,2,1,60,1,0
22969,-66.6666666666667,4,2,1,60,0,0
23966,353.982300884956,4,2,1,60,1,0
24319,350.877192982456,4,2,1,60,1,0
24319,-66.6666666666667,4,2,1,60,0,0
25020,318.725099601593,4,2,1,60,1,0
25020,-71.4285714285714,4,2,1,60,0,0
25657,329.218106995885,4,2,1,60,1,0
25657,-62.5,4,2,1,60,0,0
26315,-71.4285714285714,4,2,1,60,0,0
26644,309.278350515464,4,2,1,60,1,0
26721,-58.8235294117647,4,2,1,60,0,0
26953,333.333333333333,4,2,1,60,1,0
26953,-58.8235294117647,4,2,1,60,0,0
28119,-55.5555555555556,4,2,1,60,0,0
28286,319.148936170213,4,2,1,75,1,1
28286,-55.5555555555556,4,2,1,75,0,1
29243,331.491712707182,4,2,1,75,1,1
29243,-58.8235294117647,4,2,1,75,0,1
29574,322.58064516129,4,2,1,75,1,1
29574,-55.5555555555556,4,2,1,75,0,1
29735,-58.8235294117647,4,2,1,75,0,1
30541,346.820809248555,4,2,1,75,1,1
30887,323.886639676113,4,2,1,75,1,1
30887,-52.6315789473684,4,2,1,75,0,1
32182,-50,4,2,1,75,0,1
32506,340.909090909091,4,2,1,75,1,1
32676,-58.8235294117647,4,2,1,75,0,1
32846,324.763193504736,4,2,1,75,1,1
32846,-58.8235294117647,4,2,1,75,0,1
33495,333.333333333333,4,2,1,65,1,1
33495,-62.5,4,2,1,65,0,1
33661,-62.5,4,2,1,65,0,0
34161,321.285140562249,4,2,1,65,1,0
34803,338.983050847457,4,2,1,65,1,0
34803,-62.5,4,2,1,65,0,0
35480,-71.4285714285714,4,2,1,65,0,0
36158,326.975476839237,4,2,1,65,1,0
36158,-62.5,4,2,1,65,0,0
36811,335.195530726257,4,2,1,65,1,0
36811,-76.9230769230769,4,2,1,65,0,0
37229,-58.8235294117647,4,2,1,65,0,0
37481,320.855614973262,4,2,1,65,1,0
37481,-58.8235294117647,4,2,1,65,0,0
37801,339.943342776204,4,2,1,65,1,0
38140,-71.4285714285714,4,2,1,65,0,0
38650,-62.5,4,2,1,65,0,0
38820,333.333333333333,4,2,1,80,1,0
38820,-50,4,2,1,80,0,0
39820,345.821325648415,4,2,1,80,1,0
40165,324.324324324324,4,2,1,80,1,0
40165,-55.5555555555556,4,2,1,80,0,0
40489,335.195530726257,4,2,1,80,1,0
40489,-55.5555555555556,4,2,1,80,0,0
41494,317.460317460317,4,2,1,80,1,0
41494,-55.5555555555556,4,2,1,80,0,0
41811,328.317373461012,4,2,1,80,1,0
41811,-55.5555555555556,4,2,1,80,0,0
42795,339.943342776204,4,2,1,80,1,0
42795,-55.5555555555556,4,2,1,80,0,0
43814,353.982300884956,4,2,1,80,1,0
44167,322.58064516129,4,2,1,80,1,1
44167,-52.6315789473684,4,2,1,80,0,1
44489,332.409972299169,4,2,1,80,1,1
44738,-52.6315789473684,4,2,1,80,0,1
45486,316.622691292876,4,2,1,80,1,1
45486,-50,4,2,1,80,0,1
46435,330.578512396695,4,2,1,80,1,1
46600,-49.7512437810945,4,2,1,80,0,1
46765,324.324324324324,4,2,1,80,1,1
47089,-50,4,2,1,80,0,1
48062,293.398533007335,4,2,1,80,1,1
48355,335.195530726258,4,2,1,80,1,1
48690,-58.8235294117647,4,2,1,80,0,1
49360,337.552742616033,4,2,1,80,1,1
49360,-50,4,2,1,80,0,1
50709,331.491712707182,4,2,1,80,1,1
51040,-50,4,2,1,80,0,1
52034,333.333333333333,4,2,1,80,1,1
52034,-47.6190476190476,4,2,1,80,0,1
52700,-50,4,2,1,80,0,1
53034,312.5,4,2,1,80,1,1
53190,-50,4,2,1,80,0,1
53346,328.767123287671,4,2,1,80,1,1
53346,-52.6315789473684,4,2,1,80,0,1
54660,329.670329670329,4,2,1,70,1,0
54660,-62.5,4,2,1,70,0,0
55649,357.142857142857,4,2,1,70,1,0
56006,330.578512396694,4,2,1,70,1,0
56006,-62.5,4,2,1,70,0,0
57328,336.417157275021,4,2,1,70,1,0
58337,-62.5,4,2,1,70,0,0
58673,336.134453781513,4,2,1,70,1,0
58673,-58.8235294117647,4,2,1,70,0,0
59345,347.826086956522,4,2,1,70,1,0
59345,-55.5555555555556,4,2,1,70,0,0
60040,327.868852459016,4,2,1,70,1,0
60367,350.877192982456,4,2,1,70,1,0
60717,327.421555252387,4,2,1,70,1,0
62026,324.324324324324,4,2,1,70,1,0
62026,-55.5555555555556,4,2,1,70,0,0
62674,326.086956521739,4,2,1,70,1,0
62674,-55.5555555555556,4,2,1,70,0,0
63163,-48.5436893203883,4,2,1,70,0,0
63326,319.148936170212,4,2,1,70,1,0
63964,333.333333333334,4,2,1,70,1,0
64297,-55.5555555555556,4,2,1,70,0,0
64630,343.347639484979,4,2,1,70,1,0
65316,318.302387267905,4,2,1,70,1,0
65952,327.868852459016,4,2,1,70,1,0
65952,-66.6666666666667,4,2,1,70,0,0
66607,308.880308880309,4,2,1,70,1,0
66607,-133.333333333333,4,2,1,70,0,0
67224,335.195530726257,4,2,1,70,1,0
67894,269.058295964125,4,2,1,70,1,0

[Colours]
Combo1 : 117,173,223
Combo2 : 77,221,182
Combo3 : 226,230,83
Combo4 : 237,125,105

[HitObjects]
39,220,1486,5,8,2:3:0:0:
16,230,1567,1,4,2:3:0:0:
7,250,1649,1,4,2:3:0:0:
9,267,1731,1,4,2:3:0:0:
16,275,1813,6,0,B|73:284|121:268|111:152|241:136|251:211|233:219,1,280,12|0,2:0|2:0,2:0:0:0:
389,233,2799,5,8,2:3:0:0:
379,259,2879,1,4,2:3:0:0:
358,267,2960,1,4,2:3:0:0:
343,262,3041,1,4,2:3:0:0:
337,252,3122,6,0,B|449:216|463:219|577:311|334:314|471:398,1,280,12|0,2:0|2:0,2:0:0:0:
278,330,4147,5,8,2:3:0:0:
256,342,4224,1,4,2:3:0:0:
247,363,4302,1,4,2:3:0:0:
251,379,4379,1,4,2:3:0:0:
259,384,4457,6,0,B|262:339|271:263|182:308|141:194|188:150|237:155,1,280,12|0,2:0|2:0,2:0:0:0:
464,126,5464,5,8,2:3:0:0:
452,108,5543,1,4,2:3:0:0:
458,90,5623,1,4,2:3:0:0:
469,83,5703,1,4,2:3:0:0:
479,87,5783,6,0,B|423:22|272:16|355:107|286:145|219:138,1,280,12|2,2:0|2:0,2:0:0:0:
11,74,6758,1,2,2:0:0:0:
75,149,7000,5,8,2:3:0:0:
82,139,7081,2,0,B|96:170|96:170|84:207,1,70,4|4,2:3|2:3,2:0:0:0:
6,303,7403,2,0,P|61:287|127:274,1,105,12|0,2:0|2:0,2:0:0:0:
175,306,7726,5,4,2:3:0:0:
255,245,7892,1,4,2:3:0:0:
407,279,8058,2,0,B|458:267|450:304|522:309,1,105,12|0,2:0|2:0,2:0:0:0:
323,316,8390,5,4,2:3:0:0:
346,203,8557,1,4,2:3:0:0:
490,154,8723,2,0,B|506:101|506:101|478:46,1,115.5,12|8,2:0|2:3,2:0:0:0:
415,113,9049,5,4,2:3:0:0:
291,8,9212,1,4,2:3:0:0:
199,140,9375,1,12,2:0:0:0:
277,159,9538,1,0,2:0:0:0:
287,151,9619,1,2,2:3:0:0:
277,145,9701,5,2,2:0:0:0:
189,58,9876,1,4,2:3:0:0:
44,163,10052,6,0,P|43:219|43:290,1,115.5,12|8,2:0|2:3,2:0:0:0:
99,325,10382,1,4,2:3:0:0:
224,246,10547,1,4,2:3:0:0:
342,308,10713,2,0,P|343:343|343:390,1,77,12|4,2:0|2:3,2:0:0:0:
308,232,11043,5,12,2:0:0:0:
482,197,11214,1,4,2:3:0:0:
448,34,11386,5,12,2:0:0:0:
274,69,11558,1,4,2:3:0:0:
378,120,11730,6,0,L|374:165,3,42,12|0|8|8,2:0|2:0|2:0|2:0,2:0:0:0:
386,180,12059,1,8,2:0:0:0:
337,193,12142,1,8,2:0:0:0:
286,200,12224,1,8,3:2:0:0:
236,207,12306,1,8,2:0:0:0:
203,167,12389,5,4,3:2:0:0:
232,336,12552,1,0,1:2:0:0:
80,370,12716,5,0,3:0:0:0:
65,282,12880,1,0,1:0:0:0:
145,312,13044,5,2,3:2:0:0:
232,336,13207,1,2,1:2:0:0:
330,320,13371,5,2,3:2:0:0:
401,339,13535,1,2,1:2:0:0:
467,292,13699,6,0,L|493:178,1,98,4|0,3:2|1:0,2:0:0:0:
512,106,14034,1,0,3:0:0:0:
498,113,14117,1,0,3:0:0:0:
509,120,14201,1,0,1:0:0:0:
463,41,14369,5,2,2:0:0:0:
454,32,14451,2,0,L|394:40,1,49,8|2,2:1|2:0,2:0:0:0:
364,99,14616,2,0,L|297:107,1,49,8|2,2:0|2:0,2:0:0:0:
261,152,14781,2,0,L|194:160,1,49,8|2,2:1|2:0,2:0:0:0:
160,230,14945,5,8,2:0:0:0:
146,226,15028,2,0,B|113:263|113:263|135:320,1,98,4|0,3:2|1:0,2:0:0:0:
194,346,15328,5,0,3:0:0:0:
254,298,15505,1,0,1:0:0:0:
369,383,15682,1,0,2:0:0:0:
488,309,15859,1,2,1:2:0:0:
436,255,16037,1,2,3:2:0:0:
510,147,16214,5,2,1:2:0:0:
510,147,16292,1,0,1:0:0:0:
510,147,16370,2,0,B|442:143|470:167|393:185,1,98,4|0,3:2|1:0,2:0:0:0:
322,121,16709,5,0,3:0:0:0:
337,111,16794,1,0,3:0:0:0:
341,127,16879,1,0,1:0:0:0:
248,62,17049,6,0,L|245:10,1,49,8|8,2:0|2:0,2:0:0:0:
240,72,17213,2,0,L|237:20,1,49,8|4,2:3|2:3,2:0:0:0:
150,68,17378,6,0,L|147:16,1,49,8|8,2:0|2:0,2:0:0:0:
142,78,17543,2,0,L|139:26,1,49,8|4,2:3|2:3,2:0:0:0:
26,99,17708,5,4,3:2:0:0:
195,152,17870,1,0,1:2:0:0:
62,276,18033,1,0,3:0:0:0:
53,260,18114,1,0,3:0:0:0:
64,251,18195,1,0,1:0:0:0:
129,321,18358,5,2,3:2:0:0:
302,281,18521,1,2,1:2:0:0:
228,384,18683,5,2,1:2:0:0:
194,232,18846,1,2,1:2:0:0:
416,164,19008,6,0,P|417:214|416:265,1,98,4|0,3:2|1:0,2:0:0:0:
422,358,19339,1,0,3:0:0:0:
409,361,19422,1,0,3:0:0:0:
404,348,19505,1,0,1:0:0:0:
321,312,19670,5,2,2:0:0:0:
311,322,19753,2,0,L|316:383,1,49,8|2,2:1|2:0,2:0:0:0:
263,209,19919,2,0,L|268:270,1,49,8|2,2:0|2:0,2:0:0:0:
316,109,20085,2,0,L|321:170,1,49,8|2,2:1|2:0,2:0:0:0:
301,13,20251,5,8,2:0:0:0:
288,40,20333,2,0,B|240:51|240:51|182:19,1,98,4|0,3:2|1:0,2:0:0:0:
117,28,20664,5,0,3:0:0:0:
96,182,20830,1,0,1:0:0:0:
263,209,20995,5,0,2:0:0:0:
284,55,21161,1,2,1:2:0:0:
192,124,21327,5,2,3:2:0:0:
163,269,21493,1,2,1:2:0:0:
177,263,21576,1,0,1:0:0:0:
168,253,21658,2,0,L|150:378,1,98,4|0,3:2|1:0,2:0:0:0:
248,384,21967,5,0,3:0:0:0:
243,370,22050,1,0,3:0:0:0:
257,370,22134,2,0,P|276:353|277:313,1,52.5,0|0,1:0|3:0,2:0:0:0:
338,279,22301,5,8,2:0:0:0:
355,285,22384,1,8,2:0:0:0:
403,278,22468,5,8,2:3:0:0:
440,289,22551,1,4,2:3:0:0:
477,265,22635,5,8,2:0:0:0:
467,212,22719,1,8,2:0:0:0:
487,194,22802,5,8,2:3:0:0:
489,169,22886,1,4,2:3:0:0:
470,154,22969,6,0,L|371:108,1,105,4|0,3:2|1:0,2:0:0:0:
322,54,23301,1,0,3:0:0:0:
300,60,23384,1,0,3:0:0:0:
282,65,23467,1,0,1:0:0:0:
231,124,23633,5,0,3:0:0:0:
231,124,23800,1,0,1:0:0:0:
112,179,23966,1,0,3:0:0:0:
88,175,24054,1,0,3:0:0:0:
69,172,24142,1,0,1:0:0:0:
152,244,24319,6,0,P|149:295|153:367,1,105,2|0,2:3|1:0,2:0:0:0:
226,366,24669,1,0,3:0:0:0:
238,369,24757,1,0,3:0:0:0:
247,377,24845,1,0,1:0:0:0:
383,352,25020,2,0,P|433:358|488:380,1,98,0|0,3:0|1:0,2:0:0:0:
336,292,25338,2,0,P|309:295|272:308,1,49,0|0,3:0|3:0,2:0:0:0:
421,267,25498,1,0,1:0:0:0:
409,270,25577,1,0,2:0:0:0:
417,278,25657,6,0,B|445:229|445:229|423:172,1,112,2|0,2:3|1:0,2:0:0:0:
474,120,25986,1,0,3:0:0:0:
466,105,26068,1,0,3:0:0:0:
481,106,26150,1,0,1:0:0:0:
416,50,26315,6,0,L|367:59,3,49,0|0|0|0,3:0|2:0|1:0|2:0,2:0:0:0:
312,104,26644,5,0,3:0:0:0:
301,104,26721,2,0,B|276:21,1,59.5,0|0,3:0|1:0,2:0:0:0:
176,22,26875,5,0,2:0:0:0:
171,14,26953,2,0,B|110:6|110:6|56:51,1,119,2|0,2:3|1:0,2:0:0:0:
14,115,27286,1,0,3:0:0:0:
1,115,27369,1,0,3:0:0:0:
7,105,27453,6,0,B|18:178,1,59.5,0|0,1:0|2:0,2:0:0:0:
39,230,27619,2,0,P|33:255|22:233,3,59.5,0|0|4|0,3:0|2:0|1:2|2:0,2:0:0:0:
76,332,27953,5,2,3:2:0:0:
82,324,28036,1,0,2:0:0:0:
75,319,28119,2,0,P|77:348|87:385,1,63,2|0,1:2|2:0,2:0:0:0:
249,384,28286,6,0,B|279:325|279:325|248:255,1,126,4|0,3:2|1:0,2:0:0:0:
180,253,28605,1,0,3:0:0:0:
354,272,28764,1,0,1:0:0:0:
286,86,28924,5,0,3:0:0:0:
277,168,29083,1,0,1:0:0:0:
362,137,29243,2,0,B|438:123|421:157|491:165,1,119,0|0,3:0|1:0,2:0:0:0:
507,233,29491,1,0,2:0:0:0:
507,233,29574,6,0,P|474:236|447:246,1,63,4|0,3:2|2:0,2:0:0:0:
420,317,29735,2,0,P|413:343|414:377,1,59.5,0|0,1:0|2:0,2:0:0:0:
320,346,29896,5,0,3:0:0:0:
309,340,29977,1,0,3:0:0:0:
317,331,30057,2,0,B|305:252,1,59.5,0|0,1:0|3:0,2:0:0:0:
229,192,30219,5,0,2:0:0:0:
207,201,30299,1,0,3:0:0:0:
198,223,30380,1,0,1:0:0:0:
134,310,30541,5,0,3:0:0:0:
116,293,30627,1,0,2:0:0:0:
97,291,30714,1,0,1:0:0:0:
0,363,30887,6,0,P|7:298|23:218,1,133,4|0,3:2|1:0,2:0:0:0:
13,153,31210,5,0,3:0:0:0:
37,143,31291,1,0,3:0:0:0:
48,117,31372,1,0,1:0:0:0:
5,42,31534,5,0,2:0:0:0:
195,110,31696,1,0,1:0:0:0:
165,189,31858,5,0,3:0:0:0:
322,103,32020,1,0,1:0:0:0:
478,10,32182,6,0,P|486:82|479:169,1,140,4|0,3:2|1:0,2:0:0:0:
413,224,32506,5,0,3:0:0:0:
413,210,32591,1,0,3:0:0:0:
401,214,32676,2,0,P|388:189|416:175,1,59.5,0|0,1:0|3:0,2:0:0:0:
482,257,32846,6,0,P|484:288|482:316,3,59.5,0|0|0|0,3:0|3:0|1:0|1:0,2:0:0:0:
443,345,33170,1,4,2:3:0:0:
406,362,33251,1,0,1:0:0:0:
358,342,33333,1,0,1:0:0:0:
306,359,33414,1,8,2:3:0:0:
266,384,33495,6,0,B|233:343|233:343|249:279,1,112,4|0,3:2|1:0,2:0:0:0:
184,223,33828,5,0,3:0:0:0:
158,219,33911,1,0,3:0:0:0:
142,232,33995,1,0,1:0:0:0:
247,285,34161,5,0,3:0:0:0:
321,264,34321,1,0,1:0:0:0:
400,241,34482,1,0,3:0:0:0:
415,249,34562,1,0,3:0:0:0:
416,266,34642,1,0,1:0:0:0:
512,128,34803,6,0,B|486:121|486:121|442:163|442:163|410:158,1,112,2|0,3:0|1:0,2:0:0:0:
349,98,35141,5,0,3:0:0:0:
341,64,35226,1,0,3:0:0:0:
362,46,35311,1,0,1:0:0:0:
282,149,35480,6,0,L|229:157,2,49,0|0|0,3:0|2:0|1:0,2:0:0:0:
275,160,35819,6,0,L|221:168,2,49,0|0|0,3:0|3:0|1:0,2:0:0:0:
83,112,36158,6,0,B|62:61|62:61|94:5,1,112,2|0,3:0|1:0,2:0:0:0:
157,125,36484,5,0,3:0:0:0:
155,155,36566,1,0,3:0:0:0:
135,169,36648,1,0,1:0:0:0:
17,212,36811,6,0,P|40:217|36:234,3,45.5,0|0|0|0,3:0|2:0|1:0|2:0,2:0:0:0:
12,305,37146,5,0,3:0:0:0:
23,319,37229,2,0,B|90:308,1,59.5,0|0,3:0|1:0,2:0:0:0:
154,349,37397,5,0,2:0:0:0:
158,337,37481,2,0,B|216:321|216:321|267:368,1,119,2|0,3:0|1:0,2:0:0:0:
335,362,37801,5,0,3:0:0:0:
371,348,37885,1,0,3:0:0:0:
386,303,37970,1,0,1:0:0:0:
490,280,38140,6,0,P|466:274|461:248,3,49,0|0|4|0,3:0|2:0|1:2|2:0,2:0:0:0:
456,175,38480,5,0,3:0:0:0:
448,167,38565,1,0,3:0:0:0:
448,179,38650,2,0,L|392:184,1,56,0|0,1:0|2:0,2:0:0:0:
305,139,38820,6,0,B|266:82|266:82|291:15,1,140,4|0,3:1|1:2,2:0:0:0:
361,31,39153,5,0,3:2:0:0:
194,87,39320,1,0,3:2:0:0:
247,245,39486,5,0,3:0:0:0:
414,189,39653,1,0,1:2:0:0:
305,139,39820,5,0,3:2:0:0:
356,294,39992,1,0,1:0:0:0:
206,354,40165,6,0,B|132:323|141:369|85:377,1,126,4|0,3:2|1:2,2:0:0:0:
8,343,40489,6,0,P|0:313|29:311,3,62.9999999999999,0|0|0|0,3:2|3:2|1:2|3:2,2:0:0:0:
97,295,40824,1,0,2:0:0:0:
107,285,40907,1,0,3:2:0:0:
101,273,40991,1,0,1:2:0:0:
107,261,41075,1,0,1:0:0:0:
75,217,41159,1,0,3:2:0:0:
98,187,41243,1,0,3:2:0:0:
77,147,41326,1,0,1:2:0:0:
94,113,41410,1,0,1:2:0:0:
73,71,41494,6,0,P|138:74|208:92,1,126,4|0,3:2|1:2,2:0:0:0:
390,63,41811,2,0,P|454:65|483:4,1,126,4|0,3:2|1:2,2:0:0:0:
289,3,42057,1,0,3:2:0:0:
278,17,42139,5,4,2:0:0:0:
284,32,42221,1,0,2:0:0:0:
272,43,42303,1,0,1:2:0:0:
289,88,42385,1,0,2:0:0:0:
273,107,42467,5,4,3:2:0:0:
282,134,42549,1,0,2:0:0:0:
270,148,42631,1,0,1:2:0:0:
296,214,42713,1,0,2:0:0:0:
371,215,42795,6,0,B|453:191|431:231|511:241,1,126,4|0,3:2|1:0,2:0:0:0:
222,247,43134,2,0,B|140:223|162:263|82:273,1,126,4|0,3:2|1:0,2:0:0:0:
296,339,43474,6,0,P|299:279|294:198,1,126,4|0,3:2|1:0,2:0:0:0:
269,4,43814,5,2,1:2:0:0:
217,5,43902,1,2,1:2:0:0:
257,35,43990,1,2,1:2:0:0:
231,40,44079,1,2,1:2:0:0:
245,63,44167,6,0,P|254:130|259:204,1,133,4|0,3:1|1:0,2:0:0:0:
133,282,44489,5,0,3:0:0:0:
146,266,44572,1,0,3:0:0:0:
145,239,44655,1,0,1:0:0:0:
130,219,44738,6,0,B|50:206|61:248|5:260,1,133,0|0,3:0|3:0,2:0:0:0:
199,183,44987,2,0,B|216:156|216:156|211:119,1,66.5,0|0,1:0|2:0,2:0:0:0:
242,248,45153,2,0,B|224:274|224:274|229:311,1,66.5,0|0,3:0|3:0,2:0:0:0:
318,383,45320,5,0,1:0:0:0:
316,370,45403,1,0,2:0:0:0:
329,373,45486,2,0,P|399:365|417:298,1,140,4|0,3:1|1:0,2:0:0:0:
464,175,45802,6,0,P|448:107|442:17,1,140,0|0,3:0|1:0,2:0:0:0:
354,52,46040,2,0,P|370:120|376:210,1,140,0|0,3:0|3:0,2:0:0:0:
334,264,46277,2,0,P|336:292|323:265,1,70,0|0,1:0|2:0,2:0:0:0:
179,277,46435,5,0,3:0:0:0:
171,290,46517,1,0,3:0:0:0:
161,283,46600,2,0,B|65:299|112:332|30:363,2,139.5743825,0|4|0,1:0|3:1|1:0,2:0:0:0:
242,236,47089,2,0,B|258:206|258:206|248:166,1,70,0|0,3:0|3:0,2:0:0:0:
318,125,47251,5,0,1:0:0:0:
318,125,47332,2,0,P|387:127|460:153,1,140,0|0,3:0|3:0,2:0:0:0:
512,111,47575,2,0,P|513:74|485:50,1,70,0|0,1:0|2:0,2:0:0:0:
384,25,47737,5,0,3:0:0:0:
397,43,47819,1,0,3:0:0:0:
414,29,47900,1,0,1:0:0:0:
254,0,48062,5,4,3:1:0:0:
208,156,48208,1,2,1:2:0:0:
77,62,48355,1,2,3:2:0:0:
91,60,48438,1,0,3:0:0:0:
90,73,48522,1,2,1:2:0:0:
28,132,48690,6,0,P|27:163|52:149,2,59.5,2|2|0,3:2|3:2|1:0,2:0:0:0:
6,239,49025,5,0,3:0:0:0:
27,232,49109,1,2,1:2:0:0:
55,255,49192,1,2,1:2:0:0:
97,250,49276,1,0,2:0:0:0:
134,281,49360,6,0,P|199:272|279:269,1,140,4|0,3:1|1:0,2:0:0:0:
396,342,49697,5,0,3:0:0:0:
400,357,49781,1,0,3:0:0:0:
410,350,49866,2,0,P|477:339|498:269,1,140,0|0,1:0|2:0,2:0:0:0:
453,220,50119,5,0,3:0:0:0:
453,220,50203,2,0,P|424:200|420:156,1,70,0|0,1:0|2:0,2:0:0:0:
440,96,50372,5,0,3:0:0:0:
444,83,50457,1,0,3:0:0:0:
432,87,50541,2,0,P|398:87|360:94,1,70,4|0,1:2|2:0,2:0:0:0:
304,139,50709,5,4,3:1:0:0:
147,79,50874,1,0,1:0:0:0:
257,0,51040,6,0,P|260:33|231:26,3,70,0|0|0|0,3:0|3:0|1:0|3:0,2:0:0:0:
224,129,51371,5,0,2:0:0:0:
210,126,51454,1,0,3:0:0:0:
215,134,51537,2,0,L|148:150,1,70,0|0,1:0|2:0,2:0:0:0:
26,195,51703,5,4,3:2:0:0:
34,219,51786,1,0,3:0:0:0:
50,222,51869,1,0,1:0:0:0:
58,218,51952,1,0,2:0:0:0:
62,212,52034,6,0,P|93:278|100:363,1,147,4|0,3:1|1:0,2:0:0:0:
170,384,52367,6,0,P|179:348|204:324,1,73.5,0|0,3:0|3:0,2:0:0:0:
284,316,52534,5,0,1:0:0:0:
294,328,52617,1,0,3:0:0:0:
297,314,52700,2,0,B|375:290|371:338|449:352,1,140,0|0,2:0|1:0,2:0:0:0:
506,237,53034,5,0,3:0:0:0:
497,231,53112,1,0,3:0:0:0:
508,227,53190,2,0,P|520:192|499:163,1,70,0|0,1:0|2:0,2:0:0:0:
476,101,53346,6,0,B|406:90|406:90|354:138,1,133,4|0,3:1|1:0,2:0:0:0:
292,89,53674,6,0,P|270:107|266:80,3,66.5,2|0|0|0,3:2|3:0|1:0|2:0,2:0:0:0:
214,19,54003,5,2,3:2:0:0:
178,42,54085,1,0,3:0:0:0:
137,30,54167,1,0,1:0:0:0:
97,44,54250,1,0,2:0:0:0:
72,38,54332,5,2,3:2:0:0:
57,48,54414,1,0,1:0:0:0:
41,46,54496,1,0,1:0:0:0:
29,51,54578,1,8,2:3:0:0:
10,48,54660,6,0,B|-6:102|-6:102|28:155,1,112,4|0,3:2|1:0,2:0:0:0:
79,219,54989,1,0,3:0:0:0:
95,216,55072,1,0,3:0:0:0:
89,230,55154,1,0,1:0:0:0:
199,134,55319,5,0,3:2:0:0:
220,309,55484,1,0,1:0:0:0:
330,189,55649,1,0,3:0:0:0:
324,203,55738,1,0,3:0:0:0:
314,192,55827,1,0,1:0:0:0:
387,271,56006,6,0,P|442:276|484:232,1,112,0|0,3:2|1:0,2:0:0:0:
495,153,56336,1,0,3:0:0:0:
479,162,56419,1,0,3:0:0:0:
483,145,56501,1,0,1:0:0:0:
380,88,56667,5,0,3:2:0:0:
268,108,56832,1,0,1:0:0:0:
301,7,56997,1,0,3:0:0:0:
315,1,57080,1,0,3:0:0:0:
312,16,57163,1,0,1:0:0:0:
336,186,57328,5,0,3:2:0:0:
157,140,57496,1,0,1:0:0:0:
201,314,57664,1,0,3:2:0:0:
217,311,57748,1,0,3:0:0:0:
207,297,57832,1,0,1:0:0:0:
233,209,58000,5,0,3:0:0:0:
108,242,58169,1,0,1:0:0:0:
295,317,58337,2,0,B|363:316|336:348|401:363,1,112,0|0,3:0|1:0,2:0:0:0:
488,313,58673,6,0,P|496:257|391:224,1,178.5,4|0,3:2|3:0,2:0:0:0:
399,218,59009,5,0,1:0:0:0:
478,184,59177,1,0,3:0:0:0:
333,24,59345,2,0,P|329:86|334:167,1,126,4|0,3:2|2:0,2:0:0:0:
277,271,59605,2,0,P|276:238|271:193,2,63,0|0|0,3:0|1:0|1:0,2:0:0:0:
198,111,59866,2,0,P|197:143|203:176,1,63,0|0,3:0|2:0,2:0:0:0:
143,220,60040,5,4,3:2:0:0:
0,176,60203,1,0,1:0:0:0:
103,69,60367,1,0,3:0:0:0:
109,80,60454,1,0,3:0:0:0:
100,85,60542,1,0,1:0:0:0:
49,257,60717,5,2,3:0:0:0:
236,211,60880,1,0,1:0:0:0:
366,263,61044,5,2,3:0:0:0:
469,237,61208,1,0,1:0:0:0:
341,154,61371,5,2,3:0:0:0:
259,338,61535,1,0,1:0:0:0:
216,211,61699,5,2,3:0:0:0:
381,277,61862,1,0,1:0:0:0:
180,331,62026,6,0,B|98:334|120:366|55:379,1,126,2|0,3:0|1:0,2:0:0:0:
3,291,62350,5,2,3:0:0:0:
0,272,62431,1,0,3:0:0:0:
13,264,62512,1,0,1:0:0:0:
104,132,62674,6,0,B|137:78|137:78|105:21,1,126,2|0,3:0|1:0,2:0:0:0:
13,157,63000,1,0,3:0:0:0:
6,85,63163,6,0,B|174:54|129:163|269:196,1,285.2688471149,0|0,1:0|1:0,1:0:0:0:
345,148,63645,1,0,3:0:0:0:
326,141,63724,1,0,3:0:0:0:
330,159,63804,1,0,1:0:0:0:
264,282,63964,5,0,3:2:0:0:
421,256,64130,1,0,1:0:0:0:
356,381,64297,6,0,P|353:351|374:367,3,63,0|0|0|0,3:0|3:0|1:0|2:0,2:0:0:0:
288,374,64630,5,0,1:0:0:0:
259,384,64715,1,0,1:0:0:0:
240,365,64801,1,0,1:0:0:0:
192,378,64887,1,0,1:0:0:0:
167,346,64973,1,0,1:0:0:0:
122,364,65059,1,0,1:0:0:0:
96,332,65145,1,0,1:0:0:0:
46,359,65230,1,0,1:0:0:0:
4,325,65316,6,0,B|-38:230|84:239|4:114,1,210,4|0,3:2|3:0,2:0:0:0:
118,134,65952,2,0,B|143:126|143:126|173:40|173:40|203:36|203:34|203:31|207:31|211:31|211:34|211:37|211:31|207:31|203:31|203:27|203:24|203:30|211:31|211:28|211:24|222:24|222:29|222:31|222:34|222:36|328:22|328:22|307:40|312:69,1,315,4|0,1:2|3:0,2:0:0:0:
512,76,66607,6,0,B|500:96|500:96|388:112|388:112|372:99,1,157.5,4|0,1:2|3:0,2:0:0:0:
312,49,67224,1,4,1:2:0:0:
338,209,67391,1,0,3:0:0:0:
490,177,67559,5,0,3:0:0:0:
512,219,67642,1,0,3:0:0:0:
477,258,67726,1,0,3:0:0:0:
498,299,67810,1,0,3:0:0:0:
472,347,67894,5,4,1:2:0:0:
