osu file format v14

[General]
AudioFilename: audio.mp3
AudioLeadIn: 0
PreviewTime: 38483
Countdown: 0
SampleSet: Soft
StackLeniency: 0.7
Mode: 0
LetterboxInBreaks: 1
EpilepsyWarning: 1
WidescreenStoryboard: 1

[Editor]
DistanceSpacing: 1
BeatDivisor: 4
GridSize: 16
TimelineZoom: 1.5

[Metadata]
Title:The Last Bell I Will Ever Hear
TitleUnicode:The Last Bell I Will Ever Hear
Artist:The Arrogant Sons Of Bitches
ArtistUnicode:The Arrogant Sons Of Bitches
Creator:tutis
Version:ZevinLevin's Normal
Source:
Tags:ska skate punk rock english three cheers for disappointment jeff rosenstock balloons jacksfilms take vastly sinyus20 ZevinLevin Vncegd 3d boi [3d]
BeatmapID:3957557
BeatmapSetID:1915203

[Difficulty]
HPDrainRate:3
CircleSize:3.2
OverallDifficulty:4
ApproachRate:5
SliderMultiplier:1
SliderTickRate:1

[Events]
//Background and Video events
0,0,"cover_wallpaper.jpg",0,0
//Break Periods
//Storyboard Layer 0 (Background)
//Storyboard Layer 1 (Fail)
//Storyboard Layer 2 (Pass)
//Storyboard Layer 3 (Foreground)
//Storyboard Layer 4 (Overlay)
//Storyboard Sound Samples

[TimingPoints]
386,366.97247706422,4,2,1,60,1,0
1486,327.868852459016,4,2,1,60,1,0
1813,328.767123287671,4,2,1,60,1,0
2799,323.450134770889,4,2,1,60,1,0
3122,341.880341880342,4,2,1,60,1,0
4147,310.363938751497,4,2,1,60,1,0
4457,335.852225020991,4,2,1,60,1,0
5464,319.148936170213,4,2,1,60,1,0
5783,326.975476839237,4,2,1,60,1,0
6436,322.580645161291,4,2,1,60,1,0
7081,322.58064516129,4,2,1,60,1,0
7726,332.409972299169,4,2,1,60,1,0
8723,326.086956521739,4,2,1,60,1,0
9701,351.906158357771,4,2,1,60,1,0
10052,330.578512396695,4,2,1,60,1,0
11043,343.839541547278,4,2,1,60,1,0
11386,-100,4,2,1,65,0,0
11730,329.67032967033,4,2,1,70,1,0
11894,-100,4,2,1,65,0,0
12059,-100,4,2,1,65,0,0
12389,327.868852459016,4,2,1,70,1,0
13044,327.868852459016,4,2,1,70,1,0
13699,335.195530726257,4,2,1,70,1,0
14369,329.670329670329,4,2,1,70,1,0
15028,299.999999999999,4,2,1,70,1,0
15328,354.50516986706,4,2,1,70,1,0
16214,312.5,4,2,1,70,1,0
16370,339.943342776204,4,2,1,70,1,0
17049,329.67032967033,4,2,1,70,1,0
17708,325.20325205834,4,2,1,70,1,0
19008,331.491712707182,4,2,1,70,1,0
20333,331.491712707182,4,2,1,70,1,0
21658,309.278350515464,4,2,1,70,1,0
21967,334.261838440111,4,2,1,70,1,0
22969,332.409972299169,4,2,1,60,1,0
23966,353.982300884956,4,2,1,60,1,0
24319,350.877192982456,4,2,1,60,1,0
25020,318.725099601593,4,2,1,60,1,0
25657,329.218106995885,4,2,1,60,1,0
26644,309.278350515464,4,2,1,60,1,0
26953,333.333333333333,4,2,1,60,1,0
28286,319.148936170213,4,2,1,75,1,1
29243,331.491712707182,4,2,1,75,1,1
29574,322.58064516129,4,2,1,75,1,1
30541,346.820809248555,4,2,1,75,1,1
30887,323.886639676113,4,2,1,75,1,1
32506,340.909090909091,4,2,1,75,1,1
32846,324.763193504736,4,2,1,75,1,1
33495,333.333333333333,4,2,1,65,1,1
34161,321.285140562249,4,2,1,65,1,0
34803,338.983050847457,4,2,1,65,1,0
36158,326.975476839237,4,2,1,65,1,0
36811,335.195530726257,4,2,1,65,1,0
37481,320.855614973262,4,2,1,65,1,0
37801,339.943342776204,4,2,1,65,1,0
38820,333.333333333333,4,2,1,80,1,0
39820,345.821325648415,4,2,1,80,1,0
40165,324.324324324324,4,2,1,80,1,0
40327,-89.9522766390311,4,2,1,80,0,0
40489,335.195530726257,4,2,1,80,1,0
41494,317.460317460317,4,2,1,80,1,0
41811,328.317373461012,4,2,1,80,1,0
42795,339.943342776204,4,2,1,80,1,0
43814,353.982300884956,4,2,1,80,1,0
44167,322.58064516129,4,2,1,80,1,1
44489,332.409972299169,4,2,1,80,1,1
45486,316.622691292876,4,2,1,80,1,1
46435,330.578512396695,4,2,1,80,1,1
46765,324.324324324324,4,2,1,80,1,1
48062,293.398533007335,4,2,1,80,1,1
48355,335.195530726258,4,2,1,80,1,1
49360,337.552742616033,4,2,1,80,1,1
50709,331.491712707182,4,2,1,80,1,1
52034,333.333333333333,4,2,1,80,1,1
53034,312.5,4,2,1,80,1,1
53346,328.767123287671,4,2,1,80,1,1
54660,329.670329670329,4,2,1,70,1,0
55484,-104.166666666667,4,2,1,70,0,0
55649,357.142857142857,4,2,1,70,1,0
56006,330.578512396694,4,2,1,70,1,0
57328,336.417157275021,4,2,1,70,1,0
58673,336.134453781513,4,2,1,70,1,0
59345,347.826086956522,4,2,1,70,1,0
60040,327.868852459016,4,2,1,70,1,0
60367,350.877192982456,4,2,1,70,1,0
60717,327.421555252387,4,2,1,70,1,0
62026,324.324324324324,4,2,1,70,1,0
62674,326.086956521739,4,2,1,70,1,0
63326,319.148936170212,4,2,1,70,1,0
63964,333.333333333334,4,2,1,70,1,0
64630,343.347639484979,4,2,1,70,1,0
65316,318.302387267905,4,2,1,70,1,0
65952,327.868852459016,4,2,1,70,1,0
66607,308.880308880309,4,2,1,70,1,0
67224,335.195530726257,4,2,1,70,1,0
67894,269.058295964125,4,2,1,70,1,0

[Colours]
Combo1 : 117,173,223
Combo2 : 77,221,182
Combo3 : 226,230,83
Combo4 : 237,125,105

[HitObjects]
54,223,1813,6,0,P|194:199|366:170,1,300,12|8,2:0|2:3,2:0:0:0:
398,82,3122,2,0,B|349:7|103:2|172:117,1,300,12|8,2:0|2:3,2:0:0:0:
245,164,4457,2,0,B|254:369|87:151|226:386|48:330,1,300,12|8,2:0|2:3,2:0:0:0:
2,244,5783,2,0,L|16:121,1,100,12|0,2:0|2:0,2:0:0:0:
9,42,6436,2,0,L|125:59,1,100,2|2,2:0|2:0,0:0:0:0:
194,98,7081,5,4,2:3:0:0:
248,14,7403,2,0,P|297:4|370:-2,1,100.310077519332,12|4,2:0|2:3,2:0:0:0:
398,84,8058,2,0,P|372:130|349:192,1,100,12|4,2:0|2:3,2:0:0:0:
264,217,8723,2,0,P|215:202|156:196,1,100,12|4,2:0|2:3,2:0:0:0:
107,276,9375,1,12,2:0:0:0:
149,361,9701,5,2,2:0:0:0:
248,356,10052,2,0,P|303:350|364:297,1,100,12|4,2:0|2:3,2:0:0:0:
405,256,10713,1,12,2:0:0:0:
501,285,11043,2,0,B|491:353|484:321|475:381,2,100,12|12|12,2:0|2:0|2:0,2:0:0:0:
507,185,12059,1,8,2:0:0:0:
457,181,12224,1,8,3:2:0:0:
415,153,12389,6,0,B|393:150|393:150|294:168,1,100,4|0,3:2|3:0,0:0:0:0:
217,192,13044,2,0,P|218:222|221:248,1,50,2|2,3:2|1:2,2:0:0:0:
200,285,13371,2,0,P|201:315|204:341,1,50,2|2,3:2|1:2,2:0:0:0:
173,374,13699,2,0,B|143:380|143:380|62:362,1,100,4|0,3:2|3:0,2:0:0:0:
53,269,14369,1,2,2:0:0:0:
53,269,14533,2,0,L|116:256,2,50,2|2|2,2:0|2:0|2:0,0:0:0:0:
16,229,15028,6,0,B|22:183|22:183|26:181|26:181|35:121,1,100,4|0,3:2|3:0,2:0:0:0:
53,29,15682,2,0,L|-10:16,2,50,0|2|2,2:0|1:2|3:2,2:0:0:0:
113,28,16214,1,2,1:2:0:0:
113,28,16370,2,0,B|119:74|119:74|123:76|123:76|132:136,1,100,4|0,3:2|3:0,2:0:0:0:
221,176,17049,2,0,P|243:159|259:122,1,50,8|8,2:0|2:3,2:0:0:0:
297,114,17378,2,0,P|300:92|293:54,1,50,8|8,2:0|2:3,2:0:0:0:
307,15,17708,6,0,B|355:0|355:0|403:35,1,100,4|0,3:2|3:0,2:0:0:0:
483,75,18358,2,0,P|476:104|472:136,1,50,2|2,3:2|1:2,2:0:0:0:
497,169,18683,2,0,P|490:198|486:230,1,50,2|2,1:2|1:2,2:0:0:0:
496,266,19008,2,0,B|448:251|448:251|400:286,1,100,4|0,3:2|3:0,2:0:0:0:
324,332,19670,1,2,2:0:0:0:
324,332,19836,2,0,L|339:383,2,50,2|2|2,2:0|2:0|2:0,0:0:0:0:
276,315,20333,6,0,B|281:261|281:261|278:258|278:258|283:205,1,100,4|0,3:2|3:0,2:0:0:0:
290,117,20995,2,0,L|359:134,2,50,0|2|2,2:0|1:2|3:2,2:0:0:0:
250,96,21493,1,2,1:2:0:0:
250,96,21658,2,0,B|197:102|197:102|195:106|195:106|142:113,1,100,4|0,3:2|3:0,2:0:0:0:
63,68,22301,2,0,P|16:102|6:158,1,100,8|8,2:0|2:0,0:0:0:0:
4,194,22802,5,8,2:3:0:0:
4,194,22969,1,4,3:2:0:0:
115,290,23467,2,0,P|122:265|125:229,2,50,0|0|0,1:0|3:0|1:0,0:0:0:0:
101,335,23966,1,0,3:0:0:0:
193,379,24319,2,0,L|307:368,1,100,2|0,2:3|3:0,2:0:0:0:
370,288,25020,2,0,P|346:267|336:233,1,50,0|0,3:0|1:0,0:0:0:0:
316,206,25338,1,0,3:0:0:0:
221,188,25657,6,0,L|237:71,1,100,2|0,2:3|3:0,2:0:0:0:
312,23,26315,2,0,P|334:22|363:17,1,50,0|0,3:0|1:0,0:0:0:0:
412,2,26644,1,0,3:0:0:0:
484,59,26953,2,0,L|494:168,1,100,2|0,2:3|3:0,2:0:0:0:
510,259,27619,2,0,P|484:275|466:305,1,50,0|4,3:0|1:2,2:0:0:0:
467,339,27953,2,0,P|441:355|423:385,1,50,2|2,3:2|1:2,2:0:0:0:
379,382,28286,6,0,B|339:376|339:376|320:357|320:357|280:350,1,100,4|0,3:2|3:0,2:0:0:0:
244,367,28764,1,0,1:0:0:0:
244,367,28924,1,0,3:0:0:0:
188,286,29243,1,0,3:0:0:0:
235,196,29574,2,0,P|260:191|292:184,1,50,4|0,3:2|1:0,2:0:0:0:
324,154,29896,2,0,P|350:160|382:171,1,50,0|0,3:0|1:0,2:0:0:0:
420,180,30219,1,0,2:0:0:0:
495,124,30541,2,0,P|489:98|484:64,1,50,0|0,3:0|1:0,0:0:0:0:
458,29,30887,6,0,B|424:4|386:4|386:4|358:24,1,100,4|0,3:2|3:0,2:0:0:0:
275,56,31534,2,0,P|245:51|213:41,1,50,0|0,2:0|1:0,2:0:0:0:
175,52,31858,2,0,P|143:45|108:30,1,50,0|0,3:0|1:0,2:0:0:0:
87,8,32182,2,0,B|59:6|38:19|38:19|33:21|33:21|12:39|6:74,1,100.30875,4|0,3:2|3:0,2:0:0:0:
10,108,32676,1,0,1:0:0:0:
45,147,32846,2,0,L|104:140,2,50,0|0|4,3:0|1:0|2:3,0:0:0:0:
34,199,33333,5,0,1:0:0:0:
34,199,33495,2,0,P|23:254|42:312,1,100,4|0,3:2|3:0,2:0:0:0:
111,363,34161,2,0,P|139:357|174:354,1,50,0|0,3:0|1:0,2:0:0:0:
204,378,34482,2,0,P|231:374|265:370,1,50,0|0,3:0|1:0,0:0:0:0:
299,381,34803,2,0,P|304:333|315:263,1,100,2|0,3:0|3:0,2:0:0:0:
302,182,35480,2,0,P|273:180|244:190,1,50,0|0,3:0|1:0,2:0:0:0:
215,215,35819,2,0,P|190:229|156:235,1,50,0|0,3:0|1:0,0:0:0:0:
125,206,36158,2,0,P|116:158|100:95,1,100,2|0,3:0|3:0,2:0:0:0:
110,11,36811,6,0,P|141:12|167:21,1,50,0|0,3:0|1:0,2:0:0:0:
200,45,37146,1,0,3:0:0:0:
294,1,37481,2,0,P|342:-2|395:28,1,100,2|0,3:0|3:0,2:0:0:0:
442,103,38140,2,0,P|426:122|402:135,2,50,0|4|0,3:0|1:2|3:0,2:0:0:0:
496,106,38650,1,0,1:0:0:0:
496,106,38820,6,0,B|513:159|485:165|494:222,1,100,4|0,3:1|3:2,0:0:0:0:
506,303,39486,1,0,3:0:0:0:
422,351,39820,2,0,P|394:347|363:335,1,50,0|0,3:2|1:0,2:0:0:0:
331,317,40165,1,4,3:2:0:0:
331,317,40327,2,0,P|247:309|167:336,1,170.358852929992,0|0,1:2|2:0,2:0:0:0:
124,245,41159,1,0,3:2:0:0:
205,177,41494,6,0,B|227:169|251:177|251:177|274:200|315:191,1,100,4|4,3:2|3:2,2:0:0:0:
396,167,42139,2,0,B|418:164|435:151|435:151|444:118|419:77,1,100,4|4,2:0|3:2,2:0:0:0:
373,18,42795,1,4,3:2:0:0:
276,50,43134,1,4,3:2:0:0:
179,26,43474,1,4,3:2:0:0:
85,1,43814,1,2,1:2:0:0:
45,31,43990,1,2,1:2:0:0:
6,69,44167,6,0,P|-1:117|13:170,1,100,4|0,3:1|3:0,2:0:0:0:
34,210,44655,1,0,1:0:0:0:
123,164,44987,1,0,1:0:0:0:
123,164,45153,2,0,P|149:160|183:157,1,50,0|0,3:0|1:0,2:0:0:0:
220,178,45486,2,0,P|238:219|223:290,1,100,4|0,3:1|3:0,2:0:0:0:
197,309,45960,1,0,1:0:0:0:
272,383,46277,1,0,1:0:0:0:
272,383,46435,2,0,P|298:380|331:378,1,50,0|0,3:0|1:0,0:0:0:0:
368,358,46765,6,0,P|364:306|385:260,1,100,4|0,3:1|3:0,2:0:0:0:
418,227,47251,1,0,1:0:0:0:
371,144,47575,1,0,1:0:0:0:
371,144,47737,2,0,P|339:149|305:144,1,50,0|0,3:0|1:0,0:0:0:0:
282,110,48062,1,4,3:1:0:0:
195,117,48355,2,0,P|184:141|177:172,1,50,2|2,3:2|1:2,2:0:0:0:
144,201,48690,2,0,P|142:252|166:313,1,100,2|0,3:2|3:0,0:0:0:0:
165,351,49192,1,2,1:2:0:0:
165,351,49360,6,0,P|113:361|69:381,1,100,4|0,3:1|3:0,2:0:0:0:
20,380,49866,2,0,P|13:330|1:269,1,100,0|0,1:0|1:0,0:0:0:0:
53,201,50541,1,4,1:2:0:0:
53,201,50709,2,0,P|58:173|62:129,1,50,4|0,3:1|1:0,2:0:0:0:
25,118,51040,2,0,P|15:94|9:61,1,50,0|0,3:0|1:0,2:0:0:0:
2,21,51371,1,0,2:0:0:0:
150,51,51869,5,0,1:0:0:0:
150,51,52034,1,4,3:1:0:0:
236,0,52367,1,0,3:0:0:0:
299,76,52700,2,0,P|344:69|398:63,1,100.29999999997,0|0,2:0|3:0,0:0:0:0:
448,148,53346,1,4,3:1:0:0:
367,207,53674,1,2,3:2:0:0:
279,174,54003,2,0,P|247:171|212:183,1,50,2|0,3:2|1:0,0:0:0:0:
187,202,54332,2,0,P|192:229|196:261,1,50,2|0,3:2|1:0,0:0:0:0:
205,302,54660,6,0,P|253:313|298:336,1,100,4|0,3:2|3:0,2:0:0:0:
388,384,55319,1,0,3:2:0:0:
388,384,55484,2,0,P|437:377|489:347,1,100,0|0,1:0|1:0,0:0:0:0:
511,309,56006,1,0,3:2:0:0:
466,229,56336,2,0,P|438:223|399:221,1,50,0|0,3:0|1:0,0:0:0:0:
373,188,56667,2,0,P|379:163|383:127,1,50,0|0,3:2|1:0,0:0:0:0:
369,42,57163,2,0,P|392:37|421:28,2,50.4513095237652,0|0|0,1:0|3:2|1:0,0:0:0:0:
119,3,58337,2,0,P|87:6|53:13,1,50,0|0,3:0|1:0,2:0:0:0:
20,3,58673,6,0,B|1:44|1:44|24:110,1,100,4|0,3:2|1:0,2:0:0:0:
44,145,59177,1,0,3:0:0:0:
44,145,59345,2,0,B|94:137|94:137|139:167,1,100,4|0,3:2|1:0,2:0:0:0:
231,209,60040,2,0,B|236:161|236:161|234:155|234:155|241:94,1,100,4|0,3:2|3:0,2:0:0:0:
252,3,60717,5,2,3:0:0:0:
351,16,61044,1,2,3:0:0:0:
437,66,61371,1,2,3:0:0:0:
493,148,61699,1,2,3:0:0:0:
491,248,62026,2,0,P|446:270|382:250,1,100,2|2,3:0|3:0,2:0:0:0:
326,201,62674,5,2,3:0:0:0:
326,201,62837,2,0,P|270:193|224:213,1,100,0|0,1:0|1:0,2:0:0:0:
182,224,63326,2,0,B|140:213|173:153|124:143,1,100,0|0,3:2|3:0,2:0:0:0:
35,139,63964,1,0,3:2:0:0:
2,232,64297,2,0,P|7:258|13:287,1,50,0|0,3:0|1:0,2:0:0:0:
48,311,64630,2,0,B|43:369|41:344|37:388,2,75,0|0|0,1:0|1:0|1:0,0:0:0:0:
97,291,65316,5,4,3:2:0:0:
289,336,65952,1,4,1:2:0:0:
495,381,66607,1,4,1:2:0:0:
506,196,67224,2,0,P|481:187|458:175,1,50,4|0,1:2|3:0,0:0:0:0:
419,148,67559,2,0,P|400:169|382:200,1,50,0|0,3:0|3:0,0:0:0:0:
368,246,67894,1,4,1:2:0:0:
