osu file format v14

[General]
AudioFilename: audio.mp3
AudioLeadIn: 0
PreviewTime: 38483
Countdown: 0
SampleSet: Soft
StackLeniency: 0.7
Mode: 0
LetterboxInBreaks: 1
EpilepsyWarning: 1
WidescreenStoryboard: 1

[Editor]
DistanceSpacing: 0.4
BeatDivisor: 4
GridSize: 16
TimelineZoom: 1.5

[Metadata]
Title:The Last Bell I Will Ever Hear
TitleUnicode:The Last Bell I Will Ever Hear
Artist:The Arrogant Sons Of Bitches
ArtistUnicode:The Arrogant Sons Of Bitches
Creator:tutis
Version:Extreme
Source:
Tags:ska skate punk rock english three cheers for disappointment jeff rosenstock balloons jacksfilms take vastly sinyus20 ZevinLevin Vncegd 3d boi [3d]
BeatmapID:3952352
BeatmapSetID:1915203

[Difficulty]
HPDrainRate:4
CircleSize:4.1
OverallDifficulty:9
ApproachRate:9.7
SliderMultiplier:1.4
SliderTickRate:0.5

[Events]
//Background and Video events
0,0,"edit.jpg",0,0
//Break Periods
//Storyboard Layer 0 (Background)
//Storyboard Layer 1 (Fail)
//Storyboard Layer 2 (Pass)
//Storyboard Layer 3 (Foreground)
//Storyboard Layer 4 (Overlay)
//Storyboard Sound Samples

[TimingPoints]
386,366.97247706422,4,2,1,60,1,0
1486,327.868852459016,4,2,1,60,1,0
1813,328.767123287671,4,2,1,60,1,0
2799,323.450134770889,4,2,1,60,1,0
3122,341.880341880342,4,2,1,60,1,0
4147,310.363938751497,4,2,1,60,1,0
4457,335.852225020991,4,2,1,60,1,0
5464,319.148936170213,4,2,1,60,1,0
5783,326.975476839237,4,2,1,60,1,0
5783,-90.9090909090909,4,2,1,60,0,0
6436,322.580645161291,4,2,1,60,1,0
7081,322.58064516129,4,2,1,60,1,0
7726,332.409972299169,4,2,1,60,1,0
8058,-90.9090909090909,4,2,1,60,0,0
8723,326.086956521739,4,2,1,60,1,0
8723,-83.3333333333333,4,2,1,60,0,0
9701,351.906158357771,4,2,1,60,1,0
10052,330.578512396695,4,2,1,60,1,0
10052,-83.3333333333333,4,2,1,60,0,0
11043,343.839541547278,4,2,1,60,1,0
11043,-76.9230769230769,4,2,1,60,0,0
11386,-76.9230769230769,4,2,1,65,0,0
11730,329.67032967033,4,2,1,70,1,0
11730,-76.9230769230769,4,2,1,70,0,0
11894,-76.9230769230769,4,2,1,65,0,0
12389,327.868852459016,4,2,1,70,1,0
13044,327.868852459016,4,2,1,70,1,0
13044,-66.6666666666667,4,2,1,70,0,0
13699,335.195530726257,4,2,1,70,1,0
13699,-66.6666666666667,4,2,1,70,0,0
14369,329.670329670329,4,2,1,70,1,0
14451,-66.6666666666667,4,2,1,70,0,0
15028,299.999999999999,4,2,1,70,1,0
15028,-66.6666666666667,4,2,1,70,0,0
15328,354.50516986706,4,2,1,70,1,0
15682,-66.6666666666667,4,2,1,70,0,0
16214,312.5,4,2,1,70,1,0
16370,339.943342776204,4,2,1,70,1,0
16370,-66.6666666666667,4,2,1,70,0,0
17049,329.67032967033,4,2,1,70,1,0
17213,-66.6666666666667,4,2,1,70,0,0
17543,-58.8235294117647,4,2,1,70,0,0
17708,325.20325205834,4,2,1,70,1,0
18358,-66.6666666666667,4,2,1,70,0,0
19008,331.491712707182,4,2,1,70,1,0
19008,-66.6666666666667,4,2,1,70,0,0
20333,331.491712707182,4,2,1,70,1,0
20333,-66.6666666666667,4,2,1,70,0,0
21658,309.278350515464,4,2,1,70,1,0
21658,-66.6666666666667,4,2,1,70,0,0
21967,334.261838440111,4,2,1,70,1,0
22134,-58.8235294117647,4,2,1,70,0,1
22886,-58.8235294117647,4,2,1,70,0,0
22969,332.409972299169,4,2,1,60,1,1
22969,-58.8235294117647,4,2,1,60,0,1
23135,-58.8235294117647,4,2,1,60,0,0
23966,353.982300884956,4,2,1,60,1,0
24319,350.877192982456,4,2,1,60,1,1
24319,-58.8235294117647,4,2,1,60,0,1
24494,-58.8235294117647,4,2,1,60,0,0
25020,318.725099601593,4,2,1,60,1,0
25020,-66.6666666666667,4,2,1,60,0,0
25657,329.218106995885,4,2,1,60,1,1
25657,-55.5555555555556,4,2,1,60,0,1
25821,-55.5555555555556,4,2,1,60,0,0
26315,-66.6666666666667,4,2,1,60,0,0
26644,309.278350515464,4,2,1,60,1,0
26721,-50,4,2,1,60,0,0
26953,333.333333333333,4,2,1,60,1,1
26953,-50,4,2,1,60,0,1
27119,-50,4,2,1,60,0,0
28119,-47.6190476190476,4,2,1,60,0,0
28286,319.148936170213,4,2,1,75,1,1
28286,-45.4545454545455,4,2,1,75,0,1
28605,-50,4,2,1,75,0,1
29243,331.491712707182,4,2,1,75,1,1
29408,-100,4,2,1,75,0,0
29574,322.58064516129,4,2,1,75,1,1
29574,-43.4782608695652,4,2,1,75,0,1
29735,-50,4,2,1,75,0,1
30541,346.820809248555,4,2,1,75,1,1
30714,-50,4,2,1,75,0,0
30887,323.886639676113,4,2,1,75,1,1
30887,-40,4,2,1,75,0,1
31534,-50,4,2,1,75,0,1
32020,-50,4,2,1,75,0,0
32182,-38.4615384615385,4,2,1,75,0,1
32506,340.909090909091,4,2,1,75,1,1
32676,-50,4,2,1,75,0,1
32846,324.763193504736,4,2,1,75,1,1
33414,-100,4,2,1,75,0,0
33495,333.333333333333,4,2,1,65,1,1
33495,-52.6315789473684,4,2,1,65,0,1
33661,-52.6315789473684,4,2,1,65,0,0
34161,321.285140562249,4,2,1,65,1,0
34803,338.983050847457,4,2,1,65,1,1
34803,-52.6315789473684,4,2,1,65,0,1
34972,-52.6315789473684,4,2,1,65,0,0
35480,-66.6666666666667,4,2,1,65,0,0
36158,326.975476839237,4,2,1,65,1,1
36158,-52.6315789473684,4,2,1,65,0,1
36321,-52.6315789473684,4,2,1,65,0,0
36811,335.195530726257,4,2,1,65,1,0
36811,-62.5,4,2,1,65,0,0
37229,-50,4,2,1,65,0,0
37481,320.855614973262,4,2,1,65,1,1
37481,-50,4,2,1,65,0,1
37641,-50,4,2,1,65,0,0
37801,339.943342776204,4,2,1,65,1,0
38140,-66.6666666666667,4,2,1,65,0,0
38650,-54.054054054054,4,2,1,65,0,0
38820,333.333333333333,4,2,1,80,1,1
38820,-38.4615384615385,4,2,1,80,0,1
39486,-47.6190476190476,4,2,1,80,0,1
39820,345.821325648415,4,2,1,80,1,1
39820,-47.6190476190476,4,2,1,80,0,1
40165,324.324324324324,4,2,1,80,1,1
40165,-43.4782608695652,4,2,1,80,0,1
40489,335.195530726257,4,2,1,80,1,0
41494,317.460317460317,4,2,1,80,1,1
41494,-45.4545454545455,4,2,1,80,0,1
41811,328.317373461012,4,2,1,80,1,1
41811,-45.4545454545455,4,2,1,80,0,1
42467,-45.4545454545455,4,2,1,80,0,0
42795,339.943342776204,4,2,1,80,1,1
42795,-45.4545454545455,4,2,1,80,0,1
43814,353.982300884956,4,2,1,80,1,1
44079,-100,4,2,1,80,0,0
44167,322.58064516129,4,2,1,80,1,1
44167,-40,4,2,1,80,0,1
44489,332.409972299169,4,2,1,80,1,1
44489,-40,4,2,1,80,0,1
45320,-40,4,2,1,80,0,0
45486,316.622691292876,4,2,1,80,1,1
45486,-40,4,2,1,80,0,1
46435,330.578512396695,4,2,1,80,1,1
46600,-40,4,2,1,80,0,0
46765,324.324324324324,4,2,1,80,1,1
46765,-40,4,2,1,80,0,1
47900,-40,4,2,1,80,0,0
48062,293.398533007335,4,2,1,80,1,1
48062,-40,4,2,1,80,0,1
48355,335.195530726258,4,2,1,80,1,1
48355,-40,4,2,1,80,0,1
48690,-50,4,2,1,80,0,0
49360,337.552742616033,4,2,1,80,1,1
49360,-38.4615384615385,4,2,1,80,0,1
50541,-38.4615384615385,4,2,1,80,0,0
50709,331.491712707182,4,2,1,80,1,1
50874,-38.4615384615385,4,2,1,80,0,1
51869,-38.4615384615385,4,2,1,80,0,0
52034,333.333333333333,4,2,1,80,1,1
52034,-36.3636363636364,4,2,1,80,0,1
52617,-40,4,2,1,80,0,1
53034,312.5,4,2,1,80,1,1
53190,-40,4,2,1,80,0,0
53346,328.767123287671,4,2,1,80,1,1
53346,-41.6666666666667,4,2,1,80,0,1
54660,329.670329670329,4,2,1,70,1,0
54660,-55.5555555555556,4,2,1,70,0,0
55649,357.142857142857,4,2,1,70,1,0
56006,330.578512396694,4,2,1,70,1,0
56006,-55.5555555555556,4,2,1,70,0,0
57328,336.417157275021,4,2,1,70,1,0
57328,-55.5555555555556,4,2,1,70,0,0
58673,336.134453781513,4,2,1,70,1,1
58673,-50,4,2,1,70,0,1
59177,-50,4,2,1,70,0,0
59345,347.826086956522,4,2,1,70,1,1
59345,-43.4782608695652,4,2,1,70,0,1
59692,-50,4,2,1,70,0,1
60040,327.868852459016,4,2,1,70,1,0
60367,350.877192982456,4,2,1,70,1,0
60717,327.421555252387,4,2,1,70,1,0
60717,-50,4,2,1,70,0,0
62026,324.324324324324,4,2,1,70,1,0
62026,-50,4,2,1,70,0,0
62674,326.086956521739,4,2,1,70,1,0
62674,-50,4,2,1,70,0,0
63326,319.148936170212,4,2,1,70,1,0
63326,-40,4,2,1,70,0,0
63964,333.333333333334,4,2,1,70,1,0
63964,-50,4,2,1,70,0,0
64630,343.347639484979,4,2,1,70,1,1
65230,-100,4,2,1,70,0,0
65316,318.302387267905,4,2,1,70,1,1
65793,-100,4,2,1,70,0,0
65952,327.868852459016,4,2,1,70,1,1
65952,-60.6060606060606,4,2,1,70,0,1
66443,-60.6060606060606,4,2,1,70,0,0
66607,308.880308880309,4,2,1,70,1,1
66607,-133.333333333333,4,2,1,70,0,1
67070,-133.333333333333,4,2,1,70,0,0
67224,335.195530726257,4,2,1,70,1,1
67224,-62.5,4,2,1,70,0,1
67391,-71.4285714285714,4,2,1,70,0,1
67559,-81.6326530612245,4,2,1,70,0,1
67726,-93.2944606413994,4,2,1,70,0,1
67894,269.058295964125,4,2,1,70,1,0

[Colours]
Combo1 : 142,193,221
Combo2 : 114,209,183
Combo3 : 228,231,131
Combo4 : 230,145,130

[HitObjects]
167,349,1486,5,8,2:3:0:0:
107,328,1567,1,4,2:3:0:0:
82,345,1649,1,4,2:3:0:0:
81,359,1731,1,4,2:3:0:0:
87,365,1813,6,0,B|135:299|73:215|-1:296|-81:194|-2:89|24:188|-4:171,1,280,12|0,2:0|2:0,2:0:0:0:
394,316,2799,5,8,2:3:0:0:
439,363,2879,1,4,2:3:0:0:
487,337,2960,1,4,2:3:0:0:
488,302,3041,1,4,2:3:0:0:
480,288,3122,6,0,B|438:271|411:212|451:125|487:221|618:112|554:25|466:46|489:96|532:87|508:83,1,280,12|0,2:0|2:0,2:0:0:0:
119,75,4147,5,8,2:3:0:0:
65,120,4224,1,4,2:3:0:0:
60,168,4302,1,4,2:3:0:0:
83,194,4379,1,4,2:3:0:0:
97,198,4457,6,0,B|119:185|103:126|22:104|5:146|-14:132|-35:95|-80:87|14:-26|61:11|47:41|22:46|20:40,1,280,12|0,2:0|2:0,2:0:0:0:
500,42,5464,5,8,2:3:0:0:
463,102,5543,1,4,2:3:0:0:
479,165,5623,1,4,2:3:0:0:
473,206,5703,1,4,2:3:0:0:
463,216,5783,6,0,B|452:264|550:157|522:74|370:148|247:16|444:-99|433:21|392:28|397:-3,1,308.000009399414,12|0,2:0|2:0,2:0:0:0:
398,8,6758,1,2,2:0:0:0:
149,66,7000,5,8,2:3:0:0:
153,56,7081,1,4,2:3:0:0:
53,20,7242,1,4,2:3:0:0:
127,243,7403,2,0,P|138:277|150:328,1,70,12|0,2:0|2:0,2:0:0:0:
82,369,7645,5,0,2:0:0:0:
77,378,7726,1,4,2:3:0:0:
0,219,7892,1,4,2:3:0:0:
257,322,8058,2,0,P|292:333|348:343,1,77,12|0,2:0|2:0,2:0:0:0:
437,273,8307,5,0,2:0:0:0:
430,287,8390,1,4,2:3:0:0:
512,358,8557,1,4,2:3:0:0:
429,155,8723,2,0,P|418:95|441:48,1,84,12|0,2:0|2:0,2:0:0:0:
252,100,8967,5,8,2:3:0:0:
240,107,9049,1,4,2:3:0:0:
193,31,9212,1,4,2:3:0:0:
340,104,9375,1,12,2:0:0:0:
286,329,9538,1,0,2:0:0:0:
290,343,9619,1,2,2:3:0:0:
294,357,9701,5,2,2:0:0:0:
386,301,9876,1,4,2:3:0:0:
116,267,10052,2,0,P|73:252|40:224,1,84,12|0,2:0|2:0,2:0:0:0:
167,359,10299,5,8,2:3:0:0:
179,371,10382,1,4,2:3:0:0:
313,250,10547,1,4,2:3:0:0:
99,140,10713,2,0,P|80:76|92:45,1,84,12|4,2:0|2:3,2:0:0:0:
316,164,11043,6,0,P|349:169|394:189,1,45.5,12|0,2:0|2:0,2:0:0:0:
431,236,11214,1,4,2:3:0:0:
511,7,11386,6,0,P|474:15|436:45,1,45.5,12|0,2:0|2:0,2:0:0:0:
378,80,11558,1,4,2:3:0:0:
220,49,11730,6,0,P|198:84|199:122,1,45.5,12|0,2:0|2:0,2:0:0:0:
173,253,11894,5,8,2:0:0:0:
185,276,11977,1,8,2:0:0:0:
239,289,12059,1,8,2:0:0:0:
287,252,12142,1,8,2:0:0:0:
353,231,12224,1,8,3:2:0:0:
410,280,12306,1,8,2:0:0:0:
384,355,12389,5,4,3:2:0:0:
512,299,12552,1,0,1:2:0:0:
393,373,12716,5,0,3:0:0:0:
500,168,12880,1,0,1:0:0:0:
356,109,13044,6,0,P|343:70|343:38,1,52.5,2|0,3:2|2:0,2:0:0:0:
445,76,13207,2,0,P|445:51|455:26,1,52.5,2|0,1:2|2:0,2:0:0:0:
368,117,13371,6,0,P|355:78|355:46,1,52.5,2|0,3:2|2:0,2:0:0:0:
457,84,13535,2,0,P|457:59|467:34,1,52.5,2|0,1:2|2:0,2:0:0:0:
260,94,13699,6,0,P|219:21|227:-21,1,105,4|0,3:2|1:0,2:0:0:0:
152,134,14034,1,0,3:0:0:0:
149,144,14117,1,0,3:0:0:0:
156,155,14201,1,0,1:0:0:0:
33,269,14369,5,2,2:0:0:0:
20,273,14451,2,0,P|10:302|15:334,1,52.5,8|2,2:1|2:0,2:0:0:0:
138,339,14616,2,0,P|146:372|178:394,1,52.5,8|2,2:0|2:0,2:0:0:0:
226,237,14781,5,8,2:1:0:0:
221,257,14863,1,2,2:0:0:0:
275,299,14945,5,8,2:0:0:0:
246,208,15028,2,0,P|234:158|245:93,1,105,4|0,3:2|1:0,2:0:0:0:
298,48,15253,5,0,2:0:0:0:
293,34,15328,1,0,3:0:0:0:
491,110,15505,5,0,1:0:0:0:
478,111,15593,1,0,3:0:0:0:
473,124,15682,2,0,P|489:158|536:165,1,52.5,2|0,2:0|2:0,2:0:0:0:
370,133,15859,2,0,P|369:106|378:81,1,52.5,2|0,1:2|2:0,2:0:0:0:
304,291,16037,6,0,P|331:335|369:350,1,52.5,2|0,3:2|2:0,2:0:0:0:
508,276,16214,1,2,1:2:0:0:
485,252,16292,1,0,1:0:0:0:
454,253,16370,2,0,P|429:289|434:360,1,105,4|0,3:2|1:0,2:0:0:0:
333,216,16709,5,0,3:0:0:0:
326,201,16794,1,0,3:0:0:0:
331,191,16879,1,0,1:0:0:0:
113,269,17049,5,8,2:0:0:0:
91,324,17131,1,8,2:0:0:0:
140,356,17213,2,0,P|195:335|213:314,1,52.5,8|4,2:3|2:3,2:0:0:0:
124,248,17378,5,8,2:0:0:0:
57,282,17461,1,8,2:0:0:0:
76,356,17543,2,0,P|112:372|163:360,1,59.5,8|4,2:3|2:3,2:0:0:0:
194,130,17708,5,4,3:2:0:0:
56,183,17870,1,0,1:2:0:0:
0,58,18033,1,0,3:0:0:0:
24,61,18114,1,0,3:0:0:0:
33,74,18195,1,0,1:0:0:0:
189,110,18358,6,0,P|228:152|270:157,1,52.5,2|0,3:2|2:0,2:0:0:0:
275,0,18521,2,0,P|276:61|298:79,1,52.5,2|0,1:2|2:0,2:0:0:0:
187,135,18683,6,0,P|232:169|274:167,1,52.5,2|0,1:2|2:0,2:0:0:0:
283,14,18846,2,0,P|294:73|319:87,1,52.5,2|0,1:2|2:0,2:0:0:0:
424,9,19008,6,0,P|385:81|396:120,1,105,4|0,3:2|1:0,2:0:0:0:
506,155,19339,1,0,3:0:0:0:
506,130,19422,1,0,3:0:0:0:
490,116,19505,1,0,1:0:0:0:
293,107,19670,5,2,2:0:0:0:
309,90,19753,2,0,P|343:90|384:109,1,52.5,8|2,2:1|2:0,2:0:0:0:
282,222,19919,2,0,P|326:187|355:191,1,52.5,8|2,2:0|2:0,2:0:0:0:
459,314,20085,5,8,2:0:0:0:
469,306,20168,1,2,2:0:0:0:
440,362,20251,5,8,2:0:0:0:
375,290,20333,2,0,P|322:295|275:316,1,105,4|0,3:2|1:0,2:0:0:0:
208,384,20581,5,0,2:0:0:0:
213,366,20664,1,0,3:0:0:0:
34,299,20830,5,0,1:0:0:0:
41,290,20913,1,0,3:0:0:0:
42,278,20995,2,0,P|22:244|-10:228,1,52.5,2|0,2:0|2:0,2:0:0:0:
159,263,21161,2,0,P|175:282|218:288,1,52.5,2|0,1:2|2:0,2:0:0:0:
46,156,21327,6,0,P|20:144|-12:149,1,52.5,2|0,3:2|2:0,2:0:0:0:
243,195,21493,1,2,1:2:0:0:
282,189,21576,1,0,1:0:0:0:
297,155,21658,2,0,P|272:95|219:84,1,105,4|0,3:2|1:0,2:0:0:0:
321,300,21967,5,0,3:0:0:0:
313,289,22050,1,0,3:0:0:0:
298,294,22134,2,0,P|282:336|294:375,1,59.5,0|0,1:0|3:0,2:0:0:0:
439,329,22301,5,8,2:0:0:0:
466,303,22384,1,8,2:0:0:0:
450,246,22468,5,8,2:3:0:0:
384,226,22551,1,4,2:3:0:0:
351,162,22635,5,8,2:0:0:0:
397,105,22719,1,8,2:0:0:0:
418,34,22802,5,8,2:3:0:0:
348,1,22886,1,4,2:3:0:0:
375,94,22969,6,0,L|534:120,1,119,4|0,3:2|1:0,2:0:0:0:
352,210,23301,1,0,3:0:0:0:
338,213,23384,1,0,3:0:0:0:
324,216,23467,1,0,1:0:0:0:
512,268,23633,5,0,3:0:0:0:
336,365,23800,1,0,1:0:0:0:
380,286,23966,1,0,3:0:0:0:
394,289,24054,1,0,3:0:0:0:
408,292,24142,1,0,1:0:0:0:
153,276,24319,6,0,L|-5:247,1,119,2|0,2:3|1:0,2:0:0:0:
176,144,24669,1,0,3:0:0:0:
159,150,24757,1,0,3:0:0:0:
142,156,24845,1,0,1:0:0:0:
92,38,25020,2,0,L|179:70,1,52.5,0|0,3:0|2:0,2:0:0:0:
281,108,25179,1,0,1:0:0:0:
238,203,25338,1,0,3:0:0:0:
226,211,25418,2,0,L|315:232,1,52.5,0|0,3:0|1:0,2:0:0:0:
350,40,25577,5,0,1:0:0:0:
355,29,25657,2,0,L|215:55,1,126,2|0,2:3|1:0,2:0:0:0:
415,135,25986,1,0,3:0:0:0:
426,131,26068,1,0,3:0:0:0:
437,127,26150,1,0,1:0:0:0:
336,229,26315,6,0,L|411:247,1,52.5,0|0,3:0|2:0,2:0:0:0:
290,142,26480,2,0,L|204:159,1,52.5,0|0,1:0|2:0,2:0:0:0:
288,374,26644,5,0,3:0:0:0:
296,384,26721,2,0,B|313:353|313:353|290:295,1,70,0|0,3:0|1:0,2:0:0:0:
21,231,26875,5,0,1:0:0:0:
0,222,26953,2,0,B|-11:229|-11:229|153:195,1,140,2|0,2:3|1:0,2:0:0:0:
118,344,27286,1,0,3:0:0:0:
101,361,27369,1,0,3:0:0:0:
39,321,27453,6,0,B|33:306|33:306|61:240,1,70,0|0,1:0|2:0,2:0:0:0:
234,319,27619,2,0,B|239:368|239:368|202:416,1,70,0|0,3:0|2:0,2:0:0:0:
137,236,27786,2,0,B|105:189|105:189|111:136,1,70,4|0,1:2|2:0,2:0:0:0:
454,160,27953,5,0,3:0:0:0:
461,177,28036,1,0,3:0:0:0:
411,247,28119,2,0,B|359:257|359:257|329:225,1,73.5,0|0,1:0|2:0,2:0:0:0:
103,34,28286,6,0,B|76:27|76:27|3:82|3:82|71:62,1,154,4|0,3:2|1:0,2:0:0:0:
391,105,28605,6,0,L|452:65,1,70,0|0,3:0|2:0,2:0:0:0:
281,0,28764,2,0,L|389:16,1,70,0|0,1:0|2:0,2:0:0:0:
494,298,28924,5,0,3:0:0:0:
486,309,29004,1,0,3:0:0:0:
489,316,29083,2,0,B|503:283|503:283|485:218,1,70,0|0,1:0|2:0,2:0:0:0:
135,199,29243,5,0,3:0:0:0:
87,267,29325,1,0,3:0:0:0:
133,328,29408,1,0,3:0:0:0:
125,338,29491,1,0,3:0:0:0:
135,357,29574,6,0,B|165:355|165:355|247:322,1,80.5,4|0,3:2|2:0,2:0:0:0:
0,150,29735,2,0,L|85:161,1,70,0|0,1:0|2:0,2:0:0:0:
200,0,29896,5,0,3:0:0:0:
195,45,29977,1,0,3:0:0:0:
206,50,30057,2,0,B|222:69|222:69|232:130,1,70,0|0,1:0|3:0,2:0:0:0:
462,8,30219,5,0,2:0:0:0:
403,12,30299,1,0,3:0:0:0:
392,2,30380,2,0,B|372:25|372:25|357:93,1,70,0|0,1:0|2:0,2:0:0:0:
512,246,30541,5,0,3:0:0:0:
511,261,30627,1,0,2:0:0:0:
502,265,30714,2,0,L|387:232,1,70,0|0,1:0|2:0,2:0:0:0:
93,154,30887,6,0,B|15:165|15:165|-27:104|-27:104|18:131,1,175,4|0,3:2|1:0,2:0:0:0:
189,372,31210,5,0,3:0:0:0:
225,326,31291,1,0,3:0:0:0:
209,300,31372,1,0,1:0:0:0:
250,67,31534,6,0,B|267:13|267:13|262:-14,1,70,0|0,2:0|2:0,2:0:0:0:
136,39,31696,2,0,B|139:88|139:88|177:142,1,70,0|0,1:0|2:0,2:0:0:0:
502,123,31858,6,0,B|511:70|511:70|489:45,1,70,0|0,3:0|2:0,2:0:0:0:
379,139,32020,2,0,B|398:152|398:152|429:232,1,70,0|0,1:0|2:0,2:0:0:0:
99,215,32182,6,0,B|121:214|121:214|-10:148|-10:148|63:150,1,182,4|0,3:2|1:0,2:0:0:0:
128,384,32506,5,0,3:0:0:0:
93,345,32591,1,0,3:0:0:0:
103,323,32676,2,0,B|117:306|117:306|194:282,1,70,0|0,1:0|3:0,2:0:0:0:
412,369,32846,5,0,3:0:0:0:
376,338,32927,1,0,3:0:0:0:
398,282,33008,1,0,1:0:0:0:
444,237,33089,1,0,1:0:0:0:
429,179,33170,1,4,2:3:0:0:
364,144,33251,1,0,1:0:0:0:
330,83,33333,1,0,1:0:0:0:
387,35,33414,1,8,2:3:0:0:
467,109,33495,6,0,P|466:165|451:276,1,133,4|0,3:2|1:0,2:0:0:0:
308,94,33828,1,0,3:0:0:0:
305,71,33911,1,0,3:0:0:0:
318,55,33995,1,0,1:0:0:0:
382,177,34161,5,0,3:0:0:0:
292,298,34321,1,0,1:0:0:0:
381,384,34482,1,0,3:0:0:0:
391,372,34562,1,0,3:0:0:0:
385,360,34642,1,0,1:0:0:0:
84,289,34803,6,0,P|58:217|76:144,1,133,2|0,3:0|1:0,2:0:0:0:
202,329,35141,1,0,3:0:0:0:
200,359,35226,1,0,3:0:0:0:
180,373,35311,1,0,1:0:0:0:
180,214,35480,6,0,P|214:196|233:196,1,52.5,0|0,3:0|2:0,2:0:0:0:
322,231,35650,1,0,1:0:0:0:
165,113,35819,1,0,3:0:0:0:
152,97,35904,1,0,3:0:0:0:
159,84,35989,1,0,1:0:0:0:
480,180,36158,6,0,P|485:252|449:312,1,133,2|0,3:0|1:0,2:0:0:0:
393,71,36484,1,0,3:0:0:0:
391,29,36566,1,0,3:0:0:0:
422,6,36648,1,0,1:0:0:0:
427,176,36811,6,0,P|396:176|363:200,1,56,0|0,3:0|2:0,2:0:0:0:
249,179,36978,2,0,P|284:143|305:135,1,56,0|0,1:0|2:0,2:0:0:0:
332,376,37146,5,0,3:0:0:0:
353,383,37229,2,0,B|373:355|373:355|363:299,1,70,0|0,3:0|1:0,2:0:0:0:
59,188,37397,5,0,2:0:0:0:
40,196,37481,2,0,B|29:185|29:185|112:175|170:230,1,140,2|0,3:0|1:0,2:0:0:0:
70,374,37801,5,0,3:0:0:0:
59,356,37885,1,0,3:0:0:0:
69,338,37970,1,0,1:0:0:0:
257,350,38140,6,0,P|288:317|315:308,1,52.5,0|0,3:0|2:0,2:0:0:0:
149,284,38310,2,0,P|184:272|232:291,1,52.5,4|0,1:2|2:0,2:0:0:0:
494,179,38480,5,0,3:0:0:0:
497,194,38565,1,0,3:0:0:0:
463,223,38650,2,0,P|434:218|400:196,1,64.7500000000001,0|0,1:0|2:0,2:0:0:0:
41,17,38820,6,0,B|98:7|137:98|96:138|96:138|100:113|102:90,1,182,4|0,3:1|1:2,2:0:0:0:
314,75,39153,5,0,3:2:0:0:
353,30,39236,1,0,3:0:0:0:
343,16,39320,1,0,1:2:0:0:
115,282,39486,6,0,P|96:339|121:388,1,73.5,0|0,3:0|2:0,2:0:0:0:
262,323,39653,2,0,P|239:286|254:232,1,73.5,0|0,1:2|2:0,2:0:0:0:
85,315,39820,2,0,P|90:372|130:409,1,73.5,0|0,3:2|2:0,2:0:0:0:
218,151,39992,5,0,1:2:0:0:
198,173,40079,1,0,1:2:0:0:
176,172,40165,2,0,P|156:130|186:84,1,80.5,4|0,3:2|2:0,2:0:0:0:
23,241,40327,2,0,P|60:216|63:167,1,80.5,0|0,1:2|2:0,2:0:0:0:
53,76,40489,5,0,3:2:0:0:
39,47,40572,1,0,3:2:0:0:
65,2,40656,1,0,1:2:0:0:
126,6,40740,1,0,3:2:0:0:
158,62,40824,1,0,2:0:0:0:
218,89,40907,1,0,3:2:0:0:
263,56,40991,1,0,1:2:0:0:
329,52,41075,1,0,1:0:0:0:
379,103,41159,1,0,3:2:0:0:
389,164,41243,1,0,3:2:0:0:
453,195,41326,1,0,1:2:0:0:
508,145,41410,1,0,1:2:0:0:
467,78,41494,6,0,P|397:83|293:145,1,154,4|0,3:2|1:2,2:0:0:0:
401,297,41732,5,0,2:0:0:0:
409,287,41811,2,0,P|312:238|233:261,1,154,4|0,3:2|1:2,2:0:0:0:
225,25,42057,5,0,3:2:0:0:
231,16,42139,2,0,P|136:3|47:44,1,154,4|0,2:0|1:2,2:0:0:0:
115,200,42385,5,0,2:0:0:0:
119,190,42467,2,0,P|23:186|-29:221,1,154,4|0,3:2|1:2,2:0:0:0:
329,363,42713,5,0,2:0:0:0:
344,376,42795,2,0,P|407:332|390:239,1,154,4|0,3:2|1:0,2:0:0:0:
224,146,43049,5,0,2:0:0:0:
206,157,43134,2,0,P|225:260|273:276,1,154,4|0,3:2|1:0,2:0:0:0:
414,102,43389,5,0,2:0:0:0:
422,84,43474,2,0,P|336:22|261:43,1,154,4|0,3:2|1:0,2:0:0:0:
63,145,43729,5,0,2:0:0:0:
51,153,43814,5,2,1:2:0:0:
21,141,43902,1,2,1:2:0:0:
9,97,43990,1,2,1:2:0:0:
54,56,44079,1,2,1:2:0:0:
128,72,44167,6,0,L|244:99,1,87.5,4|0,3:1|2:0,2:0:0:0:
423,10,44328,5,0,1:0:0:0:
403,1,44408,1,0,2:0:0:0:
387,4,44489,2,0,B|360:42|360:42|379:136,1,87.5,0|0,3:0|3:0,2:0:0:0:
510,201,44655,1,0,1:0:0:0:
512,215,44738,2,0,B|491:233|491:233|432:222,1,87.5,0|0,3:0|2:0,2:0:0:0:
315,378,44904,5,0,3:0:0:0:
326,383,44987,2,0,B|338:331|338:331|315:281,1,87.5,0|0,1:0|2:0,2:0:0:0:
199,324,45153,2,0,B|225:285|225:285|211:220,1,87.5,0|0,3:0|3:0,2:0:0:0:
8,69,45320,5,0,1:0:0:0:
17,43,45403,1,0,2:0:0:0:
1,38,45486,2,0,B|-4:82|-4:82|39:138,1,87.5,4|0,3:1|2:0,2:0:0:0:
155,169,45644,2,0,B|134:132|134:132|146:89,1,87.5,0|0,1:0|2:0,2:0:0:0:
334,22,45802,6,0,B|331:46|331:46|353:117,1,87.5,0|0,3:0|2:0,2:0:0:0:
496,133,45960,5,0,1:0:0:0:
512,112,46040,2,0,L|497:198,1,87.5,0|0,3:0|2:0,2:0:0:0:
310,250,46198,5,0,3:0:0:0:
290,232,46277,2,0,L|415:260,1,87.5,0|0,1:0|2:0,2:0:0:0:
226,364,46435,5,0,3:0:0:0:
224,375,46517,1,0,3:0:0:0:
234,380,46600,2,0,L|369:345,1,87.5,0|0,1:0|2:0,2:0:0:0:
0,237,46765,2,0,L|117:281,1,87.5,4|0,3:1|2:0,2:0:0:0:
118,89,46927,6,0,B|97:128|97:128|106:180,1,87.5,0|0,1:0|2:0,2:0:0:0:
373,231,47089,2,0,L|251:204,1,87.5,0|0,3:0|3:0,2:0:0:0:
26,34,47251,5,0,1:0:0:0:
12,29,47332,2,0,L|133:-6,1,87.5,0|0,3:0|2:0,2:0:0:0:
220,119,47494,5,0,3:0:0:0:
225,133,47575,2,0,L|101:111,1,87.5,0|0,1:0|2:0,2:0:0:0:
247,12,47737,5,0,3:0:0:0:
258,6,47819,1,0,3:0:0:0:
269,0,47900,1,0,1:0:0:0:
478,236,48062,6,0,P|451:212|460:144,1,87.5,4|0,3:1|2:0,2:0:0:0:
283,269,48208,2,0,P|277:330|303:370,1,87.5,2|0,1:2|2:0,2:0:0:0:
509,235,48355,6,0,P|475:221|460:154,1,87.5,2|0,3:2|3:0,2:0:0:0:
261,309,48522,2,0,P|280:367|318:396,1,87.5,2|0,1:2|2:0,2:0:0:0:
366,213,48690,6,0,P|372:155|342:115,1,70,2|2,3:2|3:2,2:0:0:0:
193,104,48857,2,0,P|214:138|268:154,1,70,0|0,1:0|2:0,2:0:0:0:
442,64,49025,5,0,3:0:0:0:
445,47,49109,1,2,1:2:0:0:
416,4,49192,1,2,1:2:0:0:
353,11,49276,1,0,2:0:0:0:
310,75,49360,6,0,P|319:158|382:276,1,182,4|0,3:1|1:0,2:0:0:0:
141,378,49697,5,0,3:0:0:0:
126,384,49781,1,0,3:0:0:0:
90,340,49866,1,0,1:0:0:0:
126,279,49950,2,0,L|226:258,1,90.9999999999999,0|0,2:0|2:0,2:0:0:0:
432,290,50119,5,0,3:0:0:0:
405,355,50203,2,0,B|361:367|361:367|300:320,1,90.9999999999999,0|0,1:0|2:0,2:0:0:0:
79,150,50372,5,0,3:0:0:0:
56,143,50457,1,0,3:0:0:0:
46,147,50541,2,0,B|21:184|21:184|41:258,1,90.9999999999999,4|0,1:2|2:0,2:0:0:0:
480,30,50709,5,4,3:1:0:0:
488,69,50791,1,0,2:0:0:0:
470,87,50874,2,0,B|424:95|424:95|364:43,1,90.9999999999999,0|0,1:0|2:0,2:0:0:0:
195,62,51040,5,0,3:0:0:0:
183,63,51123,1,0,3:0:0:0:
214,31,51206,1,0,1:0:0:0:
287,53,51289,2,0,B|298:83|298:83|274:175,1,90.9999999999999,0|0,3:0|2:0,2:0:0:0:
356,261,51454,5,0,3:0:0:0:
407,200,51537,2,0,L|372:94,1,90.9999999999999,0|0,1:0|2:0,2:0:0:0:
254,360,51703,5,4,3:2:0:0:
251,341,51786,1,0,3:0:0:0:
265,333,51869,2,0,P|321:336|376:362,1,90.9999999999999,0|0,1:0|2:0,2:0:0:0:
0,111,52034,6,0,P|56:192|177:158,1,192.5,4|0,3:1|1:0,2:0:0:0:
455,137,52284,5,0,2:0:0:0:
466,143,52367,2,0,P|494:80|472:22,1,96.2499999999999,0|0,3:0|3:0,2:0:0:0:
301,6,52534,5,0,1:0:0:0:
310,0,52617,2,0,P|345:24|355:65,1,87.5,0|0,3:0|2:0,2:0:0:0:
209,149,52784,5,0,2:0:0:0:
196,139,52867,2,0,P|215:68|261:62,1,87.5,0|0,1:0|2:0,2:0:0:0:
423,231,53034,5,0,3:0:0:0:
434,255,53112,1,0,3:0:0:0:
451,255,53190,2,0,P|491:214|443:158,1,87.5,0|0,1:0|2:0,2:0:0:0:
237,384,53346,6,0,P|262:344|256:281,1,83.9999999999999,4|0,3:1|2:0,2:0:0:0:
134,189,53510,2,0,P|162:219|176:260,1,83.9999999999999,0|0,1:0|2:0,2:0:0:0:
28,219,53674,5,2,3:2:0:0:
14,221,53756,1,0,3:0:0:0:
9,211,53839,2,0,P|11:163|37:116,1,83.9999999999999,0|0,1:0|2:0,2:0:0:0:
88,28,54003,5,2,3:2:0:0:
159,0,54085,1,0,3:0:0:0:
220,36,54167,1,0,1:0:0:0:
230,100,54250,1,0,2:0:0:0:
290,140,54332,1,2,3:2:0:0:
363,123,54414,1,0,1:0:0:0:
419,165,54496,1,0,1:0:0:0:
394,240,54578,1,8,2:3:0:0:
373,238,54660,6,0,L|522:197,1,126,4|0,3:2|1:0,2:0:0:0:
384,109,54989,1,0,3:0:0:0:
358,103,55072,1,0,3:0:0:0:
332,97,55154,1,0,1:0:0:0:
304,341,55319,5,0,3:2:0:0:
428,384,55484,1,0,1:0:0:0:
283,201,55649,1,0,3:0:0:0:
300,190,55738,1,0,3:0:0:0:
317,179,55827,1,0,1:0:0:0:
46,219,56006,6,0,B|35:254|35:254|66:357,1,126,0|0,3:2|1:0,2:0:0:0:
179,160,56336,1,0,3:0:0:0:
159,156,56419,1,0,3:0:0:0:
139,152,56501,1,0,1:0:0:0:
207,265,56667,5,0,3:2:0:0:
287,91,56832,1,0,1:0:0:0:
179,25,56997,1,0,3:0:0:0:
184,40,57080,1,0,3:0:0:0:
189,55,57163,1,0,1:0:0:0:
479,159,57328,6,0,L|495:84,1,62.9999999999999,0|0,3:2|2:0,2:0:0:0:
512,5,57496,1,0,1:0:0:0:
324,142,57664,1,0,3:0:0:0:
344,151,57748,1,0,3:0:0:0:
364,160,57832,1,0,1:0:0:0:
303,58,58000,5,0,3:2:0:0:
176,146,58169,1,0,1:0:0:0:
72,37,58337,6,0,L|161:46,1,62.9999999999999,0|0,3:0|2:0,2:0:0:0:
21,144,58505,2,0,L|127:112,1,62.9999999999999,0|0,1:0|2:0,2:0:0:0:
469,279,58673,6,0,B|444:387|444:387|460:363,1,140,4|0,3:2|2:0,2:0:0:0:
365,134,58925,1,0,3:0:0:0:
365,134,59009,5,0,1:0:0:0:
399,39,59177,1,0,3:0:0:0:
238,235,59345,2,0,B|271:356|271:356|267:299,1,161,4|0,3:2|2:0,2:0:0:0:
116,185,59605,1,0,3:0:0:0:
116,185,59692,6,0,L|127:106,1,70,0|0,1:0|1:0,2:0:0:0:
0,46,59866,2,0,L|20:113,1,70,0|0,3:0|2:3,2:0:0:0:
102,321,60040,5,4,3:2:0:0:
2,240,60203,1,0,1:0:0:0:
236,322,60367,1,0,3:0:0:0:
228,353,60454,1,0,3:0:0:0:
220,384,60542,1,0,1:0:0:0:
367,329,60717,6,0,P|347:297|350:236,1,70,2|0,3:0|2:0,2:0:0:0:
366,143,60880,1,0,1:0:0:0:
511,270,61044,5,2,3:0:0:0:
500,310,61126,1,0,2:0:0:0:
470,320,61208,1,0,1:0:0:0:
230,247,61371,6,0,P|211:213|219:158,1,70,2|0,3:0|2:0,2:0:0:0:
270,60,61535,1,0,1:0:0:0:
454,147,61699,5,2,3:0:0:0:
455,170,61781,1,0,2:0:0:0:
431,187,61862,1,0,1:0:0:0:
86,295,62026,6,0,P|59:263|55:205,1,70,2|0,3:0|2:0,2:0:0:0:
91,65,62188,1,0,1:0:0:0:
191,193,62350,5,2,3:0:0:0:
172,202,62431,1,0,3:0:0:0:
158,195,62512,1,0,1:0:0:0:
275,35,62674,6,0,P|255:77|262:113,1,70,2|0,3:0|2:0,2:0:0:0:
411,179,62837,2,0,P|378:166|359:138,1,70,2|0,1:3|2:0,2:0:0:0:
402,9,63000,5,0,3:0:0:0:
395,306,63163,6,0,P|422:327|461:330,1,70,2|0,1:2|2:0,1:0:0:0:
500,264,63326,2,0,B|577:253|566:98|447:184|425:99|437:72|480:35|495:45|453:130,1,262.5,2|0,2:0|2:0,2:0:0:0:
323,43,63645,1,0,3:0:0:0:
316,35,63724,1,0,3:0:0:0:
323,25,63804,1,0,1:0:0:0:
173,31,63964,6,0,P|165:61|199:108,1,70,0|0,3:2|2:0,2:0:0:0:
147,170,64130,2,0,P|185:203|253:183,1,70,0|0,1:0|2:0,2:0:0:0:
419,172,64297,6,0,P|456:229|437:282,1,70,0|0,3:0|2:0,2:0:0:0:
508,295,64464,2,0,P|487:346|445:364,1,70,0|0,1:0|2:0,2:0:0:0:
272,364,64630,5,0,1:0:0:0:
236,302,64715,1,0,1:0:0:0:
288,246,64801,1,0,1:0:0:0:
360,245,64887,1,0,1:0:0:0:
406,182,64973,1,0,1:0:0:0:
356,119,65059,1,0,1:0:0:0:
323,42,65145,1,0,1:0:0:0:
400,0,65230,1,0,1:0:0:0:
376,113,65316,6,0,P|358:215|362:325,1,210,4|0,3:2|3:0,2:0:0:0:
458,351,65952,6,0,B|478:296|451:250|384:215|338:230|286:237|257:212|222:129|278:104|287:132,1,346.5,4|0,1:2|3:0,2:0:0:0:
384,128,66607,6,0,P|386:208|310:265,1,157.5,4|0,1:2|3:0,2:0:0:0:
86,355,67224,6,0,P|57:314|55:290,1,56,4|0,1:2|2:0,2:0:0:0:
191,340,67391,2,0,P|225:343|275:323,1,49,0|0,3:0|2:0,2:0:0:0:
177,158,67559,6,0,P|212:130|224:108,1,42.875,0|0,3:0|3:0,2:0:0:0:
133,228,67726,2,0,P|97:217|83:205,1,37.515625,0|0,3:0|3:0,2:0:0:0:
49,51,67894,5,4,1:2:0:0:
