osu file format v14

[General]
AudioFilename: audio.mp3
AudioLeadIn: 0
PreviewTime: 38483
Countdown: 0
SampleSet: Soft
StackLeniency: 0.7
Mode: 0
LetterboxInBreaks: 1
EpilepsyWarning: 1
WidescreenStoryboard: 1

[Editor]
Bookmarks: 31696
DistanceSpacing: 0.4
BeatDivisor: 4
GridSize: 16
TimelineZoom: 2.699999

[Metadata]
Title:The Last Bell I Will Ever Hear
TitleUnicode:The Last Bell I Will Ever Hear
Artist:The Arrogant Sons Of Bitches
ArtistUnicode:The Arrogant Sons Of Bitches
Creator:tutis
Version:3D's Insane
Source:
Tags:ska skate punk rock english three cheers for disappointment jeff rosenstock balloons jacksfilms take vastly sinyus20 ZevinLevin Vncegd 3d boi [3d]
BeatmapID:3980553
BeatmapSetID:1915203

[Difficulty]
HPDrainRate:5
CircleSize:3.3
OverallDifficulty:7.5
ApproachRate:8.6
SliderMultiplier:1.4
SliderTickRate:0.5

[Events]
//Background and Video events
0,0,"cover_wallpaper.jpg",0,0
//Break Periods
//Storyboard Layer 0 (Background)
//Storyboard Layer 1 (Fail)
//Storyboard Layer 2 (Pass)
//Storyboard Layer 3 (Foreground)
//Storyboard Layer 4 (Overlay)
//Storyboard Sound Samples

[TimingPoints]
386,366.97247706422,4,2,1,60,1,0
1486,327.868852459016,4,2,1,60,1,0
1813,328.767123287671,4,2,1,60,1,0
1813,-142.857142857143,4,2,1,60,0,0
2799,323.450134770889,4,2,1,60,1,0
2799,-200,4,2,1,60,0,0
3122,341.880341880342,4,2,1,60,1,0
3122,-142.857142857143,4,2,1,60,0,0
4147,310.363938751497,4,2,1,60,1,0
4147,-200,4,2,1,60,0,0
4457,335.852225020991,4,2,1,60,1,0
4457,-142.857142857143,4,2,1,60,0,0
5464,319.148936170213,4,2,1,60,1,0
5464,-200,4,2,1,60,0,0
5783,326.975476839237,4,2,1,60,1,0
6436,322.580645161291,4,2,1,60,1,0
7081,322.58064516129,4,2,1,60,1,0
7403,-83.3333333333333,4,2,1,60,0,0
7726,332.409972299169,4,2,1,60,1,0
8058,-83.3333333333333,4,2,1,60,0,0
8723,326.086956521739,4,2,1,60,1,0
8723,-83.3333333333333,4,2,1,60,0,0
9701,351.906158357771,4,2,1,60,1,0
10052,330.578512396695,4,2,1,60,1,0
10052,-76.9230769230769,4,2,1,60,0,0
11043,343.839541547278,4,2,1,60,1,0
11386,-100,4,2,1,65,0,0
11730,329.67032967033,4,2,1,70,1,0
11894,-100,4,2,1,65,0,0
12389,327.868852459016,4,2,1,70,1,0
12389,-71.4285714285714,4,2,1,70,0,0
13044,327.868852459016,4,2,1,70,1,0
13699,335.195530726257,4,2,1,70,1,0
13699,-71.4285714285714,4,2,1,70,0,0
14369,329.670329670329,4,2,1,70,1,0
14451,-71.4285714285714,4,2,1,70,0,0
15028,299.999999999999,4,2,1,70,1,0
15028,-71.4285714285714,4,2,1,70,0,0
15328,354.50516986706,4,2,1,70,1,0
16214,312.5,4,2,1,70,1,0
16370,339.943342776204,4,2,1,70,1,0
16370,-71.4285714285714,4,2,1,70,0,0
17049,329.67032967033,4,2,1,70,1,0
17708,325.20325205834,4,2,1,70,1,0
17708,-71.4285714285714,4,2,1,70,0,0
19008,331.491712707182,4,2,1,70,1,0
19008,-71.4285714285714,4,2,1,70,0,0
20333,331.491712707182,4,2,1,70,1,0
20333,-71.4285714285714,4,2,1,70,0,0
21658,309.278350515464,4,2,1,70,1,0
21658,-71.4285714285714,4,2,1,70,0,0
21967,334.261838440111,4,2,1,70,1,0
22301,-66.6666666666667,4,2,1,70,0,0
22969,332.409972299169,4,2,1,60,1,0
22969,-76.9230769230769,4,2,1,60,0,0
23966,353.982300884956,4,2,1,60,1,0
24319,350.877192982456,4,2,1,60,1,0
24319,-66.6666666666667,4,2,1,60,0,0
24669,-76.9230769230769,4,2,1,60,0,0
25020,318.725099601593,4,2,1,60,1,0
25020,-76.9230769230769,4,2,1,60,0,0
25657,329.218106995885,4,2,1,60,1,0
25657,-66.6666666666667,4,2,1,60,0,0
25986,-76.9230769230769,4,2,1,60,0,0
26644,309.278350515464,4,2,1,60,1,0
26953,333.333333333333,4,2,1,60,1,0
26953,-66.6666666666667,4,2,1,60,0,0
27286,-76.9230769230769,4,2,1,60,0,0
28286,319.148936170213,4,2,1,75,1,1
28286,-58.8235294117647,4,2,1,75,0,1
29243,331.491712707182,4,2,1,75,1,1
29243,-58.8235294117647,4,2,1,75,0,1
29574,322.58064516129,4,2,1,75,1,1
29574,-58.8235294117647,4,2,1,75,0,1
30541,346.820809248555,4,2,1,75,1,1
30541,-58.8235294117647,4,2,1,75,0,1
30887,323.886639676113,4,2,1,75,1,1
30887,-55.5555555555556,4,2,1,75,0,1
31534,-58.4795321637427,4,2,1,75,0,1
32182,-55.5555555555556,4,2,1,75,0,1
32506,340.909090909091,4,2,1,75,1,1
32846,324.763193504736,4,2,1,75,1,1
32846,-58.8235294117647,4,2,1,75,0,1
33495,333.333333333333,4,2,1,65,1,0
33495,-66.6666666666667,4,2,1,65,0,0
33828,-76.9230769230769,4,2,1,65,0,0
34161,321.285140562249,4,2,1,65,1,0
34803,338.983050847457,4,2,1,65,1,0
34803,-66.6666666666667,4,2,1,65,0,0
35141,-76.9230769230769,4,2,1,65,0,0
36158,326.975476839237,4,2,1,65,1,0
36158,-66.6666666666667,4,2,1,65,0,0
36484,-76.9230769230769,4,2,1,65,0,0
36811,335.195530726257,4,2,1,65,1,0
36811,-76.9230769230769,4,2,1,65,0,0
37481,320.855614973262,4,2,1,65,1,0
37481,-66.6666666666667,4,2,1,65,0,0
37801,339.943342776204,4,2,1,65,1,0
37801,-76.9230769230769,4,2,1,65,0,0
38820,333.333333333333,4,2,1,80,1,0
38820,-58.8235294117647,4,2,1,80,0,0
39820,345.821325648415,4,2,1,80,1,0
39820,-58.8235294117647,4,2,1,80,0,0
40165,324.324324324324,4,2,1,80,1,0
40327,-62.5,4,2,1,80,0,0
40489,335.195530726257,4,2,1,80,1,0
40656,-62.5,4,2,1,80,0,0
41494,317.460317460317,4,2,1,80,1,0
41494,-55.5555555555556,4,2,1,80,0,0
41811,328.317373461012,4,2,1,80,1,0
41811,-55.5555555555556,4,2,1,80,0,0
42139,-62.5,4,2,1,80,0,0
42795,339.943342776204,4,2,1,80,1,0
42795,-55.5555555555556,4,2,1,80,0,0
43474,-62.5,4,2,1,80,0,0
43814,353.982300884956,4,2,1,80,1,0
44167,322.58064516129,4,2,1,80,1,1
44167,-50,4,2,1,80,0,1
44489,332.409972299169,4,2,1,80,1,1
44489,-50,4,2,1,80,0,1
45486,316.622691292876,4,2,1,80,1,1
45486,-50,4,2,1,80,0,1
46435,330.578512396695,4,2,1,80,1,1
46765,324.324324324324,4,2,1,80,1,1
46765,-50,4,2,1,80,0,1
48062,293.398533007335,4,2,1,80,1,1
48062,-50,4,2,1,80,0,1
48355,335.195530726258,4,2,1,80,1,1
48355,-50,4,2,1,80,0,1
49360,337.552742616033,4,2,1,80,1,1
49360,-50,4,2,1,80,0,1
50709,331.491712707182,4,2,1,80,1,1
50874,-50,4,2,1,80,0,1
52034,333.333333333333,4,2,1,80,1,1
52034,-47.6190476190476,4,2,1,80,0,1
52700,-50,4,2,1,80,0,1
53034,312.5,4,2,1,80,1,1
53034,-50,4,2,1,80,0,1
53346,328.767123287671,4,2,1,80,1,1
53346,-52.6315789473684,4,2,1,80,0,1
54660,329.670329670329,4,2,1,70,1,0
54660,-50,4,2,1,70,0,0
54989,-66.6666666666667,4,2,1,70,0,0
55566,-68.9655172413793,4,2,1,70,0,0
55649,357.142857142857,4,2,1,70,1,0
56006,330.578512396694,4,2,1,70,1,0
56006,-66.6666666666667,4,2,1,70,0,0
57328,336.417157275021,4,2,1,70,1,0
57496,-62.5,4,2,1,70,0,0
58673,336.134453781513,4,2,1,70,1,0
58673,-58.8235294117647,4,2,1,70,0,0
59345,347.826086956522,4,2,1,70,1,0
59345,-55.5555555555556,4,2,1,70,0,0
60040,327.868852459016,4,2,1,70,1,0
60040,-66.6666666666667,4,2,1,70,0,0
60367,350.877192982456,4,2,1,70,1,0
60367,-66.6666666666667,4,2,1,70,0,0
60717,327.421555252387,4,2,1,70,1,0
60717,-55.5555555555556,4,2,1,70,0,0
62026,324.324324324324,4,2,1,70,1,0
62026,-55.5555555555556,4,2,1,70,0,0
62674,326.086956521739,4,2,1,70,1,0
62837,-55.5555555555556,4,2,1,70,0,0
63326,319.148936170212,4,2,1,70,1,0
63326,-55.5555555555556,4,2,1,70,0,0
63964,333.333333333334,4,2,1,70,1,0
63964,-55.5555555555556,4,2,1,70,0,0
64630,343.347639484979,4,2,1,70,1,0
65316,318.302387267905,4,2,1,70,1,0
65952,327.868852459016,4,2,1,70,1,0
65952,-66.6666666666667,4,2,1,70,0,0
66607,308.880308880309,4,2,1,70,1,0
66607,-133.333333333333,4,2,1,70,0,0
67224,335.195530726257,4,2,1,70,1,0
67224,-66.6666666666667,4,2,1,70,0,0
67391,-71.4285714285714,4,2,1,70,0,0
67559,-83.3333333333333,4,2,1,70,0,0
67726,-100,4,2,1,70,0,0
67894,269.058295964125,4,2,1,70,1,0

[Colours]
Combo1 : 117,173,223
Combo2 : 77,221,182
Combo3 : 226,230,83
Combo4 : 237,125,105

[HitObjects]
20,95,1813,6,0,B|83:56|163:103|112:150|198:201|265:151,1,269.5,12|0,2:0|2:0,2:0:0:0:
254,157,2799,2,0,L|255:130,3,17.5,8|4|4|4,2:3|2:3|2:3|2:3,2:0:0:0:
299,232,3122,6,0,B|371:316|472:236|460:170|408:143|370:167,1,269.5,12|0,2:0|2:0,2:0:0:0:
369,167,4147,2,0,L|358:198,3,17.5,8|4|4|4,2:3|2:3|2:3|2:3,2:0:0:0:
435,47,4457,6,0,P|412:125|381:316,1,269.5,12|0,2:0|2:0,2:0:0:0:
381,310,5464,2,0,L|401:315,3,17.5,8|4|4|4,2:3|2:3|2:3|2:3,2:0:0:0:
309,353,5783,5,12,2:0:0:0:
149,238,6109,1,0,2:0:0:0:
87,350,6436,5,2,2:0:0:0:
299,248,6758,1,2,2:0:0:0:
30,172,7081,5,4,2:3:0:0:
30,172,7242,1,4,2:3:0:0:
128,89,7403,2,0,P|135:151|136:214,1,126,12|0,2:0|2:0,2:0:0:0:
139,241,7726,5,4,2:3:0:0:
139,241,7892,1,4,2:3:0:0:
235,168,8058,2,0,P|237:99|245:36,1,126,12|0,2:0|2:0,2:0:0:0:
255,23,8390,5,4,2:3:0:0:
255,23,8557,1,4,2:3:0:0:
361,89,8723,2,0,P|363:158|370:216,1,126,12|8,2:0|2:3,2:0:0:0:
376,232,9049,5,4,2:3:0:0:
466,271,9212,1,4,2:3:0:0:
393,342,9375,2,0,B|329:331|340:379|274:371,1,126,12|2,2:0|2:3,2:0:0:0:
254,373,9701,5,2,2:0:0:0:
254,373,9876,1,4,2:3:0:0:
173,280,10052,2,0,P|107:258|38:241,1,136.5,12|8,2:0|2:3,2:0:0:0:
14,237,10382,5,4,2:3:0:0:
14,237,10547,1,4,2:3:0:0:
98,138,10713,2,0,P|164:121|228:99,1,136.5,12|0,2:0|2:0,2:0:0:0:
245,91,11043,5,12,2:0:0:0:
244,13,11214,1,4,2:3:0:0:
322,108,11386,5,12,2:0:0:0:
330,0,11558,1,4,2:3:0:0:
391,144,11730,5,12,2:0:0:0:
410,13,11894,1,12,2:3:0:0:
456,191,12059,5,12,2:0:0:0:
502,29,12224,1,12,2:3:0:0:
317,188,12389,6,0,P|337:269|347:386,1,196,4|0,3:2|3:0,2:0:0:0:
347,380,12798,1,0,3:0:0:0:
347,380,12880,1,0,1:0:0:0:
203,362,13044,5,2,3:2:0:0:
228,241,13207,1,2,1:2:0:0:
193,353,13371,1,2,3:2:0:0:
214,246,13535,1,2,1:2:0:0:
106,384,13699,6,0,P|43:324|104:248,1,196,4|0,3:2|3:0,2:0:0:0:
97,249,14117,1,0,3:0:0:0:
97,249,14201,1,0,1:0:0:0:
9,175,14369,5,2,2:0:0:0:
9,175,14451,2,0,P|16:150|42:128,1,49,8|2,2:1|2:0,2:0:0:0:
35,55,14616,2,0,P|55:48|89:52,1,49,8|2,2:0|2:0,2:0:0:0:
154,22,14781,2,0,P|178:29|200:55,1,49,8|2,2:1|2:0,2:0:0:0:
246,116,14945,1,8,2:0:0:0:
246,116,15028,6,0,P|327:126|462:104,1,196.653327351888,4|0,3:2|3:0,2:0:0:0:
439,111,15416,1,0,3:0:0:0:
439,111,15505,1,0,1:0:0:0:
377,27,15682,5,0,2:0:0:0:
322,159,15859,1,2,1:2:0:0:
359,260,16037,1,2,3:2:0:0:
446,299,16214,1,2,1:2:0:0:
446,299,16292,1,0,1:0:0:0:
446,299,16370,6,0,B|335:283|376:378|256:356,1,196,4|0,3:2|3:0,2:0:0:0:
269,358,16794,1,0,3:0:0:0:
269,358,16879,1,0,1:0:0:0:
265,280,17049,5,8,2:0:0:0:
193,232,17213,1,8,2:3:0:0:
80,259,17378,1,8,2:0:0:0:
11,382,17543,1,8,2:3:0:0:
181,340,17708,6,0,P|169:272|153:136,1,196,4|0,3:2|3:0,2:0:0:0:
153,145,18114,1,0,3:0:0:0:
153,145,18195,1,0,1:0:0:0:
11,32,18358,5,2,3:2:0:0:
50,134,18521,1,2,1:2:0:0:
18,24,18683,1,2,1:2:0:0:
56,126,18846,1,2,1:2:0:0:
139,23,19008,6,0,B|252:14|202:105|325:92,1,196,4|0,3:2|3:0,2:0:0:0:
311,93,19422,1,0,3:0:0:0:
311,93,19505,1,0,1:0:0:0:
274,179,19670,5,2,2:0:0:0:
274,179,19753,2,0,P|289:199|321:210,1,49,8|2,2:1|2:0,2:0:0:0:
322,290,19919,2,0,P|347:294|382:274,1,49,8|2,2:0|2:0,2:0:0:0:
423,350,20085,2,0,P|443:334|454:302,1,49,8|2,2:1|2:0,2:0:0:0:
506,252,20251,1,8,2:0:0:0:
506,252,20333,6,0,P|485:183|473:50,1,196,4|0,3:2|3:0,2:0:0:0:
472,60,20747,1,0,3:0:0:0:
472,60,20830,1,0,1:0:0:0:
378,58,20995,5,0,2:0:0:0:
317,166,21161,1,2,1:2:0:0:
360,273,21327,1,2,3:2:0:0:
453,306,21493,1,2,1:2:0:0:
453,306,21576,1,0,1:0:0:0:
453,306,21658,6,0,B|404:290|357:320|392:344|334:381|274:356,1,195.999994018555,4|0,3:2|3:0,2:0:0:0:
278,357,22050,1,0,3:0:0:0:
278,357,22134,1,0,1:0:0:0:
202,292,22301,6,0,L|209:240,1,52.5,8|8,2:0|2:0,2:0:0:0:
319,186,22468,2,0,L|326:237,1,52.5,8|4,2:3|2:3,2:0:0:0:
187,293,22635,6,0,L|194:241,1,52.5,8|8,2:0|2:0,2:0:0:0:
326,173,22802,2,0,L|333:224,1,52.5,8|4,2:3|2:3,2:0:0:0:
229,147,22969,6,0,P|182:134|64:122,1,136.5,4|0,3:2|2:0,2:0:0:0:
95,122,23301,2,0,P|90:99|93:76,2,45.5,0|0|0,3:0|3:0|1:0,2:0:0:0:
25,171,23633,5,0,3:0:0:0:
0,247,23800,1,0,1:0:0:0:
45,318,23966,5,0,3:0:0:0:
45,318,24054,1,0,3:0:0:0:
200,329,24319,6,0,P|268:310|362:310,1,157.5,2|0,2:3|2:0,2:0:0:0:
358,315,24669,2,0,P|346:337|340:366,2,45.5,0|0|0,3:0|3:0|1:0,2:0:0:0:
454,279,25020,6,0,P|468:257|465:222,1,45.5,0|0,3:0|2:0,2:0:0:0:
495,230,25179,2,0,P|496:203|476:176,1,45.5,0|0,1:0|2:0,2:0:0:0:
488,164,25338,1,0,3:0:0:0:
488,164,25418,1,0,3:0:0:0:
408,24,25657,6,0,L|253:46,1,157.5,2|0,2:3|2:0,2:0:0:0:
239,38,25986,2,0,P|213:34|194:31,2,45.5,0|0|0,3:0|3:0|1:0,2:0:0:0:
94,33,26315,6,0,P|74:49|67:86,1,45.5,0|0,3:0|2:0,2:0:0:0:
42,68,26480,2,0,P|34:92|43:120,1,45.5,0|0,1:0|2:0,2:0:0:0:
31,137,26644,1,0,3:0:0:0:
31,137,26721,1,0,3:0:0:0:
34,283,26953,6,0,P|136:268|211:263,1,157.5,2|0,2:3|2:0,2:0:0:0:
205,272,27286,2,0,P|235:272|264:267,2,45.5,0|0|0,3:0|3:0|1:0,2:0:0:0:
327,207,27619,6,0,P|349:207|381:218,1,45.5,0|0,3:0|2:0,2:0:0:0:
393,205,27786,2,0,P|408:221|423:251,1,45.5,4|0,1:2|2:0,2:0:0:0:
441,248,27953,5,2,3:2:0:0:
330,291,28119,1,2,1:2:0:0:
395,375,28286,6,0,P|454:372|513:382,1,119,4|0,3:2|1:0,2:0:0:0:
511,199,28605,2,0,P|452:208|393:205,1,119,0|0,3:0|1:0,2:0:0:0:
330,291,28924,5,0,3:0:0:0:
258,182,29083,1,0,1:0:0:0:
214,306,29243,2,0,P|150:311|88:328,1,119,0|0,3:0|1:0,2:0:0:0:
68,336,29491,5,0,2:0:0:0:
68,336,29574,2,0,P|19:316|7:245,1,119,4|0,3:2|1:0,2:0:0:0:
19,122,29896,5,0,3:0:0:0:
84,225,30057,1,0,1:0:0:0:
136,101,30219,1,0,2:0:0:0:
207,200,30380,1,0,1:0:0:0:
311,41,30541,6,0,P|251:69|238:127,1,119,0|0,3:0|1:0,2:0:0:0:
186,294,30887,6,0,B|255:269|321:314|276:354|348:405|422:356,1,252,4|0,3:2|3:0,2:0:0:0:
405,365,31291,1,0,3:0:0:0:
405,365,31372,1,0,1:0:0:0:
387,165,31534,6,0,P|374:230|370:285,3,119.7,0|0|0|0,2:0|1:0|3:0|1:0,2:0:0:0:
474,154,32182,6,0,P|435:81|302:145,1,252.778042309571,4|0,3:2|3:0,2:0:0:0:
303,133,32591,1,0,3:0:0:0:
303,133,32676,1,0,1:0:0:0:
250,207,32846,6,0,P|211:213|178:200,1,59.5,0|0,3:0|3:0,2:0:0:0:
137,265,33008,1,0,1:0:0:0:
137,265,33089,1,0,1:0:0:0:
137,265,33170,2,0,P|108:240|90:206,1,59.5,4|0,2:3|1:0,2:0:0:0:
21,226,33333,1,0,1:0:0:0:
21,226,33414,1,8,2:3:0:0:
21,226,33495,6,0,L|35:70,1,157.5,4|0,3:2|2:0,2:0:0:0:
36,51,33828,2,0,P|24:24|0:3,2,45.5,0|0|0,3:0|3:0|1:0,2:0:0:0:
111,121,34161,5,0,3:0:0:0:
161,34,34321,1,0,1:0:0:0:
221,122,34482,1,0,3:0:0:0:
270,34,34642,1,0,1:0:0:0:
326,131,34803,6,0,B|420:116|370:70|461:59,1,157.5,2|0,3:0|2:0,2:0:0:0:
475,50,35141,2,0,P|453:25|443:7,2,45.5,0|0|0,3:0|3:0|1:0,2:0:0:0:
494,141,35480,6,0,P|494:178|482:200,1,45.5,0|0,3:0|2:0,2:0:0:0:
506,212,35650,2,0,P|479:238|455:245,1,45.5,0|0,1:0|2:0,2:0:0:0:
459,264,35819,1,0,3:0:0:0:
512,348,35989,1,0,1:0:0:0:
395,375,36158,6,0,P|318:358|228:348,1,157.5,2|0,3:0|2:0,2:0:0:0:
219,354,36484,2,0,P|193:363|150:369,2,45.5,0|0|0,3:0|3:0|1:0,2:0:0:0:
59,364,36811,6,0,P|40:336|36:304,1,45.5,0|0,3:0|2:0,2:0:0:0:
8,320,36978,2,0,P|13:286|33:262,1,45.5,0|0,1:0|2:0,2:0:0:0:
16,247,37146,1,0,3:0:0:0:
16,247,37229,1,0,3:0:0:0:
34,92,37481,6,0,B|133:78|101:143|206:126,1,157.5,2|0,3:0|2:0,2:0:0:0:
205,122,37801,2,0,P|222:105|234:74,2,45.5,0|0|0,3:0|3:0|1:0,2:0:0:0:
303,29,38140,6,0,P|332:33|355:55,1,45.5,0|0,3:0|2:0,2:0:0:0:
365,34,38310,2,0,P|382:57|383:89,1,45.5,4|0,1:2|2:0,2:0:0:0:
401,98,38480,5,0,3:0:0:0:
305,145,38650,1,0,1:0:0:0:
401,220,38820,6,0,P|379:293|377:346,1,119,4|0,3:1|1:2,2:0:0:0:
233,384,39153,2,0,P|227:324|209:268,1,119,0|0,3:2|3:2,2:0:0:0:
96,218,39486,5,0,3:0:0:0:
47,330,39653,1,0,1:2:0:0:
32,177,39820,6,0,P|108:177|148:154,1,119,0|0,3:2|1:0,2:0:0:0:
161,153,40079,1,0,1:0:0:0:
161,153,40165,1,4,3:2:0:0:
208,51,40327,6,0,P|274:37|332:44,1,112,0|0,1:2|3:2,2:0:0:0:
350,45,40572,1,0,3:2:0:0:
350,45,40656,2,0,P|354:80|347:111,1,56,0|0,1:2|3:2,2:0:0:0:
434,148,40824,6,0,P|412:175|385:192,3,56,0|0|0|0,2:0|3:2|1:2|1:0,2:0:0:0:
468,271,41159,1,0,3:2:0:0:
468,271,41243,1,0,3:2:0:0:
468,271,41326,2,0,P|433:275|402:268,1,56,0|0,1:2|1:2,2:0:0:0:
371,352,41494,6,0,P|309:340|215:346,1,126,4|0,3:2|1:2,2:0:0:0:
128,163,41811,2,0,P|190:175|284:169,1,126,4|0,3:2|1:2,2:0:0:0:
368,336,42139,6,0,P|312:325|227:330,1,112,4|0,2:0|1:2,2:0:0:0:
132,180,42467,2,0,P|187:190|272:185,1,112,4|0,3:2|1:2,2:0:0:0:
57,316,42795,6,0,P|47:252|30:181,1,126,4|0,3:2|1:0,2:0:0:0:
155,56,43134,2,0,P|145:120|128:191,1,126,4|0,3:2|1:0,2:0:0:0:
67,305,43474,6,0,P|58:247|42:183,1,112,4|0,3:2|1:0,2:0:0:0:
164,41,43814,1,2,1:2:0:0:
199,48,43902,1,2,1:2:0:0:
234,55,43990,1,2,1:2:0:0:
269,62,44079,1,2,1:2:0:0:
304,65,44167,6,0,P|332:128|304:203,1,140,4|0,3:1|1:0,2:0:0:0:
298,221,44408,5,0,2:0:0:0:
298,219,44489,2,0,P|258:210|219:206,1,70,0|0,3:0|3:0,2:0:0:0:
142,277,44655,6,0,P|248:289|373:317,1,210,0|0,1:0|3:0,2:0:0:0:
373,316,44987,1,0,1:0:0:0:
481,228,45153,1,0,3:0:0:0:
493,377,45320,1,0,1:0:0:0:
384,213,45486,6,0,P|388:145|413:64,1,140,4|0,3:1|1:0,2:0:0:0:
243,5,45802,2,0,P|262:72|266:141,1,140,0|0,3:0|1:0,2:0:0:0:
259,161,46040,5,0,3:0:0:0:
259,161,46119,2,0,L|106:141,1,140,0|0,2:0|1:0,2:0:0:0:
33,16,46435,1,0,3:0:0:0:
178,66,46600,1,0,1:0:0:0:
32,158,46765,6,0,P|10:217|51:283,1,140,4|0,3:1|1:0,2:0:0:0:
216,367,47089,2,0,P|285:360|365:360,1,140,0|0,3:0|1:0,2:0:0:0:
388,358,47332,6,0,P|420:330|425:297,1,70,0|0,3:0|2:0,2:0:0:0:
509,318,47494,1,0,3:0:0:0:
509,318,47575,2,0,P|511:275|492:248,1,70,0|0,1:0|2:0,2:0:0:0:
429,199,47737,5,0,3:0:0:0:
338,269,47900,1,0,1:0:0:0:
333,137,48062,6,0,P|344:68|359:-7,1,140,4|2,3:1|1:2,2:0:0:0:
207,97,48355,2,0,P|220:165|231:234,1,140,2|2,3:2|1:2,2:0:0:0:
155,347,48690,5,2,3:2:0:0:
51,233,48857,1,0,1:0:0:0:
36,380,49025,5,0,3:0:0:0:
63,374,49109,1,2,1:2:0:0:
92,367,49192,1,2,1:2:0:0:
122,360,49276,1,0,3:0:0:0:
155,347,49360,2,0,P|186:300|151:225,1,140,4|0,3:1|1:0,2:0:0:0:
0,143,49697,6,0,P|63:145|181:110,1,140,0|0,3:0|1:0,2:0:0:0:
174,120,49950,1,0,3:0:0:0:
174,120,50035,2,0,P|163:81|158:34,1,70,0|0,2:0|3:0,2:0:0:0:
234,0,50203,6,0,P|246:84|288:225,1,210,0|0,1:0|3:0,2:0:0:0:
291,224,50541,5,4,1:2:0:0:
376,103,50709,1,4,3:1:0:0:
468,221,50874,2,0,P|456:293|425:358,1,140,0|0,1:0|3:0,2:0:0:0:
410,384,51123,1,0,3:0:0:0:
410,384,51206,2,0,P|378:370|342:360,1,70,0|0,1:0|3:0,2:0:0:0:
278,311,51371,6,0,P|129:331|-9:355,1,280,0|4,2:0|3:2,2:0:0:0:
0,353,51786,1,0,3:0:0:0:
0,353,51869,1,0,1:0:0:0:
87,246,52034,6,0,P|72:172|36:93,1,147,4|0,3:1|1:0,2:0:0:0:
217,14,52367,2,0,P|188:81|173:153,1,147,0|0,3:0|1:0,2:0:0:0:
319,255,52700,2,0,P|304:181|273:105,1,140,0|0,2:0|1:0,2:0:0:0:
449,23,53034,2,0,P|420:90|406:160,1,140,0|0,3:0|1:0,2:0:0:0:
400,334,53346,6,0,P|474:338|501:273,1,133,4|0,3:1|1:0,2:0:0:0:
319,255,53674,2,0,P|260:262|170:275,1,133,2|0,3:2|1:0,2:0:0:0:
50,368,54003,5,2,3:2:0:0:
50,368,54085,1,0,3:0:0:0:
50,368,54167,2,0,P|81:374|118:352,1,66.5,0|0,1:0|2:0,2:0:0:0:
109,274,54332,5,2,3:2:0:0:
103,233,54414,1,0,1:0:0:0:
93,187,54496,1,0,1:0:0:0:
81,156,54578,1,8,2:3:0:0:
63,117,54660,6,0,B|171:86|161:175|272:136,1,210,4|0,3:2|2:0,2:0:0:0:
277,125,54989,2,0,P|281:97|276:57,2,52.5,0|0|0,3:0|3:0|1:0,2:0:0:0:
365,147,55319,6,0,P|375:201|382:268,1,105,0|0,3:2|1:0,2:0:0:0:
404,261,55566,2,0,P|398:306|389:364,1,106.231537338765,0|0,2:0|3:0,2:0:0:0:
391,384,55827,1,0,1:0:0:0:
502,275,56006,6,0,P|488:200|484:114,1,157.5,0|0,3:2|2:0,2:0:0:0:
480,99,56336,1,0,3:0:0:0:
422,21,56501,1,0,1:0:0:0:
371,97,56667,1,0,3:2:0:0:
303,34,56832,6,0,B|202:29|262:96|156:91,1,157.5,0|0,1:0|3:0,2:0:0:0:
140,88,57163,1,0,1:0:0:0:
74,18,57328,1,0,3:2:0:0:
31,107,57496,6,0,P|22:173|54:218,1,112,0|0,1:0|3:2,2:0:0:0:
57,221,57748,1,0,3:0:0:0:
57,221,57832,1,0,1:0:0:0:
137,281,58000,2,0,P|132:316|118:358,2,56,0|0|0,3:0|3:0|1:0,2:0:0:0:
197,200,58337,5,0,3:0:0:0:
260,274,58505,1,0,1:0:0:0:
336,174,58673,6,0,P|377:193|461:225,1,119,4|0,3:2|2:0,2:0:0:0:
469,231,58925,1,0,3:0:0:0:
469,231,59009,1,0,1:0:0:0:
357,274,59177,1,0,3:0:0:0:
483,319,59345,6,0,P|421:345|367:369,1,126,4|0,3:2|2:0,2:0:0:0:
345,384,59605,1,0,3:0:0:0:
345,384,59692,2,0,L|274:354,3,63,0|0|0|0,1:0|1:0|3:0|2:0,2:0:0:0:
219,313,60040,6,0,P|168:314|64:339,1,157.5,4|0,3:2|2:0,2:0:0:0:
42,354,60367,2,0,P|28:331|17:307,2,52.5,0|0|0,3:0|3:0|1:0,2:0:0:0:
71,218,60717,6,0,P|52:159|8:88,1,126,2|0,3:0|1:0,2:0:0:0:
228,20,61044,2,0,P|196:74|177:134,1,126,2|0,3:0|1:0,2:0:0:0:
61,231,61371,2,0,P|42:172|-2:98,1,126,2|0,3:0|1:0,2:0:0:0:
243,21,61699,2,0,P|212:76|193:135,1,126,2|0,3:0|1:0,2:0:0:0:
49,240,62026,2,0,P|30:181|-14:107,1,126,2|0,3:0|1:0,2:0:0:0:
157,235,62350,6,0,B|265:216|219:322|351:291,1,189,2|0,3:0|2:0,2:0:0:0:
346,294,62674,1,2,3:0:0:0:
490,181,62837,2,0,P|499:110|459:73,1,126,0|0,1:0|3:0,2:0:0:0:
320,70,63163,5,0,1:0:0:0:
349,173,63326,2,0,P|375:282|395:381,1,189,0|0,3:2|2:0,2:0:0:0:
402,372,63645,2,0,P|446:358|458:345,2,63,0|0|0,3:0|3:0|1:0,2:0:0:0:
306,339,63964,6,0,L|156:311,1,126,0|0,3:2|1:0,2:0:0:0:
89,222,64297,1,0,3:0:0:0:
55,339,64464,1,0,1:0:0:0:
183,229,64630,5,0,1:0:0:0:
206,211,64715,1,0,1:0:0:0:
208,176,64801,1,0,1:0:0:0:
192,150,64887,1,0,1:0:0:0:
152,131,64973,1,0,1:0:0:0:
112,107,65059,1,0,1:0:0:0:
97,56,65145,1,0,1:0:0:0:
116,17,65230,1,0,1:0:0:0:
174,0,65316,6,0,B|299:20|222:84|359:88,1,210,4|0,3:2|3:0,2:0:0:0:
426,17,65952,6,0,B|371:74|371:74|410:307,1,315,4|0,1:2|3:0,2:0:0:0:
489,360,66607,6,0,P|401:333|324:360,1,157.5,4|0,1:2|3:0,2:0:0:0:
233,384,67224,6,0,L|207:316,1,52.5,4|0,1:2|2:0,2:0:0:0:
117,294,67391,2,0,L|140:231,1,49,0|0,3:0|2:0,2:0:0:0:
240,221,67559,6,0,L|218:160,1,42,0|0,3:0|3:0,2:0:0:0:
154,122,67726,2,0,L|165:82,1,35,0|0,3:0|3:0,2:0:0:0:
209,23,67894,5,4,1:2:0:0:
