osu file format v14

[General]
AudioFilename: audio.mp3
AudioLeadIn: 0
PreviewTime: 40510
Countdown: 1
SampleSet: Normal
StackLeniency: 0.6
Mode: 0
LetterboxInBreaks: 0
WidescreenStoryboard: 0

[Editor]
Bookmarks: 34074
DistanceSpacing: 0.5
BeatDivisor: 8
GridSize: 4
TimelineZoom: 1

[Metadata]
Title:Pittsburgh
TitleUnicode:Pittsburgh
Artist:The Amity Affliction
ArtistUnicode:The Amity Affliction
Creator:Maruyu
Version:Broken
Source:
Tags:
BeatmapID:1272717
BeatmapSetID:602557

[Difficulty]
HPDrainRate:8
CircleSize:4.5
OverallDifficulty:8.3
ApproachRate:8.8
SliderMultiplier:2.5
SliderTickRate:1

[Events]
//Background and Video events
0,0,"wallpaper.jpg",0,0
//Break Periods
//Storyboard Layer 0 (Background)
//Storyboard Layer 1 (Fail)
//Storyboard Layer 2 (Pass)
//Storyboard Layer 3 (Foreground)
//Storyboard Sound Samples

[TimingPoints]
-30,405.405405405405,4,1,0,100,1,0
780,-100,4,1,0,40,0,0
12942,-125,4,1,0,40,0,0
14564,-111.111111111111,4,1,0,40,0,0
16692,-111.111111111111,4,1,0,15,0,0
16794,-111.111111111111,4,1,0,40,0,0
23179,-111.111111111111,4,1,0,15,0,0
23280,-111.111111111111,4,1,0,40,0,0
24294,-125,4,1,0,40,0,0
26625,-125,4,1,0,15,0,0
26726,-125,4,1,0,40,0,0
29665,-125,4,1,0,15,0,0
29767,-125,4,1,0,40,0,0
35544,-125,4,1,0,15,0,0
35645,-125,4,1,0,40,0,0
36152,-125,4,1,0,15,0,0
36253,-125,4,1,0,40,0,0

[Colours]
Combo1 : 26,108,200
Combo2 : 70,24,254
Combo3 : 111,115,130

[HitObjects]
155,192,779,5,0,0:0:0:0:
144,94,1184,1,0,0:0:0:0:
66,153,1590,1,0,0:0:0:0:
357,192,4024,5,0,0:0:0:0:
368,94,4429,1,0,0:0:0:0:
446,153,4835,1,0,0:0:0:0:
256,323,7267,5,0,0:0:0:0:
256,225,7672,1,0,0:0:0:0:
256,323,8078,1,0,0:0:0:0:
207,274,10510,5,0,0:0:0:0:
305,274,10915,1,0,0:0:0:0:
207,274,11321,1,0,0:0:0:0:
99,334,12740,1,0,0:0:0:0:
90,310,12841,1,0,0:0:0:0:
82,285,12942,6,0,P|84:236|70:188,1,100
30,124,13247,1,0,0:0:0:0:
30,99,13348,2,0,P|53:86|86:81,1,50
140,41,13551,2,0,P|164:46|185:58,1,50
223,124,13753,1,0,0:0:0:0:
223,123,14564,6,0,P|277:110|332:117,1,112.499996566773
415,176,14868,2,0,L|416:63,1,112.499996566773
332,201,15172,1,0,0:0:0:0:
479,340,15375,1,0,0:0:0:0:
332,201,15578,1,0,0:0:0:0:
324,240,15679,1,0,0:0:0:0:
316,282,15780,1,0,0:0:0:0:
308,320,15882,1,0,0:0:0:0:
199,3,16186,5,0,0:0:0:0:
207,42,16287,1,0,0:0:0:0:
215,84,16388,1,0,0:0:0:0:
223,123,16490,2,0,P|163:109|108:120,1,112.499996566773
51,60,16794,1,0,0:0:0:0:
34,96,16895,1,0,0:0:0:0:
34,136,16997,2,0,L|44:254,1,112.499996566773
198,378,17402,1,0,0:0:0:0:
6,313,17605,1,0,0:0:0:0:
212,69,17807,6,0,P|230:147|222:201,1,112.499996566773
194,256,18111,2,0,B|233:262|233:262|267:252|267:252|304:256,1,112.499996566773
387,274,18415,1,0,0:0:0:0:
322,36,18618,1,0,0:0:0:0:
496,172,18821,1,0,0:0:0:0:
474,138,18922,1,0,0:0:0:0:
442,115,19023,1,0,0:0:0:0:
403,104,19125,1,0,0:0:0:0:
364,108,19226,1,0,0:0:0:0:
330,128,19327,1,0,0:0:0:0:
296,148,19429,6,0,P|224:155|185:146,1,112.499996566773
454,75,19834,2,0,L|448:187,1,112.499996566773
350,21,20240,1,0,0:0:0:0:
367,139,20442,1,0,0:0:0:0:
371,178,20543,1,0,0:0:0:0:
377,217,20644,1,0,0:0:0:0:
382,257,20746,1,0,0:0:0:0:
388,296,20847,1,0,0:0:0:0:
394,336,20948,1,0,0:0:0:0:
402,375,21051,6,0,L|290:363,1,112.499996566773
217,297,21355,1,0,0:0:0:0:
70,354,21557,2,0,L|13:357,1,56.2499982833863
159,232,21861,2,0,P|209:210|263:223,1,112.499996566773
291,219,22165,1,0,0:0:0:0:
314,203,22267,1,0,0:0:0:0:
328,178,22368,1,0,0:0:0:0:
125,28,22672,5,0,0:0:0:0:
87,20,22773,1,0,0:0:0:0:
47,24,22875,1,0,0:0:0:0:
14,44,22976,2,0,P|7:99|19:154,1,112.499996566773
86,205,23280,1,0,0:0:0:0:
83,244,23382,1,0,0:0:0:0:
80,283,23483,6,0,P|78:311|69:337,1,56.2499982833863
181,384,23686,2,0,P|172:357|169:330,1,56.2499982833863
201,258,23888,1,0,0:0:0:0:
240,263,23990,1,0,0:0:0:0:
278,268,24091,1,0,0:0:0:0:
316,275,24192,1,0,0:0:0:0:
350,281,24294,6,0,P|423:266|495:284,1,150
284,329,24699,2,0,L|276:229,1,100
316,84,25105,1,0,0:0:0:0:
324,50,25206,1,0,0:0:0:0:
321,15,25307,1,0,0:0:0:0:
215,129,25510,2,0,P|166:133|116:125,1,100
57,80,25814,1,0,0:0:0:0:
41,60,25915,6,0,P|35:26|37:6,2,50
132,145,26321,1,0,0:0:0:0:
147,164,26422,2,0,P|154:214|148:263,1,100
118,332,26726,2,0,P|136:348|159:358,1,50
223,300,26929,5,0,0:0:0:0:
254,284,27030,1,0,0:0:0:0:
288,280,27132,2,0,P|312:282|333:294,1,50
380,235,27334,1,0,0:0:0:0:
412,250,27436,1,0,0:0:0:0:
434,277,27537,6,0,P|421:228|428:177,1,100
455,88,27841,2,0,P|406:100|354:94,1,100
285,28,28145,1,0,0:0:0:0:
305,192,28348,2,0,P|255:186|207:198,1,100
189,216,28652,1,0,0:0:0:0:
175,236,28753,1,0,0:0:0:0:
165,259,28855,1,0,0:0:0:0:
159,283,28956,1,0,0:0:0:0:
18,38,29159,5,0,0:0:0:0:
26,72,29260,1,0,0:0:0:0:
53,94,29361,1,0,0:0:0:0:
87,103,29463,2,0,P|138:92|188:101,1,100
256,125,29767,1,0,0:0:0:0:
280,123,29868,1,0,0:0:0:0:
304,121,29969,5,0,0:0:0:0:
139,216,30172,1,0,0:0:0:0:
255,42,30375,1,0,0:0:0:0:
188,295,30578,1,0,0:0:0:0:
372,155,30780,6,0,P|323:145|273:150,1,100
214,225,31084,2,0,L|222:324,1,100
273,149,31388,1,0,0:0:0:0:
115,268,31591,2,0,L|123:168,1,100
111,93,31895,1,0,0:0:0:0:
100,70,31997,2,0,L|109:8,1,50
189,113,32199,2,0,L|197:64,1,50
279,27,32402,5,0,0:0:0:0:
468,51,32605,1,0,0:0:0:0:
293,49,32807,1,0,0:0:0:0:
444,164,33010,1,0,0:0:0:0:
307,71,33213,1,0,0:0:0:0:
420,277,33415,6,0,P|420:302|412:329,1,50
314,241,33618,2,0,P|307:216|307:192,1,50
280,340,33821,1,0,0:0:0:0:
245,342,33922,1,0,0:0:0:0:
210,334,34024,6,0,P|160:335|112:349,1,100
24,283,34328,2,0,P|73:281|121:267,1,100
155,200,34632,1,0,0:0:0:0:
32,26,34834,1,0,0:0:0:0:
60,136,35037,1,0,0:0:0:0:
94,131,35138,1,0,0:0:0:0:
129,127,35239,1,0,0:0:0:0:
164,122,35341,2,0,L|270:133,1,100
321,182,35645,5,0,0:0:0:0:
354,174,35746,1,0,0:0:0:0:
388,167,35847,1,0,0:0:0:0:
421,157,35949,2,0,P|425:107|419:57,1,100
345,59,36253,2,0,P|338:34|322:16,1,50
253,104,36456,5,0,0:0:0:0:
255,153,36557,1,0,0:0:0:0:
258,203,36658,1,0,0:0:0:0:
261,253,36760,1,0,0:0:0:0:
264,303,36861,5,0,0:0:0:0:
248,284,36963,1,0,0:0:0:0:
232,264,37064,1,0,0:0:0:0:
215,245,37165,1,0,0:0:0:0:
198,226,37267,5,0,0:0:0:0:
