osu file format v14

[General]
AudioFilename: audio.mp3
AudioLeadIn: 0
PreviewTime: 155203
Countdown: 1
SampleSet: Soft
StackLeniency: 0.7
Mode: 0
LetterboxInBreaks: 1
WidescreenStoryboard: 0

[Editor]
Bookmarks: 5450,82046,102472,128721,155203,241485,259070,275070,295039,327039,376790,408517,446905,475698,520496,605985
DistanceSpacing: 0.8
BeatDivisor: 4
GridSize: 8
TimelineZoom: 1.700003

[Metadata]
Title:FINAL FANTASY
TitleUnicode:FINAL FANTASY
Artist:The Adventures of Duane & BrandO
ArtistUnicode:The Adventures of Duane & BrandO
Creator:semaphore
Version:Marathon
Source:FINAL FANTASY
Tags:and lp of devastation english rock hip-hop rap video game ファイナルファンタジー ff1 ff2 ff3 ff4 1 2 3 4 i ii iii iv cornelia corneria coneria castle shop inn theme world map battle victory town matoya's matoya cave dungeon magician's magician chaos zeromus final fanfare ending prelude
BeatmapID:4112406
BeatmapSetID:1980475

[Difficulty]
HPDrainRate:6
CircleSize:4
OverallDifficulty:7
ApproachRate:8.5
SliderMultiplier:1.4
SliderTickRate:1

[Events]
//Background and Video events
0,0,"rsz_fdsgd.png",0,0
Video,0,"video.avi"
//Break Periods
2,155403,157728
2,351839,361364
2,376790,379834
2,447106,449430
2,475901,486225
2,520696,523020
//Storyboard Layer 0 (Background)
//Storyboard Layer 1 (Fail)
//Storyboard Layer 2 (Pass)
//Storyboard Layer 3 (Foreground)
//Storyboard Layer 4 (Overlay)
//Storyboard Sound Samples

[TimingPoints]
350,638.297872340426,4,2,0,50,1,0
20775,-100,4,2,0,60,0,0
41201,-76.9230769230769,4,2,0,70,0,1
41360,-76.9230769230769,4,2,0,70,0,0
82046,-100,4,2,0,50,0,0
97365,-100,4,2,0,40,0,0
102475,937.5,4,2,0,60,1,0
102475,-50,4,2,0,60,0,0
124975,-50,4,2,0,80,0,1
128727,413.793103448276,4,2,0,70,1,0
128727,-83.3333333333333,4,2,0,70,0,0
141968,-66.6666666666667,4,2,0,70,0,1
142071,-66.6666666666667,4,2,0,70,0,0
155203,400,4,2,0,60,1,0
176578,405.405405405405,4,2,0,50,1,0
177571,399.467376830892,4,2,0,70,1,0
177571,-100,4,2,0,70,0,1
179967,-125,4,2,0,70,0,1
180766,-100,4,2,0,70,0,1
186359,-125,4,2,0,70,0,1
187158,-100,4,2,0,70,0,1
190353,-100,4,2,0,60,0,0
219115,-100,4,2,0,70,0,1
221512,-125,4,2,0,70,0,1
222311,-100,4,2,0,70,0,1
227903,-125,4,2,0,70,0,1
228702,-100,4,2,0,70,0,1
231898,-100,4,2,0,70,0,0
238290,-100,4,2,0,60,0,0
239887,363.636363636364,4,2,0,60,1,0
240250,441.176470588235,4,2,0,50,1,0
241485,399.467376830892,4,2,0,60,1,0
241485,-200,4,2,0,60,0,0
244676,399.467376830892,4,2,0,50,1,0
244676,-111.111111111111,4,2,0,50,0,0
259070,500,4,2,0,50,1,0
267070,-100,4,2,0,60,0,0
275070,612.244897959184,4,2,0,50,1,0
294039,400,4,2,0,60,1,0
294039,-200,4,2,0,60,0,0
295039,400,4,2,0,50,1,0
295039,-111.111111111111,4,2,0,50,0,0
314239,-133.333333333333,4,2,0,40,0,0
326639,-133.333333333333,4,2,0,50,0,0
327039,400,7,2,0,50,1,0
327039,-76.9230769230769,4,2,0,70,0,1
327139,-76.9230769230769,4,2,0,70,0,0
338239,400,4,2,0,50,1,0
338239,-83.3333333333333,4,2,0,70,0,0
351039,400,7,2,0,50,1,0
351039,-76.9230769230769,4,2,0,70,0,1
351139,-76.9230769230769,4,2,0,70,0,0
351639,-76.9230769230769,4,2,0,70,0,1
351739,-76.9230769230769,4,2,0,70,0,0
362239,400,4,2,0,50,1,0
362239,-83.3333333333333,4,2,0,70,0,0
376790,495.867768595041,4,2,0,50,1,0
408517,399.893361770195,4,2,0,70,1,1
409116,-100,4,2,0,70,0,0
421313,-125,4,2,0,50,0,0
434110,-100,4,2,0,70,0,1
445307,-125,4,2,0,70,0,1
446106,-125,4,2,0,50,0,0
450105,399.94667377683,4,2,0,70,1,0
450105,-100,4,2,0,60,0,0
453305,-133.333333333333,4,2,0,60,0,0
456504,-100,4,2,0,60,0,0
459703,-133.333333333333,4,2,0,60,0,0
488495,-100,4,2,0,50,0,0
506090,404.040404040404,4,2,0,70,1,0
507700,399.893361770195,4,2,0,40,1,0
507700,-166.666666666667,4,2,0,40,0,0
523695,399.467376830892,4,2,0,60,1,0
541870,402.684563758389,4,2,0,50,1,0
542875,399.201596806387,4,2,0,70,1,1
545270,-125,4,2,0,70,0,1
546068,-100,4,2,0,70,0,1
555649,-133.333333333333,4,2,0,60,0,0
565230,399.733510992672,4,2,0,60,1,0
578022,399.201596806387,4,2,0,60,1,0
583810,-200,4,2,0,60,0,0
584409,-100,4,2,0,70,0,1
586804,-125,4,2,0,70,0,1
587602,-100,4,2,0,70,0,1
597183,402.684563758389,4,2,0,60,1,0
597585,410.958904109589,4,2,0,60,1,0
597995,389.61038961039,4,2,0,60,1,0
598579,400,4,2,0,60,1,0
599379,408.163265306122,4,2,0,60,1,0
600381,402.684563758389,4,2,0,60,1,0
601186,394.736842105263,4,2,0,60,1,0
601983,359.281437125748,4,2,0,60,1,0
602342,461.538461538462,4,2,0,60,1,0
602572,428.571428571429,4,2,0,60,1,0
603214,370.37037037037,4,2,0,60,1,0
603584,397.350993377483,4,2,0,60,1,0
604378,465.116279069767,4,2,0,60,1,0
604610,400,4,2,0,60,1,0
605010,355.029585798817,4,2,0,60,1,0
605554,428.571428571429,4,2,0,60,1,0
605985,397.877984084881,3,2,0,60,1,0
605985,-100,3,2,0,60,0,0
609963,-100,3,2,0,5,0,0
610077,666.296501943365,4,2,0,70,1,0

[Colours]
Combo1 : 17,254,176
Combo2 : 173,255,95
Combo3 : 255,88,100
Combo4 : 255,94,55

[HitObjects]
72,120,5456,6,0,P|120:108|212:124,1,140,4|8,1:0|1:0,0:0:0:0:
208,122,7052,1,0,1:0:0:0:
132,260,7371,2,0,P|120:280|116:300,1,35,8|0,1:0|0:0,0:0:0:0:
236,272,7690,2,0,P|248:252|252:232,1,35,2|0,0:0|0:0,0:0:0:0:
320,156,8009,5,0,1:0:0:0:
320,156,8328,2,0,L|392:152,1,70,0|8,1:0|1:0,0:0:0:0:
476,120,8967,1,0,0:0:0:0:
476,120,9126,1,2,0:0:0:0:
452,220,9445,1,8,1:0:0:0:
452,220,9605,1,2,0:0:0:0:
392,64,9924,1,8,1:0:0:0:
52,164,10562,6,0,P|40:208|60:300,1,140,2|8,1:2|1:0,0:0:0:0:
59,298,12158,1,0,1:0:0:0:
200,372,12477,2,0,P|212:340|216:276,1,70,8|0,1:0|0:0,0:0:0:0:
244,200,13115,6,0,L|328:196,2,70,0|0|8,1:0|1:0|1:0,0:0:0:0:
152,236,14073,1,0,0:0:0:0:
152,236,14232,1,2,0:0:0:0:
217,304,14552,1,2,0:0:0:0:
217,304,14711,1,0,1:0:0:0:
59,298,15030,1,8,1:0:0:0:
217,304,15350,1,0,0:0:0:0:
368,352,15669,6,0,P|416:360|516:344,1,140,0|8,1:0|1:0,0:0:0:0:
505,347,17264,1,0,1:0:0:0:
468,184,17584,2,0,L|420:188,1,35,8|0,1:0|0:0,0:0:0:0:
400,272,17903,2,0,L|448:268,1,35,2|0,0:0|0:0,0:0:0:0:
348,200,18222,6,0,P|312:200|264:208,2,70,0|0|8,1:0|1:0|1:0,0:0:0:0:
468,184,19179,1,0,0:0:0:0:
468,184,19339,2,0,L|472:96,1,70,0|8,1:0|1:0,0:0:0:0:
476,72,19818,1,0,3:0:0:0:
352,64,19977,1,0,3:0:0:0:
228,60,20137,1,8,1:0:0:0:
228,60,20456,1,0,0:0:0:0:
52,280,20775,6,0,P|64:236|56:156,1,105,4|0,1:0|0:0,0:0:0:0:
56,88,21413,2,0,L|8:80,1,35,8|0,1:0|0:0,0:0:0:0:
148,196,21732,2,0,L|228:204,1,70,2|0,0:0|0:0,0:0:0:0:
316,212,22211,1,0,0:0:0:0:
316,212,22371,2,0,L|312:252,1,35,0|0,1:0|0:0,0:0:0:0:
209,306,22690,2,0,P|205:258|220:198,1,105,8|0,1:0|0:0,0:0:0:0:
276,124,23328,6,0,L|316:120,1,35,0|0,1:0|3:0,0:0:0:0:
204,52,23647,2,0,L|164:48,1,35,0|0,1:0|3:0,0:0:0:0:
300,32,23967,1,8,1:0:0:0:
300,32,24126,2,0,P|340:36|420:32,1,105,0|2,1:0|0:0,0:0:0:0:
400,252,24924,1,0,1:0:0:0:
192,128,25243,2,0,P|156:124|116:132,1,70,8|0,1:0|0:0,0:0:0:0:
48,228,25722,1,0,0:0:0:0:
48,228,25881,6,0,P|88:232|136:216,1,70,4|0,1:0|0:0,0:0:0:0:
212,220,26360,2,0,L|228:300,2,70,0|0|0,1:0|1:0|1:0,0:0:0:0:
136,308,27158,2,0,P|100:316|88:316,1,35,2|0,0:0|0:0,0:0:0:0:
232,320,27477,2,0,P|268:312|280:312,1,35,0|0,1:0|0:0,0:0:0:0:
128,208,27796,2,0,P|128:164|96:100,1,105,8|0,1:0|0:0,0:0:0:0:
220,24,28435,6,0,P|212:60|212:72,1,35,0|0,1:0|3:0,0:0:0:0:
288,136,28754,2,0,P|296:100|296:88,1,35,0|0,1:0|3:0,0:0:0:0:
204,140,29073,1,8,1:0:0:0:
300,68,29232,2,0,L|404:60,1,105,0|2,1:0|0:0,0:0:0:0:
440,152,29871,1,8,1:0:0:0:
476,244,30030,1,0,1:0:0:0:
476,244,30350,2,0,L|364:252,1,105,8|0,1:0|0:0,0:0:0:0:
348,284,30988,5,4,1:0:0:0:
212,244,31201,1,0,3:0:0:0:
304,356,31413,1,2,0:0:0:0:
304,356,31520,1,0,3:0:0:0:
304,356,31626,1,8,1:0:0:0:
212,332,31839,1,0,3:0:0:0:
296,208,32052,1,0,0:0:0:0:
176,248,32264,6,0,L|132:252,1,35,2|0,0:0|0:0,0:0:0:0:
84,168,32584,2,0,L|128:164,1,35,0|0,1:0|0:0,0:0:0:0:
220,152,32903,2,0,P|224:112|216:56,1,70,8|0,1:0|0:0,0:0:0:0:
221,82,33381,1,0,3:0:0:0:
296,208,33541,6,0,P|292:248|300:304,2,70,0|0|8,1:0|1:0|1:0,0:0:0:0:
328,136,34339,1,0,1:0:0:0:
400,164,34498,1,0,0:0:0:0:
372,236,34658,1,0,3:0:0:0:
328,136,34818,6,0,P|336:112|352:96,1,35,2|0,0:0|0:0,0:0:0:0:
480,188,35137,2,0,P|472:212|456:228,1,35,0|0,1:0|0:0,0:0:0:0:
341,335,35456,2,0,P|352:277|379:226,1,105,8|0,1:0|0:0,0:0:0:0:
440,84,36094,1,4,1:0:0:0:
440,84,36732,6,0,B|400:80|400:80|368:80|368:80|296:76,1,140,8|0,0:0|0:0,0:0:0:0:
300,76,37530,1,0,3:0:0:0:
300,76,37690,1,0,3:0:0:0:
148,72,38009,2,0,B|136:108|136:108|132:180,1,105,8|0,0:0|0:0,0:0:0:0:
120,268,38647,6,0,P|84:276|52:280,2,70,0|0|8,3:0|3:0|0:0,0:0:0:0:
200,328,39445,2,0,P|252:336|308:348,1,105
303,346,40084,1,0,3:0:0:0:
303,346,40243,1,0,3:0:0:0:
460,308,40562,1,0,0:0:0:0:
460,308,41201,6,0,P|488:248|460:136,1,181.999991668702,4|8,1:0|1:0,0:0:0:0:
228,68,42158,2,2,L|192:76,2,30.3333319447836
288,148,42477,2,0,P|320:152|352:164,1,45.4999979171754,2|0,0:0|0:0,0:0:0:0:
232,248,42796,2,0,P|200:244|168:232,1,45.4999979171754,0|0,1:0|0:0,0:0:0:0:
40,184,43115,2,0,L|32:72,1,90.9999958343508,8|2,1:0|0:0,0:0:0:0:
33,93,43594,1,2,0:0:0:0:
84,284,43754,6,0,L|88:340,1,45.4999979171754,0|0,1:0|0:0,0:0:0:0:
132,160,44073,2,0,L|128:104,1,45.4999979171754,0|0,1:0|0:0,0:0:0:0:
184,320,44392,2,0,L|188:376,2,45.4999979171754,8|2|0,1:0|0:0|0:0,0:0:0:0:
232,248,44871,2,0,L|284:228,1,45.4999979171754,2|0,0:0|0:0,0:0:0:0:
248,144,45190,1,2,0:0:0:0:
336,304,45350,2,0,L|292:316,1,45.4999979171754,0|0,1:0|0:0,0:0:0:0:
248,144,45669,2,0,P|232:84|232:44,2,90.9999958343508,8|4|4,1:0|0:0|1:0,0:0:0:0:
274,231,46467,6,0,L|342:235,1,45.4999979171754,2|0,0:0|0:0,0:0:0:0:
456,244,46786,1,2,0:0:0:0:
456,244,46945,2,0,P|456:292|444:336,1,90.9999958343508,8|0,1:0|0:0,0:0:0:0:
288,348,47424,1,2,0:0:0:0:
288,348,47584,2,0,L|216:352,1,45.4999979171754,2|0,0:0|0:0,0:0:0:0:
232,204,47903,2,0,L|304:208,1,45.4999979171754,0|0,1:0|0:0,0:0:0:0:
312,60,48222,2,0,L|212:64,1,90.9999958343508,8|0,1:0|0:0,0:0:0:0:
24,256,48860,6,0,L|16:208,1,45.4999979171754,0|0,1:0|3:0,0:0:0:0:
132,248,49179,2,0,L|124:308,1,45.4999979171754,0|0,1:0|3:0,0:0:0:0:
24,256,49498,1,8,1:0:0:0:
124,168,49658,1,0,1:0:0:0:
244,224,49818,2,0,P|296:228|344:232,1,90.9999958343508,2|0,0:0|0:0,0:0:0:0:
334,231,50296,1,8,1:0:0:0:
350,331,50456,1,0,1:0:0:0:
444,316,50615,1,0,3:0:0:0:
432,220,50775,2,0,P|428:172|400:108,1,90.9999958343508,8|4,1:0|0:0,0:0:0:0:
432,220,51254,1,2,0:0:0:0:
284,32,51413,6,0,P|288:80|316:144,1,90.9999958343508,4|0,1:0|0:0,0:0:0:0:
302,120,51892,1,0,0:0:0:0:
216,260,52052,2,0,P|212:212|184:148,1,90.9999958343508,8|0,1:0|0:0,0:0:0:0:
197,171,52530,1,2,0:0:0:0:
32,204,52690,2,0,L|76:212,1,45.4999979171754,2|0,0:0|0:0,0:0:0:0:
216,260,53009,2,0,L|172:252,1,45.4999979171754,0|0,1:0|0:0,0:0:0:0:
20,308,53328,2,0,L|132:332,1,90.9999958343508,8|0,1:0|0:0,0:0:0:0:
108,327,53807,1,2,0:0:0:0:
308,344,53967,6,0,P|312:320|312:280,1,45.4999979171754,0|0,1:0|0:0,0:0:0:0:
264,136,54286,2,0,P|260:160|260:200,1,45.4999979171754,0|0,1:0|0:0,0:0:0:0:
380,248,54605,2,0,L|392:196,2,45.4999979171754,8|0|0,1:0|0:0|0:0,0:0:0:0:
228,304,55084,2,0,L|220:248,1,45.4999979171754,2|0,0:0|0:0,0:0:0:0:
340,140,55403,1,2,0:0:0:0:
472,204,55562,2,0,P|464:260|448:320,2,90.9999958343508,0|8|4,1:0|1:0|0:0,0:0:0:0:
496,104,56360,1,0,0:0:0:0:
344,48,56520,6,0,B|260:27|244:68|161:48,1,181.999991668702,4|8,1:0|1:0,0:0:0:0:
56,40,57318,1,2,0:0:0:0:
163,48,57477,2,0,L|167:104,1,45.4999979171754,2|0,0:0|0:0,0:0:0:0:
72,172,57796,2,0,L|68:116,1,45.4999979171754,2|0,0:0|0:0,0:0:0:0:
192,180,58115,6,0,P|220:180|260:188,1,45.4999979171754,0|0,1:0|0:0,0:0:0:0:
116,264,58435,2,0,P|68:264|0:248,1,90.9999958343508,8|2,1:0|0:0,0:0:0:0:
25,256,59073,6,0,L|21:316,1,45.4999979171754,0|0,1:0|3:0,0:0:0:0:
196,340,59392,2,0,L|192:276,1,45.4999979171754,0|0,1:0|3:0,0:0:0:0:
360,272,59711,1,8,1:0:0:0:
360,272,59871,2,0,L|356:368,1,90.9999958343508,0|0,1:0|0:0,0:0:0:0:
280,220,60350,1,2,0:0:0:0:
368,180,60509,1,8,1:0:0:0:
444,236,60669,2,0,P|472:244|504:244,1,45.4999979171754,0|0,1:0|0:0,0:0:0:0:
404,100,60988,1,8,1:0:0:0:
404,100,61147,2,0,P|360:88|304:88,1,90.9999958343508,0|0,1:0|0:0,0:0:0:0:
92,60,61626,6,0,P|68:100|72:236,1,181.999991668702,4|8,1:0|1:0,0:0:0:0:
69,231,62584,2,0,L|129:239,1,45.4999979171754,2|0,0:0|0:0,0:0:0:0:
48,316,62903,2,0,L|-12:308,1,45.4999979171754,2|0,0:0|0:0,0:0:0:0:
144,332,63222,1,0,1:0:0:0:
204,252,63381,1,0,3:0:0:0:
240,344,63541,2,0,P|288:352|360:352,1,90.9999958343508,8|2,1:0|0:0,0:0:0:0:
348,216,64020,1,2,0:0:0:0:
348,216,64179,6,0,P|308:240|300:256,1,45.4999979171754,0|0,1:0|0:0,0:0:0:0:
448,324,64498,2,0,P|440:292|424:272,1,45.4999979171754,0|0,1:0|0:0,0:0:0:0:
436,184,64818,1,8,1:0:0:0:
356,124,64977,2,0,L|260:120,1,90.9999958343508,0|0,1:0|0:0,0:0:0:0:
80,140,65456,2,0,L|125:143,2,45.4999979171754,4|0|0,0:0|0:0|1:0,0:0:0:0:
236,228,65935,2,0,L|190:225,1,45.4999979171754,0|8,1:0|1:0,0:0:0:0:
100,280,66254,1,0,3:0:0:0:
232,368,66413,1,2,0:0:0:0:
232,368,66732,6,0,P|280:356|380:372,1,136.499993751526,4|0,1:0|0:0,0:0:0:0:
496,272,67371,2,0,P|472:264|412:256,1,45.4999979171754,8|0,1:0|0:0,0:0:0:0:
340,183,67690,1,2,0:0:0:0:
356,275,67850,1,2,0:0:0:0:
452,259,68009,1,2,0:0:0:0:
436,167,68169,1,0,3:0:0:0:
340,183,68328,2,0,P|316:191|256:199,1,45.4999979171754,0|0,1:0|0:0,0:0:0:0:
436,167,68647,2,0,P|448:112|448:71,1,90.9999958343508,8|2,1:0|0:0,0:0:0:0:
448,77,69126,1,2,0:0:0:0:
356,275,69286,6,0,P|344:323|344:343,1,45.4999979171754,0|0,1:0|0:0,0:0:0:0:
452,260,69605,2,0,P|500:272|520:272,1,45.4999979171754,0|0,1:0|0:0,0:0:0:0:
340,183,69924,1,8,1:0:0:0:
340,183,70084,2,0,P|280:191|252:192,1,45.4999979171754,0|0,1:0|0:0,0:0:0:0:
120,140,70403,2,0,L|224:124,1,90.9999958343508,0|8,1:0|1:0,0:0:0:0:
328,204,70881,2,0,P|268:212|240:213,1,45.4999979171754,0|0,1:0|0:0,0:0:0:0:
104,164,71201,2,0,L|208:148,1,90.9999958343508,8|4,1:0|0:0,0:0:0:0:
193,150,71679,1,2,0:0:0:0:
168,284,71839,6,0,P|172:312|172:332,1,45.4999979171754,4|0,1:0|0:0,0:0:0:0:
32,256,72158,2,0,P|28:232|28:208,1,45.4999979171754,4|0,0:0|0:0,0:0:0:0:
76,56,72477,2,0,L|188:52,1,90.9999958343508,8|2,1:0|0:0,0:0:0:0:
264,84,72956,1,2,0:0:0:0:
188,160,73115,1,2,0:0:0:0:
166,52,73275,1,0,3:0:0:0:
264,84,73435,2,0,L|328:88,1,45.4999979171754,0|0,1:0|0:0,0:0:0:0:
188,160,73754,2,0,L|88:164,1,90.9999958343508,8|2,1:0|0:0,0:0:0:0:
97,163,74232,1,2,0:0:0:0:
192,244,74392,6,0,L|216:284,1,45.4999979171754,0|0,1:0|0:0,0:0:0:0:
328,200,74711,2,0,L|244:212,1,45.4999979171754,0|0,1:0|0:0,0:0:0:0:
208,368,75030,1,8,1:0:0:0:
208,368,75190,2,0,L|328:356,1,90.9999958343508,0|2,1:0|0:0,0:0:0:0:
432,276,75669,1,2,0:0:0:0:
328,280,75828,1,0,3:0:0:0:
432,276,75988,2,0,P|432:251|428:212,1,45.4999979171754,0|0,1:0|0:0,0:0:0:0:
328,109,76307,2,0,P|323:158|332:217,2,90.9999958343508,8|0|4,1:0|1:0|1:0,0:0:0:0:
372,20,77105,5,2,0:0:0:0:
460,56,77264,1,0,3:0:0:0:
420,144,77424,1,0,1:0:0:0:
328,109,77584,2,0,P|284:105|232:105,1,90.9999958343508,8|2,1:0|0:0,0:0:0:0:
144,48,78062,1,2,0:0:0:0:
140,180,78222,2,0,L|208:180,1,45.4999979171754,0|0,3:0|0:0,0:0:0:0:
352,208,78541,2,0,L|296:212,1,45.4999979171754,0|0,1:0|0:0,0:0:0:0:
140,268,78860,2,0,L|204:264,1,45.4999979171754,8|0,1:0|0:0,0:0:0:0:
368,356,79179,5,2,0:0:0:0:
256,348,79339,1,2,0:0:0:0:
144,356,79498,1,0,1:0:0:0:
368,356,79818,5,0,1:0:0:0:
256,348,79977,1,0,3:0:0:0:
144,356,80137,1,8,1:0:0:0:
52,288,80296,2,0,P|48:244|52:188,1,90.9999958343508,0|2,1:0|0:0,0:0:0:0:
185,180,80775,1,2,0:0:0:0:
244,88,80935,1,8,1:0:0:0:
244,88,81094,2,0,L|300:88,1,45.4999979171754,0|0,1:0|0:0,0:0:0:0:
136,92,81413,2,0,P|72:96|-8:84,1,136.499993751526,8|0,1:0|0:0,0:0:0:0:
50,197,82052,6,0,P|46:245|54:337,1,140,4|8,1:0|1:0,0:0:0:0:
168,384,83009,1,2,0:0:0:0:
200,256,83328,2,0,P|236:252|272:252,1,70,2|0,0:0|1:0,0:0:0:0:
428,320,83967,2,0,P|392:324|356:324,1,70,8|2,1:0|0:0,0:0:0:0:
232,160,84605,6,0,L|272:164,1,35,0|0,1:0|0:0,0:0:0:0:
380,228,84924,2,0,L|340:224,1,35,0|0,1:0|0:0,0:0:0:0:
200,256,85243,2,0,P|152:252|108:252,1,70,8|0,1:0|0:0,0:0:0:0:
130,251,85722,1,0,0:0:0:0:
130,251,85881,1,2,0:0:0:0:
36,136,86201,1,0,1:0:0:0:
184,56,86520,2,0,P|236:60|316:56,1,105,8|0,1:0|0:0,0:0:0:0:
440,52,87158,6,0,P|456:104|452:204,1,140,4|8,1:0|1:0,0:0:0:0:
448,324,88115,1,2,0:0:0:0:
448,324,88275,1,0,0:0:0:0:
448,324,88435,2,0,P|404:312|380:292,1,70,2|0,0:0|1:0,0:0:0:0:
284,176,89073,2,0,P|295:220|290:250,1,70,8|2,1:0|0:0,0:0:0:0:
284,352,89711,6,0,L|236:360,1,35,0|0,1:0|0:0,0:0:0:0:
160,276,90030,2,0,L|208:268,1,35,0|0,1:0|0:0,0:0:0:0:
292,243,90350,1,8,1:0:0:0:
144,176,90669,1,2,0:0:0:0:
112,180,90828,1,0,3:0:0:0:
80,184,90988,2,0,L|72:232,1,35,2|8,0:0|1:0,0:0:0:0:
8,320,91307,2,0,L|16:272,1,35,0|0,1:0|0:0,0:0:0:0:
36,112,91626,1,8,1:0:0:0:
36,112,91945,1,2,0:0:0:0:
160,276,92264,6,0,P|224:264|304:276,1,140,4|8,1:0|1:0,0:0:0:0:
424,332,93222,1,2,0:0:0:0:
500,176,93541,1,2,0:0:0:0:
392,212,93860,2,0,L|344:216,1,35,0|0,1:0|0:0,1:0:0:0:
404,48,94179,2,0,L|420:136,1,70,8|0,1:0|0:0,0:0:0:0:
264,64,94818,6,0,L|252:16,1,35,0|0,1:0|0:0,0:0:0:0:
196,128,95137,2,0,L|208:176,1,35,0|0,1:0|0:0,0:0:0:0:
112,80,95456,2,0,P|68:76|28:80,1,70,8|0,1:0|0:0,0:0:0:0:
42,77,96094,1,2,0:0:0:0:
16,200,96413,1,0,1:0:0:0:
200,260,96732,1,8,1:0:0:0:
280,360,97052,1,2,0:0:0:0:
324,232,97371,6,0,P|332:188|328:88,1,140,4|8,1:0|1:0,0:0:0:0:
328,93,98647,1,2,0:0:0:0:
416,176,98967,1,0,1:0:0:0:
224,160,99286,2,0,P|220:120|224:72,1,70,8|2,1:0|0:0,0:0:0:0:
328,93,99924,6,0,L|372:97,1,35,0|0,1:0|0:0,0:0:0:0:
224,160,100243,2,0,L|180:164,1,35,0|0,1:0|0:0,0:0:0:0:
76,168,100562,2,0,P|84:208|64:316,1,140,8|0,1:0|0:0,0:0:0:0:
69,304,101360,1,8,1:0:0:0:
69,304,101520,1,0,1:0:0:0:
196,348,101839,1,8,1:0:0:0:
320,384,102158,1,0,3:0:0:0:
448,212,102475,6,0,B|480:168|480:168|476:112|448:36,1,186.666666666667,4|0,1:0|0:0,0:0:0:0:
197,175,103412,2,0,B|165:219|165:219|169:275|197:351,1,186.666666666667,0|0,1:0|0:0,0:0:0:0:
312,216,104350,2,0,B|332:148|292:108|320:28,1,186.666666666667,0|0,1:0|0:0,0:0:0:0:
318,31,105287,6,0,L|402:39,1,46.6666666666667,12|0,1:0|0:0,0:0:0:0:
192,116,105600,2,0,L|108:108,1,46.6666666666667,12|0,1:0|0:0,0:0:0:0:
408,184,105912,2,0,L|492:192,1,46.6666666666667,12|0,1:0|0:0,0:0:0:0:
320,336,106225,5,0,1:0:0:0:
320,336,106381,2,0,P|264:328|208:344,1,93.3333333333333,0|0,1:0|0:0,0:0:0:0:
136,364,106850,1,2,0:0:0:0:
20,244,107162,1,4,1:0:0:0:
80,88,107475,1,0,1:0:0:0:
200,200,107787,1,2,0:0:0:0:
20,244,108100,5,4,1:0:0:0:
20,244,108256,2,0,P|20:192|44:148,1,93.3333333333333,0|0,1:0|0:0,0:0:0:0:
80,88,108725,2,0,P|72:116|56:140,1,46.6666666666667,2|0,0:0|0:0,0:0:0:0:
108,300,109037,6,0,P|116:272|132:248,1,46.6666666666667,12|0,1:0|0:0,0:0:0:0:
200,44,109350,2,0,P|192:72|176:96,1,46.6666666666667,12|0,1:0|0:0,0:0:0:0:
232,304,109662,2,0,P|240:276|256:252,1,46.6666666666667,12|0,1:0|0:0,0:0:0:0:
312,88,109975,5,0,1:0:0:0:
464,52,110131,2,0,P|480:104|472:212,1,140,0|2,1:0|0:0,0:0:0:0:
248,260,110912,2,0,L|304:264,1,46.6666666666667,0|0,1:0|0:0,0:0:0:0:
400,348,111225,2,0,B|348:344|348:344|268:376,1,93.3333333333333,0|2,1:0|0:0,0:0:0:0:
60,376,111850,5,0,1:0:0:0:
60,376,112006,2,0,B|48:328|48:328|72:240,1,140,0|2,1:0|0:0,0:0:0:0:
200,48,112787,5,4,1:0:0:0:
200,48,112943,1,0,3:0:0:0:
304,92,113100,1,0,1:0:0:0:
304,92,113256,1,0,3:0:0:0:
168,140,113412,1,0,1:0:0:0:
168,140,113568,1,0,3:0:0:0:
304,92,113725,5,4,1:0:0:0:
304,92,113881,2,0,P|320:152|316:236,1,140,0|2,1:0|0:0,0:0:0:0:
16,176,114662,2,0,P|0:116|4:32,1,140,4|0,1:0|0:0,0:0:0:0:
2,38,115287,1,0,1:0:0:0:
317,229,115600,6,2,B|281:269|281:269|137:269,1,186.666666666667,4|2,1:0|0:0,1:0:0:0:
148,269,116537,2,0,L|72:268,1,46.6666666666667,4|0,1:0|0:0,0:0:0:0:
20,376,116850,2,0,L|58:310,1,46.6666666666667,0|0,1:0|0:0,0:0:0:0:
0,208,117162,2,0,L|37:274,1,46.6666666666667,0|0,1:0|0:0,0:0:0:0:
164,360,117475,6,0,L|232:356,1,46.6666666666667,4|0,1:0|3:0,0:0:0:0:
328,312,117787,2,0,L|272:300,1,46.6666666666667,0|0,1:0|3:0,0:0:0:0:
168,228,118100,2,0,L|236:220,1,46.6666666666667,0|0,1:0|3:0,0:0:0:0:
512,216,118412,6,0,L|454:265,1,46.6666666666667,0|0,1:0|0:0,0:0:0:0:
437,357,118725,2,0,L|422:282,1,46.6666666666667,2|0,1:2|0:0,0:0:0:0:
345,216,119037,2,0,L|416:242,1,46.6666666666667,2|0,1:2|0:0,0:0:0:0:
168,228,119350,6,0,L|236:224,1,46.6666666666667,0|0,1:0|3:0,0:0:0:0:
300,148,119662,2,0,L|244:136,1,46.6666666666667,0|0,1:0|3:0,0:0:0:0:
180,60,119975,2,0,L|248:52,1,46.6666666666667,0|0,1:0|3:0,0:0:0:0:
0,140,120287,6,0,L|57:189,1,46.6666666666667,0|0,1:0|3:0,0:0:0:0:
75,281,120600,2,0,L|89:206,1,46.6666666666667,2|0,1:2|3:0,0:0:0:0:
167,140,120912,2,0,L|95:166,1,46.6666666666667,2|0,1:2|3:0,0:0:0:0:
320,204,121225,6,0,L|368:188,1,46.6666666666667,4|0,1:0|3:0,0:0:0:0:
160,44,121537,2,0,L|88:32,1,46.6666666666667,0|0,1:0|3:0,0:0:0:0:
320,68,121850,2,0,L|376:64,1,46.6666666666667,0|0,1:0|3:0,3:0:0:0:
167,140,122162,2,0,L|108:160,1,46.6666666666667,12|0,1:0|3:0,0:0:0:0:
320,204,122475,2,0,L|379:184,1,46.6666666666667,0|0,1:0|3:0,0:0:0:0:
160,276,122787,2,0,L|104:272,1,46.6666666666667,0|0,1:0|3:0,0:0:0:0:
200,364,123100,5,4,1:0:0:0:
344,304,123412,1,8,1:0:0:0:
492,380,123725,1,8,1:0:0:0:
464,148,124037,1,4,1:0:0:0:
464,148,124975,6,0,L|384:136,1,46.6666666666667,4|0,1:0|0:0,0:0:0:0:
268,292,125287,2,0,L|212:296,1,46.6666666666667,8|0,1:0|0:0,0:0:0:0:
56,152,125600,1,8,1:0:0:0:
428,304,125912,6,0,L|400:260,1,46.6666666666667,4|0,1:0|0:0,0:0:0:0:
256,88,126225,2,8,L|228:132,1,46.6666666666667,8|0,1:0|0:0,1:0:0:0:
108,316,126537,1,8,1:0:0:0:
464,148,126850,6,0,L|460:80,1,46.6666666666667,4|0,1:0|0:0,0:0:0:0:
248,272,127162,2,0,L|252:340,1,46.6666666666667,8|0,1:0|0:0,0:0:0:0:
432,352,127475,2,0,L|428:284,1,46.6666666666667,8|0,1:0|0:0,0:0:0:0:
256,88,127787,2,0,P|196:92|84:84,1,140,4|0,1:0|0:0,0:0:0:0:
40,224,128727,6,0,P|32:260|36:312,1,83.9999974365235,4|0,1:0|1:0,0:0:0:0:
120,372,129037,1,0,3:0:0:0:
136,344,129140,2,0,L|144:276,1,41.9999987182618,8|0,1:0|0:0,0:0:0:0:
236,236,129347,2,0,L|240:277,1,41.9999987182618,0|0,1:0|0:0,0:0:0:0:
316,356,129554,1,0,1:0:0:0:
348,364,129658,1,8,1:0:0:0:
380,372,129761,1,0,1:0:0:0:
492,196,129968,1,8,1:0:0:0:
372,176,130175,1,0,1:0:0:0:
416,280,130382,6,0,P|464:300|508:300,1,83.9999974365235,4|0,1:0|1:0,0:0:0:0:
495,301,130692,1,0,3:0:0:0:
495,301,130795,1,8,1:0:0:0:
372,176,131002,2,0,P|324:156|280:156,1,83.9999974365235,0|0,1:0|1:0,0:0:0:0:
260,164,131313,1,8,1:0:0:0:
228,176,131416,1,0,1:0:0:0:
260,296,131623,1,8,1:0:0:0:
136,268,131830,1,0,1:0:0:0:
12,244,132037,6,0,P|8:192|8:144,1,83.9999974365235,4|0,1:0|1:0,0:0:0:0:
8,128,132347,1,0,3:0:0:0:
8,96,132451,1,8,1:0:0:0:
120,28,132658,1,0,1:0:0:0:
252,60,132864,1,0,3:0:0:0:
272,64,132968,1,8,1:0:0:0:
292,64,133071,1,0,1:0:0:0:
312,68,133175,1,0,3:0:0:0:
332,72,133278,2,0,L|392:84,1,41.9999987182618,8|0,1:0|0:0,0:0:0:0:
272,160,133485,2,0,L|212:148,1,41.9999987182618,0|0,1:0|0:0,0:0:0:0:
124,132,133692,6,0,P|124:176|132:236,1,83.9999974365235,4|0,1:0|1:0,0:0:0:0:
132,248,134002,1,0,3:0:0:0:
136,280,134106,1,8,1:0:0:0:
232,368,134313,1,0,1:0:0:0:
232,336,134416,2,0,P|232:292|224:232,1,83.9999974365235,0|8,1:0|1:0,0:0:0:0:
272,160,134727,1,0,0:0:0:0:
344,236,134933,1,8,1:0:0:0:
376,240,135037,1,0,3:0:0:0:
408,248,135140,1,0,1:0:0:0:
448,372,135347,6,0,P|400:368|360:356,1,83.9999974365235,4|0,1:0|1:0,0:0:0:0:
428,144,135761,2,0,P|476:148|516:160,1,83.9999974365235,8|0,1:0|1:0,0:0:0:0:
272,160,136175,1,0,1:0:0:0:
272,160,136278,1,8,1:0:0:0:
272,160,136382,2,0,P|264:108|272:60,1,83.9999974365235,0|8,1:0|1:0,0:0:0:0:
356,24,136795,1,0,1:0:0:0:
168,192,137002,6,0,L|164:140,1,41.9999987182618,0|0,1:0|0:0,0:0:0:0:
68,72,137209,2,0,L|60:136,1,41.9999987182618,0|0,1:0|0:0,0:0:0:0:
40,264,137416,2,0,P|88:272|128:268,1,83.9999974365235,8|0,1:0|1:0,0:0:0:0:
216,352,137830,1,0,1:0:0:0:
248,356,137933,1,8,1:0:0:0:
280,360,138037,1,0,1:0:0:0:
220,256,138244,1,8,1:0:0:0:
124,360,138451,1,0,1:0:0:0:
344,276,138658,6,0,P|356:228|352:172,1,83.9999974365235,4|0,1:0|1:0,0:0:0:0:
355,193,138968,1,0,3:0:0:0:
355,193,139071,1,8,1:0:0:0:
264,40,139278,2,0,P|252:88|256:144,1,83.9999974365235,0|0,1:0|1:0,0:0:0:0:
252,122,139589,1,8,1:0:0:0:
252,122,139692,1,0,1:0:0:0:
116,308,139899,6,0,P|128:260|124:204,1,83.9999974365235,8|0,1:0|1:0,0:0:0:0:
172,120,140313,1,0,1:0:0:0:
172,120,140416,1,0,3:0:0:0:
172,120,140520,1,0,1:0:0:0:
64,72,140727,1,8,1:0:0:0:
20,178,140933,1,0,1:0:0:0:
260,212,141140,5,0,1:0:0:0:
240,216,141244,1,8,1:0:0:0:
220,220,141347,1,0,1:0:0:0:
48,300,141554,1,8,1:0:0:0:
172,308,141761,1,0,1:0:0:0:
64,72,141968,1,4,1:0:0:0:
64,72,142382,6,2,P|120:68|168:80,1,105.000004005432,8|0,1:0|1:0,1:0:0:0:
196,88,142692,1,0,3:0:0:0:
232,104,142795,2,0,P|264:100|308:104,1,52.5000020027161,2|0,1:0|0:0,0:0:0:0:
140,200,143002,2,0,P|104:212|64:208,1,52.5000020027161,0|0,1:0|0:0,0:0:0:0:
264,240,143209,2,2,P|324:260|388:260,1,105.000004005432,8|0,1:0|0:0,1:0:0:0:
464,216,143520,1,0,3:0:0:0:
476,192,143623,6,2,L|496:84,1,105.000004005432,0|0,1:0|3:0,1:0:0:0:
388,140,143933,2,2,L|368:244,1,105.000004005432,0|0,1:0|0:0,1:0:0:0:
416,336,144244,1,0,1:0:0:0:
416,336,144347,1,0,3:0:0:0:
416,336,144451,2,0,L|496:344,1,52.5000020027161,0|0,1:0|0:0,0:0:0:0:
264,240,144658,2,0,L|184:232,1,52.5000020027161,0|0,1:0|0:0,0:0:0:0:
72,332,144864,1,8,1:0:0:0:
48,112,145071,1,0,1:0:0:0:
48,112,145175,1,0,3:0:0:0:
48,112,145278,6,0,P|108:104|168:104,1,105.000004005432,4|0,1:0|1:0,0:0:0:0:
180,112,145589,1,0,3:0:0:0:
204,120,145692,1,8,1:0:0:0:
388,72,145899,1,0,1:0:0:0:
364,68,146002,1,0,3:0:0:0:
340,60,146106,2,0,L|304:120,1,52.5000020027161,0|0,1:0|0:0,0:0:0:0:
144,192,146313,2,0,L|172:244,1,52.5000020027161,0|0,1:0|0:0,0:0:0:0:
320,212,146520,2,0,L|300:268,1,52.5000020027161,8|0,1:0|0:0,0:0:0:0:
232,352,146727,1,0,1:0:0:0:
232,352,146830,1,0,1:0:0:0:
232,352,146933,6,0,P|168:340|104:344,1,105.000004005432,4|0,1:0|1:0,0:0:0:0:
52,248,147347,1,8,1:0:0:0:
44,232,147451,1,0,3:0:0:0:
36,220,147554,2,0,P|20:168|48:88,1,105.000004005432,0|0,1:0|1:0,0:0:0:0:
28,119,147864,1,0,3:0:0:0:
28,119,147968,1,0,1:0:0:0:
168,24,148175,2,0,P|184:76|156:156,1,105.000004005432,8|0,1:0|3:0,0:0:0:0:
296,284,148589,6,0,P|292:216|324:120,1,157.500006008148,4|0,1:0|0:0,0:0:0:0:
317,131,149002,2,0,L|437:107,1,105.000004005432,8|0,1:0|1:0,0:0:0:0:
436,108,149313,1,0,3:0:0:0:
452,104,149416,1,0,1:0:0:0:
204,16,149623,1,0,1:0:0:0:
184,20,149727,1,0,3:0:0:0:
168,24,149830,2,0,L|48:48,1,105.000004005432,8|0,1:0|1:0,0:0:0:0:
40,184,150140,6,0,P|28:236|36:312,1,105.000004005432,4|0,1:0|3:0,0:0:0:0:
144,200,150451,2,0,P|152:160|144:132,1,52.5000020027161,0|0,1:0|0:0,0:0:0:0:
116,288,150658,1,8,1:0:0:0:
132,296,150761,2,0,L|260:308,1,105.000004005432,0|0,1:0|0:0,0:0:0:0:
328,344,151071,1,0,1:0:0:0:
348,352,151175,1,0,3:0:0:0:
368,360,151278,1,0,1:0:0:0:
476,240,151485,2,0,P|484:180|480:128,1,105.000004005432,8|0,1:0|1:0,0:0:0:0:
373,255,151795,6,0,P|365:315|369:367,1,105.000004005432,4|0,1:0|3:0,0:0:0:0:
248,344,152106,2,0,L|184:348,1,52.5000020027161,0|0,1:0|0:0,0:0:0:0:
152,216,152313,1,8,1:0:0:0:
152,216,152416,1,0,3:0:0:0:
152,216,152520,2,0,L|212:220,1,52.5000020027161,0|0,1:0|0:0,0:0:0:0:
264,80,152727,6,0,L|208:84,1,52.5000020027161,0|0,1:0|0:0,0:0:0:0:
80,100,152933,1,0,1:0:0:0:
80,100,153037,2,0,P|60:164|60:224,1,105.000004005432,0|0,1:0|3:0,0:0:0:0:
44,296,153347,1,4,1:0:0:0:
232,208,153554,6,0,L|316:208,1,52.5000020027161,4|0,1:0|3:0,0:0:0:0:
264,80,153761,2,0,L|180:80,1,52.5000020027161,0|0,1:0|3:0,0:0:0:0:
352,148,153968,6,0,L|436:148,1,52.5000020027161,8|0,1:0|3:0,0:0:0:0:
424,268,154175,2,0,L|340:268,1,52.5000020027161,0|0,1:0|3:0,0:0:0:0:
256,380,154382,1,0,1:0:0:0:
256,368,154485,1,0,3:0:0:0:
256,356,154589,1,0,1:0:0:0:
256,344,154692,1,0,3:0:0:0:
256,332,154795,1,8,1:0:0:0:
256,320,154899,1,0,3:0:0:0:
256,308,155002,1,0,1:0:0:0:
256,296,155106,1,0,3:0:0:0:
256,288,155203,5,4,1:0:0:0:
364,104,158403,6,0,P|372:152|372:184,1,70,4|0,1:0|0:0,0:0:0:0:
468,260,158803,1,8,1:0:0:0:
304,296,159003,2,0,P|268:304|156:288,1,140,0|0,1:0|1:0,0:0:0:0:
64,200,159603,2,0,P|112:188|144:188,1,70,8|0,1:0|0:0,0:0:0:0:
156,188,159903,1,0,3:0:0:0:
176,188,160003,6,0,P|168:148|172:112,1,70,0|0,1:0|0:0,0:0:0:0:
232,32,160403,1,8,1:0:0:0:
298,227,160603,2,0,P|306:267|302:303,1,70,0|0,1:0|0:0,0:0:0:0:
116,344,161003,2,0,P|156:328|202:320,1,70,0|8,1:0|1:0,0:0:0:0:
404,364,161403,1,0,3:0:0:0:
464,244,161603,6,0,L|472:168,1,70,4|0,1:0|0:0,0:0:0:0:
360,56,162003,2,0,L|212:64,2,140,8|4|8,1:0|0:0|1:0,0:0:0:0:
284,168,163003,1,2,0:0:0:0:
268,176,163103,1,0,3:0:0:0:
252,184,163203,2,0,L|156:192,1,70,0|0,1:0|0:0,0:0:0:0:
80,160,163603,1,8,1:0:0:0:
360,56,163803,2,0,P|372:112|376:200,1,140,0|0,1:0|1:0,0:0:0:0:
464,252,164403,1,8,1:0:0:0:
412,340,164603,1,0,1:0:0:0:
316,292,164803,6,0,P|280:292|228:304,1,70,4|0,1:0|0:0,0:0:0:0:
152,312,165203,1,8,1:0:0:0:
56,324,165403,1,0,1:0:0:0:
76,90,165603,2,0,P|76:146|88:182,1,70,0|0,1:0|0:0,0:0:0:0:
208,232,166003,2,0,P|208:176|196:140,1,70,8|0,1:0|3:0,0:0:0:0:
200,136,166303,1,0,3:0:0:0:
196,116,166403,6,0,P|188:80|192:24,1,70,0|0,1:0|0:0,0:0:0:0:
84,192,166803,1,8,1:0:0:0:
308,252,167003,2,0,P|380:256|460:240,1,140,0|0,1:0|1:0,0:0:0:0:
472,120,167603,2,0,L|488:40,1,70,8|0,1:0|0:0,0:0:0:0:
269,133,168003,6,0,P|221:133|173:141,1,70,4|0,1:0|0:0,0:0:0:0:
176,260,168403,1,8,1:0:0:0:
80,188,168603,2,0,P|56:140|60:48,1,140,0|0,1:0|1:0,0:0:0:0:
176,260,169203,2,0,P|192:304|188:344,1,70,8|0,1:0|3:0,0:0:0:0:
191,326,169503,1,0,3:0:0:0:
191,326,169603,5,0,1:0:0:0:
10,194,169803,2,0,L|80:187,1,70,0|8,1:0|1:0,0:0:0:0:
296,36,170203,2,0,L|144:52,1,140,0|0,1:0|1:0,0:0:0:0:
44,64,170803,1,8,1:0:0:0:
156,50,171003,1,0,1:0:0:0:
384,184,171203,5,4,1:2:0:0:
208,204,171403,1,0,1:0:0:0:
384,184,171603,2,0,B|392:236|392:236|384:264|384:264|392:328,1,140,12|0,1:0|3:0,0:0:0:0:
296,208,172203,2,0,B|288:156|288:156|296:128|296:128|288:64,1,140,12|0,1:0|3:0,0:0:0:0:
503,270,172803,2,0,B|482:305|450:329|450:329|404:328|390:321,1,140,12|0,1:0|3:0,0:0:0:0:
187,347,173403,2,0,P|251:335|263:335,1,70,0|8,1:0|1:0,0:0:0:0:
391,321,173803,1,0,1:0:0:0:
255,334,174003,1,0,1:0:0:0:
248,200,174203,1,8,1:0:0:0:
383,186,174403,6,0,L|472:192,1,70,4|0,1:2|3:0,0:0:0:0:
129,198,174803,2,0,B|117:142|133:122|133:122|121:54,1,140,12|0,1:0|3:0,0:0:0:0:
383,186,175403,2,0,B|395:242|379:262|379:262|391:330,1,140,12|0,1:0|3:0,0:0:0:0:
53,359,176003,2,0,B|113:319|189:347,1,140,12|0,1:0|0:0,0:0:0:0:
186,346,176578,5,0,1:0:0:0:
204,332,176679,1,8,3:0:0:0:
208,312,176780,1,0,3:0:0:0:
204,292,176882,1,8,3:0:0:0:
192,276,176983,1,0,1:0:0:0:
176,264,177084,1,4,3:0:0:0:
156,256,177186,1,8,1:0:0:0:
140,240,177287,1,0,1:0:0:0:
132,220,177388,1,0,3:0:0:0:
128,200,177490,1,0,3:0:0:0:
132,188,177571,5,4,1:0:0:0:
284,68,177770,1,0,3:0:0:0:
384,200,177970,2,0,P|348:212|296:204,1,70,0|0,1:0|0:0,0:0:0:0:
149,76,178369,2,0,P|189:60|285:68,1,140,12|0,1:0|0:0,0:0:0:0:
384,200,178969,1,0,1:0:0:0:
448,344,179168,1,4,1:0:0:0:
448,344,179568,5,4,0:0:0:0:
296,352,179768,1,4,1:0:0:0:
384,200,179967,2,0,L|516:196,2,112,12|0|4,1:0|1:0|1:0,0:0:0:0:
268,208,180966,5,0,3:0:0:0:
160,216,181166,2,0,L|76:220,1,70,0|0,1:0|0:0,0:0:0:0:
260,71,181565,2,0,P|272:107|264:219,1,140,12|0,1:0|0:0,0:0:0:0:
160,120,182164,1,0,1:0:0:0:
364,100,182364,6,0,L|456:92,1,70,4|0,1:0|0:0,0:0:0:0:
304,304,182764,2,0,L|212:296,1,70,0|0,1:0|3:0,0:0:0:0:
40,288,183163,2,0,P|28:252|36:140,1,140,12|4,1:0|0:0,0:0:0:0:
32,151,183762,1,0,3:0:0:0:
32,151,183862,1,0,3:0:0:0:
32,151,183962,5,4,1:0:0:0:
160,128,184162,1,0,3:0:0:0:
232,232,184361,1,0,1:0:0:0:
160,328,184561,1,0,3:0:0:0:
40,288,184761,5,12,1:0:0:0:
160,128,184961,2,0,P|212:120|312:140,1,140,0|0,1:0|1:0,0:0:0:0:
305,142,185460,1,0,1:0:0:0:
305,142,185560,2,0,L|392:120,1,70,4|0,1:0|0:0,0:0:0:0:
112,40,185959,2,0,L|25:62,1,70,4|0,0:0|1:0,0:0:0:0:
232,232,186359,2,0,P|280:244|348:228,2,112,12|0|4,1:0|1:0|1:0,0:0:0:0:
32,151,187357,5,0,1:0:0:0:
160,328,187557,1,0,1:0:0:0:
40,288,187757,1,2,0:0:0:0:
160,128,187957,2,0,P|202:125|233:137,1,70,12|0,1:0|1:0,0:0:0:0:
348,348,188356,2,0,P|306:351|275:339,1,70,4|0,0:0|1:0,0:0:0:0:
480,128,188756,6,0,P|492:172|480:268,1,140,4|0,1:0|0:0,0:0:0:0:
360,164,189355,1,0,1:0:0:0:
360,164,189455,1,0,3:0:0:0:
360,164,189555,1,12,1:0:0:0:
328,40,189754,1,2,0:0:0:0:
448,16,189954,1,0,1:0:0:0:
480,128,190154,1,0,1:0:0:0:
227,134,190353,6,0,L|143:130,1,70,4|0,1:0|0:0,0:0:0:0:
292,264,190753,2,0,L|448:272,1,140,0|12,1:0|1:0,0:0:0:0:
431,271,191352,1,2,0:0:0:0:
227,134,191552,2,0,P|211:178|211:218,1,70,0|0,1:0|3:0,0:0:0:0:
128,344,191951,2,0,P|128:296|120:268,1,70,4|0,1:0|0:0,0:0:0:0:
24,192,192351,2,0,P|20:244|28:280,1,70,4|0,0:0|1:0,0:0:0:0:
140,92,192750,2,0,L|0:88,2,140,12|0|4,1:0|1:0|1:0,0:0:0:0:
328,100,193749,5,2,1:2:0:0:
140,92,193949,1,2,1:2:0:0:
328,100,194148,1,2,1:2:0:0:
240,228,194348,2,0,P|228:192|224:152,1,70,12|2,1:0|3:2,0:0:0:0:
384,208,194748,2,0,P|396:244|400:284,1,70,0|2,1:0|3:2,0:0:0:0:
192,360,195147,2,0,P|236:344|328:352,1,140,4|0,1:0|0:0,0:0:0:0:
464,356,195746,1,2,1:2:0:0:
464,356,195846,1,2,3:2:0:0:
464,356,195946,1,12,1:0:0:0:
453,215,196146,2,0,L|364:205,2,70,0|0|2,3:0|0:0|0:0,0:0:0:0:
240,228,196745,6,0,P|196:236|156:232,1,70,4|2,0:0|0:0,0:0:0:0:
72,232,197144,1,2,0:0:0:0:
48,140,197344,1,2,0:0:0:0:
48,140,197544,2,0,P|120:124|196:132,1,140,8|0,0:0|0:0,0:0:0:0:
248,52,198143,1,2,0:0:0:0:
326,102,198343,2,0,P|396:107|464:92,2,140,4|0|8,0:0|1:0|0:0,0:0:0:0:
248,52,199341,1,2,0:0:0:0:
185,129,199541,1,10,0:0:0:0:
268,188,199741,1,8,0:0:0:0:
248,52,199941,6,0,P|204:44|168:48,1,70,4|0,1:0|0:0,0:0:0:0:
108,228,200340,2,0,P|152:236|188:232,1,70,8|8,1:0|1:0,0:0:0:0:
368,224,200740,2,0,P|372:264|368:368,1,140,4|8,0:0|1:0,0:0:0:0:
204,360,201339,1,2,0:0:0:0:
204,360,201539,6,0,P|164:364|120:372,1,70,0|0,1:0|3:0,0:0:0:0:
44,372,201938,1,8,1:0:0:0:
176,234,202138,2,0,P|183:196|204:144,1,70,8|0,1:0|0:0,0:0:0:0:
193,166,202537,1,0,1:0:0:0:
96,200,202737,1,8,1:0:0:0:
264,244,202937,1,0,1:0:0:0:
80,104,203136,6,0,P|80:136|92:176,1,70,4|0,1:0|3:0,0:0:0:0:
284,212,203536,2,8,P|300:180|308:144,1,70,8|8,1:0|1:0,1:0:0:0:
222,31,203935,2,0,P|202:75|194:179,1,140,0|8,1:0|1:0,0:0:0:0:
408,284,204535,2,0,P|404:244|388:204,2,70,0|0|0,1:0|1:0|3:0,0:0:0:0:
200,348,205134,2,8,P|248:328|284:328,1,70,8|8,1:0|1:0,1:0:0:0:
460,236,205533,2,0,P|412:236|340:220,1,105,0|0,1:0|0:0,0:0:0:0:
324,212,205933,1,8,1:0:0:0:
193,165,206132,1,4,0:0:0:0:
72,244,206332,6,0,P|64:288|64:328,1,70,4|0,1:0|0:0,0:0:0:0:
193,165,206732,2,8,P|201:121|201:81,1,70,8|8,1:0|1:0,1:0:0:0:
63,313,207131,2,0,P|120:320|208:304,1,140,0|8,1:0|1:0,0:0:0:0:
72,100,207730,2,0,L|56:180,1,70,0|0,1:0|3:0,0:0:0:0:
58,168,208130,1,0,1:0:0:0:
271,105,208329,2,8,L|183:93,1,70,8|8,1:0|1:0,1:0:0:0:
300,240,208729,2,0,L|448:260,1,140,0|8,1:0|1:0,0:0:0:0:
438,258,209328,1,0,1:0:0:0:
312,356,209528,5,4,1:0:0:0:
312,356,209728,1,0,1:0:0:0:
208,348,209927,1,8,1:0:0:0:
208,348,210127,1,8,1:0:0:0:
104,340,210327,1,0,3:0:0:0:
104,340,210527,1,0,1:0:0:0:
58,168,210726,2,0,P|54:136|62:72,1,70,8|0,1:0|0:0,0:0:0:0:
188,52,211126,5,0,1:0:0:0:
208,56,211226,1,8,1:0:0:0:
228,60,211325,1,0,1:0:0:0:
248,188,211525,1,8,1:0:0:0:
368,116,211725,1,0,3:0:0:0:
376,136,211825,1,0,3:0:0:0:
380,156,211925,1,0,1:0:0:0:
380,176,212025,1,0,3:0:0:0:
376,196,212124,1,0,3:0:0:0:
368,216,212224,1,0,1:0:0:0:
364,236,212324,1,8,1:0:0:0:
364,256,212424,1,0,1:0:0:0:
368,276,212524,1,0,3:0:0:0:
372,296,212624,1,8,1:0:0:0:
384,312,212724,5,4,1:0:0:0:
484,232,212923,1,0,1:0:0:0:
248,188,213123,2,0,B|236:243|236:243|240:272|240:272|228:332,1,140,12|0,1:0|0:0,0:0:0:0:
484,232,213722,2,0,B|496:177|496:177|492:148|492:148|504:88,1,140,4|0,1:0|0:0,0:0:0:0:
312,24,214321,2,0,P|328:64|348:96,1,70,4|0,1:0|0:0,0:0:0:0:
404,200,214721,1,8,1:0:0:0:
248,188,214921,2,0,P|196:176|100:164,1,140,0|0,1:0|1:0,0:0:0:0:
24,208,215520,1,8,1:0:0:0:
0,300,215720,1,0,1:0:0:0:
110,164,215919,6,0,P|106:124|92:80,1,70,0|0,1:0|3:0,0:0:0:0:
0,300,216319,2,0,B|52:312|52:312|144:292,1,140,12|0,1:0|0:0,0:0:0:0:
348,280,216918,2,0,B|308:244|308:244|200:200,1,140,4|0,1:0|0:0,0:0:0:0:
98,95,217517,2,0,P|138:83|180:60,1,70,4|0,1:0|0:0,0:0:0:0:
332,36,218017,5,0,1:0:0:0:
468,68,218416,5,8,1:0:0:0:
468,68,218516,1,0,1:0:0:0:
332,36,218915,5,0,1:0:0:0:
348,280,219115,5,4,1:0:0:0:
192,156,219315,1,0,1:0:0:0:
124,352,219515,2,0,P|168:364|208:360,1,70,0|0,1:0|3:0,0:0:0:0:
348,280,219914,2,0,P|300:256|208:252,1,140,12|0,1:0|0:0,0:0:0:0:
76,272,220513,1,0,1:0:0:0:
348,280,220713,2,0,L|388:212,1,70,4|0,1:0|0:0,0:0:0:0:
492,140,221112,1,4,0:0:0:0:
488,268,221312,1,0,1:0:0:0:
376,104,221512,2,0,L|260:108,2,112,12|0|4,1:0|1:0|1:0,0:0:0:0:
232,4,222511,6,0,L|160:8,1,70,0|0,1:0|3:0,0:0:0:0:
32,144,222910,1,0,3:0:0:0:
32,144,223010,1,0,1:0:0:0:
32,144,223110,2,0,P|28:192|60:284,1,140,12|0,1:0|0:0,0:0:0:0:
232,280,223709,2,0,P|196:268|156:264,1,70,0|4,1:0|1:0,0:0:0:0:
304,368,224108,2,0,P|344:364|392:348,1,70,0|0,1:0|0:0,0:0:0:0:
484,300,224508,1,0,1:0:0:0:
352,164,224708,2,0,L|196:168,1,140,12|2,1:0|0:0,0:0:0:0:
212,167,225307,1,2,0:0:0:0:
80,316,225507,6,0,P|112:288|136:256,1,70,4|0,1:0|3:0,0:0:0:0:
52,96,225906,2,0,P|68:136|100:172,1,70,0|0,1:0|3:0,0:0:0:0:
232,280,226306,1,12,1:0:0:0:
272,84,226505,2,0,P|316:82|360:76,1,70,0|0,1:0|0:0,0:0:0:0:
476,60,226905,1,0,1:0:0:0:
476,60,227104,6,0,P|484:112|476:208,1,140,4|0,1:0|0:0,0:0:0:0:
276,304,227704,1,0,1:0:0:0:
252,292,227804,1,0,3:0:0:0:
232,280,227903,2,0,P|224:216|236:156,2,112,12|0|4,1:0|1:0|1:0,0:0:0:0:
350,147,228902,6,0,P|346:95|334:59,1,70,0|0,1:0|3:0,0:0:0:0:
112,260,229302,2,0,P|116:312|128:348,1,70,0|12,1:0|1:0,0:0:0:0:
344,360,229701,2,0,L|504:356,1,140,0|0,1:0|1:0,0:0:0:0:
478,198,230300,1,4,1:0:0:0:
350,147,230500,1,8,1:0:0:0:
244,316,230700,1,0,3:0:0:0:
372,265,230900,1,0,1:0:0:0:
208,168,231099,1,12,1:0:0:0:
208,168,231299,1,0,3:0:0:0:
112,164,231499,1,0,1:0:0:0:
112,164,231698,1,0,3:0:0:0:
12,156,231898,6,0,P|8:196|4:236,1,70,4|0,1:0|0:0,0:0:0:0:
0,316,232298,1,0,1:0:0:0:
84,328,232497,1,0,3:0:0:0:
88,240,232697,1,12,1:0:0:0:
208,168,232897,1,0,1:0:0:0:
209,83,233096,1,0,3:0:0:0:
293,88,233296,1,0,1:0:0:0:
291,173,233496,6,0,B|268:248|292:320,1,140,4|0,0:0|0:0,0:0:0:0:
392,324,234095,1,0,1:0:0:0:
492,336,234295,2,0,L|504:268,1,70,12|0,1:0|0:0,0:0:0:0:
420,96,234694,2,0,L|400:248,1,140,4|4,0:0|1:0,0:0:0:0:
244,244,235294,5,0,1:0:0:0:
401,234,235493,1,0,1:0:0:0:
244,244,235693,1,0,1:0:0:0:
160,368,235893,2,0,P|120:376|72:376,1,70,12|0,1:0|0:0,0:0:0:0:
316,368,236292,2,0,P|356:360|404:360,1,70,0|0,1:0|3:0,0:0:0:0:
244,244,236692,6,0,P|176:240|84:256,1,140,4|0,1:0|0:0,0:0:0:0:
105,250,237291,1,0,1:0:0:0:
32,96,237491,2,0,P|56:140|68:176,1,70,12|0,1:0|0:0,0:0:0:0:
204,80,237890,2,0,P|192:113|176:144,1,70,4|0,0:0|0:0,0:0:0:0:
4,276,238290,5,4,1:0:0:0:
105,250,238489,2,0,P|140:264|180:292,1,70,2|0,0:0|0:0,0:0:0:0:
248,208,238889,1,2,0:0:0:0:
276,312,239088,2,0,P|328:320|424:312,1,140,8|0,1:0|0:0,0:0:0:0:
414,314,239688,1,2,0:0:0:0:
414,314,239887,1,0,0:0:0:0:
472,148,240250,5,0,1:0:0:0:
472,148,240691,1,8,1:0:0:0:
256,192,241485,12,0,243283,0:0:0:0:
76,72,243482,6,0,P|104:76|164:76,2,70
364,96,244676,6,0,P|376:147|368:239,1,125.999996154785,4|2,1:0|0:0,0:0:0:0:
252,336,245341,1,0,0:0:0:0:
252,336,245474,2,0,P|244:291|252:239,1,83.9999974365235,8|2,1:0|0:0,0:0:0:0:
268,219,245874,1,2,0:0:0:0:
156,167,246140,2,0,L|16:175,1,125.999996154785,0|2,1:0|0:0,0:0:0:0:
76,264,246673,2,0,L|172:264,1,83.9999974365235,0|0,1:0|0:0,0:0:0:0:
196,80,247072,2,0,L|64:76,2,125.999996154785,8|2|0,1:0|0:0|1:0,0:0:0:0:
384,56,248138,5,0,3:0:0:0:
384,56,248271,2,0,P|392:104|388:144,1,83.9999974365235,2|0,0:0|0:0,0:0:0:0:
296,264,248670,2,0,P|284:200|296:128,1,125.999996154785,8|2,1:0|0:0,0:0:0:0:
396,172,249336,1,0,1:0:0:0:
396,172,249469,1,2,0:0:0:0:
184,236,249735,1,0,3:0:0:0:
184,236,249869,1,0,1:0:0:0:
376,324,250268,2,0,L|464:328,1,83.9999974365235,8|0,1:0|0:0,0:0:0:0:
504,232,250668,1,2,0:0:0:0:
192,344,251067,6,0,L|52:352,1,125.999996154785,4|2,1:0|0:0,0:0:0:0:
66,351,251600,1,0,0:0:0:0:
328,128,251866,2,0,L|468:120,1,125.999996154785,12|2,1:2|0:0,0:0:0:0:
216,28,252532,2,0,P|208:88|224:156,1,125.999996154785,0|0,1:0|3:0,0:0:0:0:
228,188,253064,1,0,1:0:0:0:
74,351,253464,2,0,B|64:328|64:328|80:288|64:216,1,125.999996154785,8|2,1:0|0:0,0:0:0:0:
48,96,254130,1,0,3:0:0:0:
48,96,254263,6,0,L|136:88,1,83.9999974365235,0|0,1:0|0:0,0:0:0:0:
228,188,254663,2,0,L|140:196,1,83.9999974365235,2|0,0:0|0:0,0:0:0:0:
208,20,255062,2,0,L|296:12,1,83.9999974365235,8|0,1:0|0:0,0:0:0:0:
360,88,255462,1,2,0:0:0:0:
247,308,255728,2,0,P|227:268|231:180,1,125.999996154785,0|0,1:0|0:0,0:0:0:0:
324,212,256261,2,0,L|416:208,1,83.9999974365235,0|0,1:0|0:0,0:0:0:0:
152,320,256660,2,0,L|16:312,1,125.999996154785,8|0,1:0|0:0,0:0:0:0:
26,312,257459,5,4,0:0:0:0:
48,200,259070,6,0,P|44:164|44:124,1,70,0|2,1:0|0:0,0:0:0:0:
44,112,259445,1,0,0:0:0:0:
44,96,259570,1,8,1:0:0:0:
188,40,259820,1,2,0:0:0:0:
256,116,260070,1,2,0:0:0:0:
256,132,260195,1,0,0:0:0:0:
256,148,260320,2,0,P|252:196|244:224,2,70,0|8|2,1:0|1:0|0:0,0:0:0:0:
168,132,261070,6,0,L|128:136,1,35,0|0,1:0|0:0,0:0:0:0:
246,216,261320,2,0,L|286:220,1,35,0|0,1:0|0:0,0:0:0:0:
156,216,261570,2,0,P|144:256|144:292,1,70,8|0,1:0|0:0,0:0:0:0:
144,300,261945,1,0,3:0:0:0:
144,316,262070,1,2,0:0:0:0:
272,328,262320,1,0,1:0:0:0:
400,348,262570,1,8,1:0:0:0:
400,348,262695,1,0,1:0:0:0:
492,144,262945,1,0,3:0:0:0:
492,144,263070,6,0,P|448:148|372:132,1,105,0|0,1:0|0:0,0:0:0:0:
376,160,263570,2,0,L|340:232,1,70,8|0,1:0|0:0,0:0:0:0:
336,238,263945,1,0,3:0:0:0:
328,254,264070,1,2,0:0:0:0:
284,116,264320,2,2,L|248:120,2,23.3333333333333
296,92,264570,2,0,L|324:28,1,70,8|0,1:0|0:0,0:0:0:0:
424,48,265070,5,0,1:0:0:0:
224,20,265320,1,2,0:0:0:0:
224,20,265403,1,2,0:0:0:0:
224,20,265486,1,2,0:0:0:0:
224,20,265570,2,0,L|144:32,1,70,8|0,1:0|0:0,0:0:0:0:
92,136,265945,2,0,L|172:124,1,70,0|0,3:0|0:0,0:0:0:0:
224,200,266320,1,0,3:0:0:0:
44,332,266570,1,0,1:0:0:0:
32,280,266695,1,0,3:0:0:0:
24,228,266820,1,8,1:0:0:0:
224,200,267070,6,0,P|272:188|372:200,1,140,4|8,1:0|1:0,0:0:0:0:
361,196,267695,1,0,3:0:0:0:
361,196,267820,1,2,0:0:0:0:
364,316,268070,1,2,0:0:0:0:
460,236,268320,1,0,1:0:0:0:
224,200,268570,2,0,P|180:208|132:204,1,70,8|0,1:0|0:0,0:0:0:0:
140,200,268945,1,0,0:0:0:0:
120,196,269070,6,0,P|136:128|112:56,1,140,0|8,1:0|1:0,0:0:0:0:
216,52,269820,1,0,0:0:0:0:
56,268,270070,2,0,P|32:220|32:196,1,70,2|0,0:0|1:0,0:0:0:0:
224,200,270445,1,0,3:0:0:0:
224,200,270570,2,0,P|264:180|284:152,1,70,8|2,1:0|0:0,0:0:0:0:
460,48,271070,6,0,L|468:160,1,105,4|0,1:0|0:0,0:0:0:0:
476,192,271570,1,8,1:0:0:0:
476,192,271695,1,0,3:0:0:0:
476,192,271820,1,0,3:0:0:0:
376,312,272070,1,2,0:0:0:0:
492,300,272320,1,0,1:0:0:0:
368,204,272570,2,0,P|328:200|264:220,1,105,8|0,1:0|0:0,0:0:0:0:
192,344,273070,6,0,P|238:335|261:319,1,70,0|0,1:0|0:0,0:0:0:0:
256,323,273445,1,0,3:0:0:0:
256,323,273570,1,8,1:0:0:0:
216,140,273820,1,2,0:0:0:0:
216,140,273945,1,0,0:0:0:0:
216,140,274070,2,0,P|160:140|80:184,1,140,4|0,0:0|0:0,0:0:0:0:
86,177,274820,1,0,0:0:0:0:
312,112,275070,6,0,L|324:32,1,70,4|0,1:0|3:0,0:0:0:0:
322,42,275529,1,0,3:0:0:0:
322,42,275682,2,0,L|400:40,1,70,8|0,1:0|3:0,0:0:0:0:
188,60,276294,2,0,L|72:56,1,105,0|0,1:0|0:0,0:0:0:0:
56,56,276906,1,8,1:0:0:0:
88,176,277212,1,0,3:0:0:0:
16,300,277518,6,0,P|4:260|0:232,1,70,0|0,1:0|3:0,0:0:0:0:
164,260,278131,2,0,P|176:300|180:328,1,70,8|0,1:0|3:0,0:0:0:0:
179,327,278590,1,0,3:0:0:0:
179,327,278743,2,0,L|255:339,1,70,0|0,1:0|3:0,0:0:0:0:
408,260,279355,1,8,1:0:0:0:
360,384,279661,1,0,3:0:0:0:
276,216,279967,6,0,P|268:164|272:128,1,70,0|0,1:0|3:0,0:0:0:0:
268,146,280427,1,0,3:0:0:0:
268,146,280580,2,0,L|352:132,1,70,8|0,1:0|3:0,0:0:0:0:
416,120,281039,1,0,0:0:0:0:
416,120,281192,1,0,1:0:0:0:
488,216,281498,1,0,3:0:0:0:
432,28,281804,1,8,1:0:0:0:
408,232,282110,1,0,1:0:0:0:
352,40,282416,6,0,P|304:40|232:52,1,105,0|0,1:0|0:0,0:0:0:0:
247,48,283029,2,0,P|212:40|168:24,1,70,8|0,1:0|3:0,0:0:0:0:
179,28,283488,1,0,3:0:0:0:
179,28,283641,1,0,1:0:0:0:
128,196,283947,1,0,3:0:0:0:
36,76,284253,2,0,P|71:84|115:100,1,70,8|0,1:0|3:0,0:0:0:0:
228,284,284865,6,0,P|220:240|232:140,1,140,4|8,1:0|1:0,0:0:0:0:
328,132,285784,1,0,3:0:0:0:
128,196,286090,2,0,L|48:204,1,70,0|0,1:0|3:0,0:0:0:0:
58,202,286549,1,0,3:0:0:0:
58,202,286702,2,0,L|48:280,1,70,8|0,1:0|0:0,0:0:0:0:
228,368,287314,6,0,L|308:360,1,70,0|0,1:0|3:0,0:0:0:0:
297,361,287773,1,0,3:0:0:0:
297,361,287927,2,0,L|307:283,1,70,8|0,1:0|3:0,0:0:0:0:
384,176,288539,2,0,L|388:228,1,35,0|0,1:0|0:0,0:0:0:0:
420,348,288845,2,0,L|428:292,1,35,0|0,3:0|0:0,0:0:0:0:
496,212,289151,2,0,P|504:168|500:92,1,105,8|0,1:0|0:0,0:0:0:0:
472,100,289763,6,0,L|388:84,1,70,0|0,1:0|3:0,0:0:0:0:
164,144,290376,2,0,L|280:128,1,105,8|0,1:0|0:0,0:0:0:0:
304,124,290988,1,0,1:0:0:0:
396,204,291294,1,0,3:0:0:0:
264,320,291600,2,0,P|252:276|248:232,1,70,8|0,1:0|3:0,0:0:0:0:
52,132,292212,6,0,P|68:192|76:276,1,140,0|8,1:0|1:0,0:0:0:0:
32,364,293131,1,0,3:0:0:0:
160,232,293437,2,0,P|200:216|240:212,1,70,0|0,1:0|0:0,0:0:0:0:
363,286,294039,5,8,0:0:0:0:
363,286,294239,2,0,P|316:308|251:322,1,105,12|0,0:0|0:0,0:0:0:0:
184,368,295039,6,0,P|152:360|100:352,1,62.9999980773926,4|0,1:0|0:0,0:0:0:0:
0,264,295439,2,0,P|36:256|76:244,1,62.9999980773926,2|0,3:1|0:0,0:0:0:0:
212,204,295839,2,2,P|184:172|156:88,1,125.999996154785,8|2,1:0|0:1,1:0:0:0:
156,94,296439,1,0,3:0:0:0:
184,0,296639,5,6,1:0:0:0:
304,52,296839,2,0,P|292:92|276:124,1,62.9999980773926,0|0,3:0|0:0,0:0:0:0:
80,156,297239,1,0,3:0:0:0:
212,204,297439,2,2,P|240:236|268:320,1,125.999996154785,12|0,1:0|3:0,1:0:0:0:
267,313,298039,1,0,0:0:0:0:
388,244,298239,5,4,1:0:0:0:
504,268,298439,1,2,0:1:0:0:
480,384,298639,1,6,0:0:0:0:
364,364,298839,1,2,0:1:0:0:
388,244,299039,2,2,B|372:184|408:180|384:100,1,125.999996154785,8|0,1:0|0:0,1:0:0:0:
484,68,299639,1,2,3:1:0:0:
292,84,299839,6,0,P|284:120|280:168,1,62.9999980773926,6|0,1:0|0:0,0:0:0:0:
248,252,300239,1,2,1:0:0:0:
248,252,300339,1,2,0:0:0:0:
248,252,300439,1,2,0:1:0:0:
112,124,300639,2,2,P|116:68|136:-4,1,125.999996154785,12|2,1:0|0:1,1:0:0:0:
134,0,301239,1,0,0:1:0:0:
280,145,301439,6,2,L|352:156,1,62.9999980773926,6|0,1:0|0:0,1:0:0:0:
144,224,301839,2,2,L|12:232,1,125.999996154785,0|10,1:0|1:0,0:0:0:0:
18,231,302439,1,0,0:0:0:0:
204,328,302639,2,0,L|280:328,1,62.9999980773926,2|0,3:1|0:0,0:0:0:0:
416,328,303039,5,2,1:0:0:0:
416,328,303139,1,0,0:0:0:0:
416,328,303239,2,0,L|428:256,1,62.9999980773926,2|2,3:1|1:0,0:0:0:0:
444,132,303639,1,0,3:0:0:0:
296,112,303839,2,0,L|284:184,1,62.9999980773926,8|0,1:0|0:0,0:0:0:0:
267,328,304239,1,2,0:1:0:0:
267,328,304439,1,2,0:1:0:0:
444,132,304639,6,0,P|445:99|433:52,1,62.9999980773926,6|0,1:0|0:0,0:0:0:0:
163,174,305039,2,0,P|157:143|160:112,1,62.9999980773926,0|0,3:0|0:0,0:0:0:0:
300,237,305439,2,2,P|304:177|292:97,1,125.999996154785,10|2,1:0|3:1,1:0:0:0:
295,111,306039,1,0,0:0:0:0:
196,24,306239,5,2,1:0:0:0:
196,24,306339,1,0,0:0:0:0:
196,24,306439,1,10,3:1:0:0:
52,80,306639,2,0,P|40:120|36:156,1,62.9999980773926,2|0,1:0|0:0,0:0:0:0:
80,296,307039,2,0,P|142:303|204:297,1,125.999996154785,8|2,1:0|0:1,0:0:0:0:
312,324,307639,1,2,0:1:0:0:
416,352,307839,6,0,P|424:324|432:272,1,62.9999980773926,6|0,1:0|0:0,0:0:0:0:
304,176,308239,2,0,P|324:196|365:229,1,62.9999980773926,0|0,3:0|0:0,0:0:0:0:
512,172,308639,2,0,P|483:179|434:198,1,62.9999980773926,8|0,1:0|0:0,0:0:0:0:
208,160,309039,1,2,0:1:0:0:
192,260,309239,1,2,0:1:0:0:
296,284,309439,5,2,1:0:0:0:
296,284,309539,1,0,3:0:0:0:
296,284,309639,1,2,3:1:0:0:
304,176,309839,1,2,1:0:0:0:
112,92,310039,1,0,3:0:0:0:
112,92,310239,2,0,P|96:156|96:228,1,125.999996154785,10|0,1:0|0:0,0:0:0:0:
44,312,310839,1,2,0:1:0:0:
128,376,311039,6,2,L|276:372,1,125.999996154785,4|0,1:0|0:0,1:0:0:0:
356,348,311639,1,0,3:0:0:0:
188,276,311839,2,0,L|260:280,1,62.9999980773926,8|0,1:0|0:0,0:0:0:0:
452,200,312239,1,2,0:1:0:0:
356,244,312439,1,2,0:1:0:0:
444,304,312639,6,2,P|452:340|452:376,1,62.9999980773926,0|0,1:0|0:0,1:0:0:0:
356,244,313039,2,0,P|348:208|348:172,1,62.9999980773926,0|0,1:0|0:0,1:0:0:0:
441,75,313439,2,2,P|453:139|449:215,1,125.999996154785,8|4,1:0|0:0,1:0:0:0:
72,40,314239,6,2,B|40:132|104:152|72:248,1,210.000008010865,4|8,1:0|1:0,1:0:0:0:
72,245,315439,1,0,3:0:0:0:
32,332,315639,1,0,0:0:0:0:
128,328,315839,2,0,P|164:332|188:336,1,52.5000020027161,0|0,1:0|0:0,0:0:0:0:
244,244,316239,2,0,P|208:240|184:236,1,52.5000020027161,0|0,1:0|0:0,0:0:0:0:
327,372,316639,2,0,P|335:320|335:267,1,105.000004005432,8|0,1:0|3:0,0:0:0:0:
360,264,317139,1,0,3:0:0:0:
380,248,317239,1,0,3:0:0:0:
388,224,317339,1,0,0:0:0:0:
400,200,317439,6,0,P|448:172|496:160,1,105.000004005432,0|0,1:0|0:0,0:0:0:0:
480,264,318039,1,0,3:0:0:0:
384,100,318239,2,0,P|356:116|332:124,1,52.5000020027161,8|0,1:0|0:0,0:0:0:0:
252,228,318639,2,0,P|280:212|304:204,1,52.5000020027161,4|0,0:0|0:0,0:0:0:0:
400,200,319039,5,0,1:0:0:0:
384,100,319239,1,0,3:0:0:0:
280,68,319439,2,0,P|252:80|228:92,1,52.5000020027161,0|0,1:0|0:0,0:0:0:0:
100,172,319839,2,0,P|88:216|88:292,1,105.000004005432,8|0,1:0|3:0,0:0:0:0:
88,300,320339,1,0,3:0:0:0:
104,320,320439,1,0,3:0:0:0:
128,332,320539,1,0,0:0:0:0:
144,352,320639,6,0,L|268:356,1,105.000004005432,4|0,1:0|0:0,0:0:0:0:
248,355,321239,1,0,3:0:0:0:
208,176,321439,2,0,L|84:172,1,105.000004005432,8|0,1:0|0:0,0:0:0:0:
28,276,322039,1,0,3:0:0:0:
28,276,322239,2,0,P|57:274|92:268,1,52.5000020027161,0|0,1:0|0:0,0:0:0:0:
244,276,322639,2,0,P|216:270|180:268,1,52.5000020027161,0|0,1:0|0:0,0:0:0:0:
348,332,323039,2,0,P|392:336|468:320,1,105.000004005432,8|0,1:0|3:0,0:0:0:0:
460,300,323539,1,0,3:0:0:0:
456,272,323639,1,0,3:0:0:0:
448,248,323739,1,0,0:0:0:0:
448,220,323839,6,0,P|468:168|468:104,1,105.000004005432,0|0,1:0|0:0,0:0:0:0:
470,119,324439,1,0,3:0:0:0:
360,20,324639,2,0,P|348:56|348:88,1,52.5000020027161,8|0,1:0|0:0,0:0:0:0:
244,96,325039,1,0,3:0:0:0:
264,204,325239,1,0,3:0:0:0:
368,184,325439,6,0,P|376:164|380:116,1,52.5000020027161,0|0,1:0|0:0,0:0:0:0:
264,204,325839,2,0,P|257:227|253:265,1,52.5000020027161,0|0,1:0|0:0,0:0:0:0:
348,336,326239,2,0,L|456:336,1,105.000004005432,8|4,1:0|0:0,0:0:0:0:
208,60,327039,6,0,P|136:44|44:108,1,181.999991668702,4|8,1:0|1:0,0:0:0:0:
120,232,327539,1,0,3:0:0:0:
120,232,327639,2,0,P|144:188|140:136,1,90.9999958343508,4|2,1:0|0:0,0:0:0:0:
240,56,328039,1,0,1:0:0:0:
368,36,328239,1,8,1:0:0:0:
396,64,328339,1,0,3:0:0:0:
408,104,328439,1,0,3:0:0:0:
404,144,328539,1,0,3:0:0:0:
416,184,328639,6,0,P|436:236|464:276,1,90.9999958343508,4|0,1:2|0:0,0:0:0:0:
248,384,329039,2,0,P|271:345|287:302,1,90.9999958343508,12|0,1:2|0:0,0:0:0:0:
314,108,329439,2,0,L|230:48,1,90.9999958343508,4|0,1:2|0:0,0:0:0:0:
24,232,329839,6,0,B|116:220|104:172|196:164,1,181.999991668702,4|8,1:0|1:0,0:0:0:0:
132,64,330339,1,0,3:0:0:0:
132,64,330439,2,0,P|76:84|20:128,1,90.9999958343508,4|2,1:0|0:0,0:0:0:0:
56,328,330839,1,0,1:0:0:0:
96,320,330939,1,0,3:0:0:0:
128,300,331039,2,0,P|184:284|296:352,1,181.999991668702,12|2,1:0|0:0,0:0:0:0:
420,384,331639,6,0,P|436:336|444:292,1,90.9999958343508,4|8,1:0|1:0,0:0:0:0:
448,256,331939,1,0,3:0:0:0:
432,216,332039,1,0,3:0:0:0:
404,188,332139,1,0,3:0:0:0:
400,148,332239,2,0,P|452:128|508:132,1,90.9999958343508,4|0,1:2|3:0,0:0:0:0:
348,32,332539,1,8,1:0:0:0:
348,32,332639,6,0,B|308:60|260:44|260:44|212:40|160:76,1,181.999991668702,4|8,1:0|1:0,0:0:0:0:
152,204,333139,1,0,3:0:0:0:
152,204,333239,2,0,P|208:192|244:152,1,90.9999958343508,4|2,1:0|0:0,0:0:0:0:
56,92,333639,1,0,1:0:0:0:
28,268,333839,1,8,1:0:0:0:
44,304,333939,1,0,3:0:0:0:
76,328,334039,1,0,3:0:0:0:
116,340,334139,1,0,3:0:0:0:
156,336,334239,6,0,P|196:320|264:328,1,90.9999958343508,4|0,1:2|0:0,0:0:0:0:
468,384,334639,2,0,P|424:372|384:344,1,90.9999958343508,12|0,1:2|0:0,0:0:0:0:
352,204,335039,2,0,P|372:152|372:112,1,90.9999958343508,4|0,1:2|0:0,0:0:0:0:
200,20,335439,6,0,P|176:104|248:188,1,181.999991668702,4|8,1:0|1:0,0:0:0:0:
436,232,335939,1,0,3:0:0:0:
436,232,336039,2,0,P|388:208|344:204,1,90.9999958343508,4|2,1:0|0:0,0:0:0:0:
208,204,336439,1,0,1:0:0:0:
40,292,336639,2,0,P|72:248|56:120,1,181.999991668702,12|2,1:2|0:0,0:0:0:0:
260,296,337239,1,4,1:0:0:0:
180,380,337439,2,0,P|156:340|152:288,1,90.9999958343508,8|0,1:0|0:0,0:0:0:0:
272,88,337839,1,4,1:0:0:0:
488,120,338039,1,8,1:0:0:0:
492,140,338139,1,8,1:0:0:0:
496,160,338239,6,0,P|484:204|460:256,1,83.9999974365235,4|0,1:0|0:0,0:0:0:0:
224,256,338639,2,0,L|328:248,1,83.9999974365235,8|0,1:0|0:0,0:0:0:0:
512,376,339039,2,0,P|447:345|396:328,1,125.999996154785,0|0,1:0|0:0,0:0:0:0:
376,312,339439,1,8,1:0:0:0:
264,384,339639,1,0,3:0:0:0:
228,156,339839,1,0,1:0:0:0:
228,156,340039,1,0,3:0:0:0:
228,156,340139,1,0,3:0:0:0:
228,156,340239,6,0,P|172:164|144:168,1,83.9999974365235,12|0,1:0|0:0,0:0:0:0:
248,24,340639,2,0,P|304:16|332:12,1,83.9999974365235,4|0,1:0|0:0,0:0:0:0:
80,80,341039,1,12,1:0:0:0:
40,176,341239,1,0,1:0:0:0:
209,320,341439,6,0,P|229:248|225:144,1,167.999994873047,4|8,1:0|1:0,0:0:0:0:
344,260,342039,1,0,3:0:0:0:
44,328,342239,2,0,P|100:304|148:296,1,83.9999974365235,0|0,1:0|0:0,0:0:0:0:
344,260,342639,1,8,1:0:0:0:
128,148,342839,1,0,3:0:0:0:
360,68,343039,6,0,P|336:116|312:152,1,83.9999974365235,0|0,1:0|3:0,0:0:0:0:
319,141,343339,1,0,3:0:0:0:
319,141,343439,2,0,L|416:156,1,83.9999974365235,12|0,1:0|0:0,0:0:0:0:
200,32,343839,2,0,L|103:17,1,83.9999974365235,4|0,1:0|0:0,0:0:0:0:
0,204,344239,2,0,L|97:219,1,83.9999974365235,12|0,1:0|0:0,0:0:0:0:
344,376,344639,6,0,P|316:336|204:280,1,167.999994873047,4|8,1:0|1:0,0:0:0:0:
64,344,345239,1,0,3:0:0:0:
164,188,345439,2,0,P|176:140|180:84,1,83.9999974365235,0|0,1:0|0:0,0:0:0:0:
164,368,345839,1,8,1:0:0:0:
68,236,346039,1,0,3:0:0:0:
280,188,346239,6,0,B|360:196|360:240|436:248,1,167.999994873047,0|12,1:0|1:0,0:0:0:0:
434,247,346839,1,0,3:0:0:0:
316,68,347039,1,4,1:0:0:0:
224,32,347239,1,0,3:0:0:0:
420,136,347439,1,4,1:0:0:0:
512,172,347639,1,0,3:0:0:0:
280,188,347839,6,0,P|264:244|260:272,1,83.9999974365235,4|0,1:0|0:0,0:0:0:0:
168,360,348239,2,0,L|68:368,1,83.9999974365235,8|0,1:0|3:0,0:0:0:0:
196,194,348539,1,0,3:0:0:0:
196,194,348639,2,0,L|296:186,1,83.9999974365235,0|0,1:0|0:0,0:0:0:0:
80,160,349039,1,8,1:0:0:0:
24,248,349239,1,0,3:0:0:0:
324,368,349439,6,0,P|340:312|344:284,1,83.9999974365235,0|0,1:0|0:0,0:0:0:0:
200,28,349839,2,0,P|216:76|244:132,1,83.9999974365235,12|0,1:0|0:0,0:0:0:0:
484,196,350239,2,0,P|432:156|356:152,1,125.999996154785,4|0,1:0|0:0,0:0:0:0:
198,207,350639,2,0,P|246:199|292:180,1,83.9999974365235,12|0,1:0|0:0,0:0:0:0:
96,352,351039,5,4,1:0:0:0:
72,360,351639,1,4,1:0:0:0:
152,108,362039,5,0,3:0:0:0:
152,108,362139,1,8,1:0:0:0:
152,108,362239,2,0,P|219:107|304:124,1,125.999996154785,4|0,1:0|0:0,0:0:0:0:
277,116,362639,2,0,P|287:180|311:232,1,83.9999974365235,8|0,1:0|0:0,0:0:0:0:
484,348,363039,2,0,P|444:320|352:280,1,125.999996154785,0|0,1:0|0:0,0:0:0:0:
374,287,363439,2,0,P|336:332|300:360,1,83.9999974365235,8|0,1:0|0:0,0:0:0:0:
56,300,363839,5,0,1:0:0:0:
188,264,364039,1,0,3:0:0:0:
56,300,364239,2,0,P|40:244|40:188,1,83.9999974365235,12|0,1:0|0:0,0:0:0:0:
134,26,364639,2,0,P|150:82|150:138,1,83.9999974365235,4|0,1:0|0:0,0:0:0:0:
293,197,365039,2,0,L|396:208,1,83.9999974365235,12|0,1:0|0:0,0:0:0:0:
268,384,365439,6,0,L|92:368,1,167.999994873047,4|8,1:0|1:0,0:0:0:0:
376,205,366039,1,0,3:0:0:0:
493,252,366239,1,0,1:0:0:0:
444,365,366439,1,0,3:0:0:0:
326,325,366639,1,8,1:0:0:0:
480,148,366839,1,0,0:0:0:0:
376,205,367039,6,0,P|320:221|280:221,1,83.9999974365235,0|0,1:0|0:0,0:0:0:0:
56,264,367439,2,0,P|108:248|184:240,1,125.999996154785,12|0,1:0|0:0,0:0:0:0:
228,160,367839,1,4,1:0:0:0:
220,128,367939,2,0,L|196:28,1,83.9999974365235,0|0,1:0|0:0,0:0:0:0:
120,112,368239,2,0,L|136:172,1,41.9999987182618,12|0,1:0|0:0,0:0:0:0:
308,60,368439,2,0,L|292:0,1,41.9999987182618,0|0,1:0|0:0,0:0:0:0:
48,44,368639,6,0,P|24:76|16:168,1,125.999996154785,4|0,1:0|0:0,0:0:0:0:
48,336,369039,2,0,P|48:288|40:244,1,83.9999974365235,8|0,1:0|0:0,0:0:0:0:
120,112,369439,2,0,L|212:96,1,83.9999974365235,0|0,1:0|0:0,0:0:0:0:
400,156,369839,1,8,1:0:0:0:
400,156,370039,1,0,3:0:0:0:
164,248,370239,6,0,P|216:256|260:272,1,83.9999974365235,0|0,1:0|0:0,0:0:0:0:
444,368,370639,2,0,P|400:328|376:292,1,83.9999974365235,12|0,1:0|0:0,0:0:0:0:
400,156,370939,1,0,3:0:0:0:
400,156,371039,2,0,P|416:112|424:52,1,83.9999974365235,4|0,1:0|0:0,0:0:0:0:
186,167,371439,2,0,P|170:211|162:271,1,83.9999974365235,12|0,1:0|0:0,0:0:0:0:
385,308,371839,6,0,P|329:280|248:268,1,125.999996154785,4|0,1:0|0:0,0:0:0:0:
267,268,372239,1,8,1:0:0:0:
104,348,372439,1,0,3:0:0:0:
186,167,372639,1,0,1:0:0:0:
104,348,372839,1,0,3:0:0:0:
56,156,373039,2,0,P|52:120|52:56,1,83.9999974365235,8|0,1:0|0:0,0:0:0:0:
152,36,373439,1,0,1:0:0:0:
260,28,373639,1,0,3:0:0:0:
480,224,373839,6,0,L|512:120,1,83.9999974365235,12|0,1:0|0:0,0:0:0:0:
344,256,374239,2,0,L|352:160,1,83.9999974365235,4|0,1:0|0:0,0:0:0:0:
216,352,374639,2,0,L|200:192,1,146.999995513916,12|0,1:0|0:0,0:0:0:0:
424,160,380509,5,0,0:0:0:0:
424,160,380756,6,0,P|364:140|264:144,1,140,4|2,1:0|0:0,0:0:0:0:
196,200,381500,1,0,1:0:0:0:
332,304,381748,2,0,P|296:284|256:272,1,70,8|0,1:0|0:0,0:0:0:0:
96,328,382244,2,0,P|136:320|172:304,1,70,0|0,1:0|0:0,0:0:0:0:
196,200,382740,5,0,1:0:0:0:
332,304,382988,2,0,L|340:384,2,70,0|2|0,1:0|0:0|0:0,0:0:0:0:
480,224,383732,2,0,L|496:72,2,140,8|4|4,1:0|0:0|1:0,0:0:0:0:
336,172,384971,5,2,1:2:0:0:
196,200,385219,2,0,P|152:208|104:228,1,70,2|0,3:2|1:0,0:0:0:0:
36,300,385715,1,8,1:0:0:0:
12,108,385963,1,2,0:0:0:0:
20,124,386087,1,2,0:0:0:0:
28,140,386211,1,2,0:0:0:0:
180,132,386459,5,2,0:0:0:0:
175,115,386583,1,2,0:0:0:0:
170,98,386707,1,2,1:2:0:0:
316,144,386955,5,2,1:2:0:0:
317,161,387079,1,2,0:0:0:0:
319,179,387203,1,2,3:2:0:0:
436,276,387451,5,2,0:0:0:0:
438,260,387575,1,2,0:0:0:0:
440,244,387699,1,10,1:2:0:0:
312,304,387947,1,2,0:0:0:0:
316,320,388070,1,2,0:0:0:0:
320,336,388194,1,4,0:0:0:0:
440,368,388442,1,2,1:2:0:0:
476,80,388690,6,0,P|416:60|316:64,1,140,4|2,1:0|0:0,0:0:0:0:
156,60,389434,1,0,1:0:0:0:
236,144,389682,2,0,P|252:84|244:-12,2,140,8|2|0,1:0|0:0|1:0,0:0:0:0:
87,65,390922,2,0,P|127:57|175:65,1,70,0|2,1:0|0:0,0:0:0:0:
308,204,391418,1,0,3:0:0:0:
180,236,391666,2,0,L|28:228,2,140,8|4|4,1:0|0:0|1:0,0:0:0:0:
308,204,392905,5,0,3:0:0:0:
336,332,393153,1,2,0:0:0:0:
212,368,393401,1,0,1:0:0:0:
308,204,393649,2,0,P|368:196|404:200,1,70,8|0,1:0|0:0,0:0:0:0:
488,352,394145,2,0,P|428:360|392:356,1,70,2|0,0:0|0:0,0:0:0:0:
496,152,394641,6,0,L|492:228,1,70,0|0,1:0|0:0,0:0:0:0:
492,221,395137,1,2,0:0:0:0:
348,256,395385,1,0,1:0:0:0:
192,268,395632,2,0,L|184:120,2,140,8|4|4,1:0|0:0|1:0,0:0:0:0:
284,176,396872,6,0,L|288:100,1,70,0|2,1:0|0:0,0:0:0:0:
292,8,397368,1,0,1:0:0:0:
92,152,397616,2,0,L|96:236,1,70,8|0,1:0|0:0,0:0:0:0:
188,337,398112,2,0,L|192:253,1,70,2|0,0:0|0:0,0:0:0:0:
284,176,398608,2,0,P|332:164|436:172,1,140,0|2,1:0|0:0,0:0:0:0:
432,268,399351,1,0,1:0:0:0:
352,352,399599,5,8,1:0:0:0:
345,252,399847,1,0,1:0:0:0:
348,76,400095,1,8,3:0:0:0:
348,76,400219,1,4,3:0:0:0:
348,76,400343,1,8,1:0:0:0:
345,252,400591,6,0,P|297:264|193:256,1,140,4|2,1:0|0:0,0:0:0:0:
128,172,401335,1,0,1:0:0:0:
128,172,401583,2,0,P|168:164|216:176,1,70,8|0,1:0|0:0,0:0:0:0:
240,348,402079,2,0,P|200:356|152:344,1,70,2|0,0:0|0:0,0:0:0:0:
48,308,402575,5,0,1:0:0:0:
48,308,402823,2,0,L|36:228,1,70,0|8,1:0|3:0,0:0:0:0:
56,52,403318,1,4,1:3:0:0:
152,76,403566,1,8,1:0:0:0:
128,172,403814,1,4,3:0:0:0:
32,148,404062,1,4,1:3:0:0:
152,76,404310,1,8,1:0:0:0:
288,56,404558,6,0,P|296:100|296:204,1,140,2|2,1:2|0:0,0:0:0:0:
292,324,405302,1,0,1:0:0:0:
216,228,405550,2,0,P|212:172|216:128,1,70,8|0,1:0|1:0,0:0:0:0:
388,280,406046,2,0,P|392:336|388:380,1,70,4|0,0:0|1:0,0:0:0:0:
388,180,406542,5,0,1:0:0:0:
256,192,406666,12,0,408277,0:0:0:0:
44,184,408517,6,0,P|64:152|224:160,1,210,4|0,1:0|0:0,0:0:0:0:
240,172,409216,1,0,0:0:0:0:
264,192,409316,2,0,P|308:204|336:200,1,70,8|0,1:0|0:0,0:0:0:0:
172,316,409716,2,0,P|136:320|84:352,1,70,4|0,1:0|0:0,0:0:0:0:
420,328,410116,2,0,P|432:280|480:188,1,140,4|0,1:0|0:0,0:0:0:0:
484,209,410716,1,0,0:0:0:0:
484,209,410816,1,0,0:0:0:0:
484,209,410916,2,0,L|412:181,1,70,8|0,1:0|0:0,0:0:0:0:
228,88,411316,2,0,L|300:116,1,70,0|0,1:0|0:0,0:0:0:0:
420,328,411716,5,4,1:0:0:0:
305,281,411916,2,0,P|257:285|169:317,1,140,0|0,1:0|0:0,0:0:0:0:
40,212,412515,2,0,P|56:248|76:280,1,70,8|0,1:0|0:0,0:0:0:0:
158,384,412915,2,0,P|167:345|171:308,1,70,4|0,1:0|0:0,0:0:0:0:
176,80,413315,2,0,P|152:144|156:224,2,140,0|4|8,1:0|1:0|1:0,0:0:0:0:
176,80,414515,1,0,1:0:0:0:
308,68,414715,1,8,0:0:0:0:
432,60,414915,5,4,1:0:0:0:
432,60,415115,2,0,L|448:132,2,70,0|0|0,1:0|0:0|0:0,0:0:0:0:
340,192,415715,2,0,P|336:216|320:272,1,70,8|0,1:0|0:0,0:0:0:0:
460,304,416114,2,0,P|448:252|440:228,1,70,4|0,1:0|0:0,0:0:0:0:
228,184,416514,1,4,1:0:0:0:
228,184,416714,2,0,P|180:184|72:200,1,140,0|0,1:0|0:0,0:0:0:0:
12,304,417314,1,8,1:0:0:0:
340,188,417714,2,0,P|344:168|360:108,1,70,0|0,1:0|0:0,0:0:0:0:
228,184,418114,6,0,P|224:204|208:264,1,70,4|0,1:0|1:0,0:0:0:0:
376,312,418514,2,0,L|300:292,1,70,4|0,0:0|0:0,0:0:0:0:
72,136,418914,2,0,L|148:156,1,70,8|0,1:0|0:0,0:0:0:0:
228,184,419314,1,4,1:0:0:0:
139,153,419514,1,0,0:0:0:0:
212,88,419714,5,4,1:0:0:0:
301,119,419914,1,0,0:0:0:0:
408,248,420113,5,0,1:0:0:0:
319,217,420313,1,0,0:0:0:0:
156,244,420513,5,8,1:0:0:0:
245,275,420713,1,0,3:0:0:0:
260,368,420913,5,0,1:0:0:0:
171,337,421113,1,8,1:0:0:0:
52,272,421313,6,2,B|12:164|88:168|44:48,1,224,4|8,1:0|1:0,1:0:0:0:
45,53,422513,1,0,1:0:0:0:
148,52,422713,1,0,3:0:0:0:
244,44,422913,2,0,P|252:80|248:156,2,112,0|0|8,1:0|0:0|1:0,0:0:0:0:
152,156,423912,2,0,L|92:164,2,56,0|0|0,3:0|1:0|0:0,0:0:0:0:
304,160,424512,6,0,P|268:156|228:152,1,56,4|0,1:0|0:0,0:0:0:0:
128,252,424912,2,0,P|164:248|204:244,1,56,4|0,0:0|0:0,0:0:0:0:
280,256,425312,1,8,1:0:0:0:
372,288,425512,1,0,1:0:0:0:
372,288,425712,2,0,L|432:296,1,56,0|0,1:0|0:0,0:0:0:0:
472,208,426112,6,0,P|484:168|484:92,2,112,2|0|8,0:0|1:0|1:0,0:0:0:0:
427,295,427112,1,0,3:0:0:0:
336,256,427311,1,0,1:0:0:0:
381,169,427511,1,0,1:0:0:0:
427,295,427711,6,0,P|427:327|411:367,1,56,4|0,1:0|0:0,0:0:0:0:
248,352,428111,2,0,P|248:320|264:280,1,56,4|0,0:0|0:0,0:0:0:0:
232,164,428511,2,0,L|116:156,1,112,8|0,1:0|1:0,0:0:0:0:
24,144,429111,1,0,3:0:0:0:
24,144,429311,2,0,L|16:204,1,56,0|0,1:0|0:0,0:0:0:0:
108,296,429711,1,0,3:0:0:0:
108,296,429911,2,0,L|116:236,2,56,0|8|0,1:0|1:0|0:0,0:0:0:0:
224,219,430511,2,0,L|231:163,1,56,0|0,1:0|0:0,0:0:0:0:
128,40,430911,5,0,1:0:0:0:
40,28,431111,1,0,1:0:0:0:
68,120,431310,5,0,0:0:0:0:
156,132,431510,1,0,3:0:0:0:
183,44,431710,6,0,P|155:40|127:39,1,56,8|0,1:0|0:0,0:0:0:0:
188,224,432110,2,0,P|215:228|243:229,1,56,4|0,0:0|0:0,0:0:0:0:
100,212,432510,5,0,1:0:0:0:
12,200,432710,1,0,0:0:0:0:
84,308,432910,5,0,3:0:0:0:
172,320,433110,1,0,3:0:0:0:
244,230,433310,6,0,P|255:180|250:107,2,112,8|0|6,1:0|1:0|1:0,0:0:0:0:
164,32,434310,1,0,1:0:0:0:
336,32,434510,1,4,0:0:0:0:
116,112,434710,1,0,1:0:0:0:
393,112,434909,6,2,L|245:120,1,140,8|6,1:0|1:0,1:0:0:0:
472,108,435509,1,0,0:0:0:0:
84,144,435709,2,2,L|168:148,1,70,4|0,1:0|1:0,1:0:0:0:
420,192,436109,2,2,L|336:196,1,70,4|0,0:0|0:0,1:0:0:0:
52,232,436509,2,2,L|196:240,2,140,8|2|6,1:0|1:0|1:0,1:0:0:0:
360,280,437509,5,2,1:0:0:0:
360,280,437709,2,0,L|440:284,1,70,0|0,1:0|0:0,0:0:0:0:
244,384,438109,2,2,P|228:344|240:244,1,140,8|0,1:0|1:0,1:0:0:0:
296,84,438708,2,0,P|284:140|272:160,1,70,4|0,0:0|0:0,1:0:0:0:
136,312,439108,1,0,1:0:0:0:
336,352,439308,2,0,P|368:360|416:360,1,70,0|0,1:0|0:0,0:0:0:0:
432,100,439708,2,0,P|388:84|280:88,1,140,8|0,1:0|1:0,1:0:0:0:
164,92,440308,1,8,0:0:0:0:
36,108,440508,5,6,1:0:0:0:
36,108,440708,2,2,L|24:184,1,70,0|0,1:0|0:0,1:0:0:0:
0,276,441108,1,2,1:0:0:0:
212,204,441308,2,2,P|263:212|352:204,1,140,8|6,1:0|1:0,1:0:0:0:
400,288,441908,1,0,0:0:0:0:
304,124,442108,2,2,P|288:84|280:48,1,70,4|0,1:0|0:0,1:0:0:0:
204,284,442507,2,2,P|177:317|150:342,1,70,4|0,0:0|0:0,1:0:0:0:
400,288,442907,2,0,P|442:294|477:305,2,70,10|0|2,1:0|0:0|1:0,0:0:0:0:
198,214,443507,6,0,P|198:254|206:290,1,70,0|6,1:0|1:0,0:0:0:0:
400,192,443907,2,2,P|400:124|384:52,1,140,0|0,1:0|0:0,1:0:0:0:
256,40,444507,2,0,L|180:32,1,70,8|0,1:0|0:0,0:0:0:0:
68,140,444907,2,0,L|144:148,1,70,0|0,1:0|0:0,1:0:0:0:
256,164,445307,6,2,B|296:256|216:288|256:383,1,224,0|0,1:0|0:0,1:0:0:0:
255,381,446906,1,4,1:0:0:0:
440,236,450105,6,0,P|448:192|444:144,1,70,4|0,1:0|0:0,0:0:0:0:
448,148,450405,1,0,1:0:0:0:
448,132,450505,2,0,L|360:112,1,70,8|0,1:0|1:0,0:0:0:0:
224,188,450905,2,0,L|308:176,1,70,0|0,1:0|0:0,0:0:0:0:
379,116,451305,1,8,1:0:0:0:
328,32,451505,1,0,0:0:0:0:
236,88,451705,6,0,P|188:88|124:72,1,105,0|0,1:0|1:0,0:0:0:0:
108,60,452105,2,0,L|100:140,1,70,8|0,1:0|1:0,0:0:0:0:
0,232,452505,2,0,L|16:88,1,140,0|8,1:0|1:0,0:0:0:0:
15,92,453105,1,0,1:0:0:0:
96,256,453305,6,0,P|136:248|252:288,1,157.500006008148,4|0,1:0|1:0,0:0:0:0:
400,384,454104,2,0,P|376:364|352:284,1,105.000004005432,8|0,1:0|0:0,0:0:0:0:
328,104,454704,2,0,P|332:152|308:208,1,105.000004005432,0|0,1:0|0:0,0:0:0:0:
244,281,455304,2,0,L|180:289,1,52.5000020027161,0|0,1:0|0:0,0:0:0:0:
80,372,455704,2,0,L|188:384,1,105.000004005432,8|0,1:0|0:0,0:0:0:0:
184,383,456304,1,0,1:0:0:0:
408,304,456504,6,0,P|420:252|420:224,1,70,4|0,1:0|0:0,0:0:0:0:
328,104,456904,2,0,P|316:156|316:184,1,70,8|0,1:0|0:0,0:0:0:0:
212,252,457303,2,0,L|124:260,1,70,0|0,1:0|0:0,0:0:0:0:
128,264,457603,1,0,1:0:0:0:
112,272,457703,1,8,1:0:0:0:
88,172,457903,1,0,1:0:0:0:
68,72,458103,6,0,P|108:72|196:68,1,105,0|0,1:0|0:0,0:0:0:0:
208,52,458503,1,8,1:0:0:0:
397,106,458703,2,0,P|357:102|313:106,2,70,0|0|0,1:0|0:0|1:0,0:0:0:0:
448,216,459303,1,8,1:0:0:0:
512,116,459503,1,0,1:0:0:0:
348,208,459703,6,0,P|324:252|304:328,1,105.000004005432,4|2,1:0|0:0,0:0:0:0:
240,224,460303,1,0,1:0:0:0:
407,312,460503,2,0,P|431:268|451:192,1,105.000004005432,8|2,1:0|0:0,0:0:0:0:
327,103,461102,2,0,L|207:99,1,105.000004005432,0|0,1:0|0:0,0:0:0:0:
32,56,461702,1,0,1:0:0:0:
192,92,461902,1,2,0:0:0:0:
32,56,462102,2,0,P|24:104|36:168,1,105.000004005432,8|0,1:0|0:0,0:0:0:0:
260,368,462902,6,0,P|268:324|268:304,1,52.5000020027161,4|0,1:0|0:0,0:0:0:0:
268,316,463202,1,0,1:0:0:0:
268,316,463302,1,2,0:0:0:0:
212,252,463502,1,0,1:0:0:0:
360,252,463702,2,0,P|360:300|368:360,2,105.000004005432,8|2|4,1:0|0:0|1:0,0:0:0:0:
424,140,464702,5,0,0:0:0:0:
424,140,464803,1,0,1:0:0:0:
460,248,465003,1,0,0:0:0:0:
460,248,465103,1,0,1:0:0:0:
288,144,465302,1,8,1:0:0:0:
268,156,465702,1,2,0:0:0:0:
248,172,466101,6,0,L|188:168,1,52.5000020027161,4|0,1:0|0:0,0:0:0:0:
195,168,466401,1,0,1:0:0:0:
195,168,466501,1,2,0:0:0:0:
312,128,466701,1,0,1:0:0:0:
120,128,466901,2,0,P|88:132|16:132,1,105.000004005432,8|2,1:0|0:0,0:0:0:0:
200,76,467501,1,0,0:0:0:0:
312,128,467701,6,0,P|364:136|400:144,2,78.7500030040742,4|0|0,1:2|1:0|1:0,0:0:0:0:
284,284,468501,1,12,1:2:0:0:
180,272,468702,1,0,0:0:0:0:
180,272,468802,1,0,1:0:0:0:
292,320,469002,1,0,0:0:0:0:
316,316,469102,1,0,1:0:0:0:
340,312,469202,1,8,1:0:0:0:
360,308,469302,6,0,P|396:304|468:312,2,105.000004005432,4|2|8,1:0|0:0|1:0,0:0:0:0:
228,352,470302,1,0,0:0:0:0:
184,228,470502,1,2,0:0:0:0:
308,188,470702,1,0,0:0:0:0:
100,284,470902,6,0,P|84:244|84:196,2,78.7500030040742,4|0|0,1:0|1:0|1:0,0:0:0:0:
308,188,471702,2,0,P|304:136|284:84,1,105.000004005432,8|0,1:0|0:0,0:0:0:0:
285,86,472502,6,0,L|197:82,1,78.7500030040742,4|0,1:0|1:0,0:0:0:0:
176,68,472901,1,2,0:0:0:0:
160,168,473101,1,0,1:0:0:0:
380,124,473301,2,0,L|444:124,1,52.5000020027161,4|0,1:0|0:0,0:0:0:0:
432,124,473601,1,0,1:0:0:0:
432,124,473701,1,2,0:0:0:0:
456,224,473901,1,0,1:0:0:0:
276,224,474101,5,4,1:0:0:0:
184,312,474301,1,0,0:0:0:0:
184,312,474401,1,0,1:0:0:0:
304,352,474601,1,0,0:0:0:0:
304,352,474701,1,0,1:0:0:0:
208,164,474901,1,12,1:0:0:0:
192,164,475001,1,0,1:0:0:0:
180,164,475101,1,0,1:0:0:0:
168,168,475201,1,0,1:0:0:0:
156,172,475301,2,0,L|124:184,1,26.2500010013581,0|0,1:0|0:0,0:0:0:0:
4,296,475501,1,0,3:0:0:0:
48,292,475601,1,8,1:0:0:0:
96,272,475701,5,4,1:0:0:0:
148,112,486900,6,0,L|140:76,3,26.2500010013581,0|0|0|0,1:0|1:0|1:0|3:0,0:0:0:0:
236,132,487300,2,0,L|228:168,3,26.2500010013581,8|0|0|0,1:0|1:0|3:0|3:0,0:0:0:0:
308,204,487699,1,0,1:0:0:0:
324,184,487799,1,8,1:0:0:0:
328,156,487899,1,0,1:0:0:0:
324,132,487999,1,0,3:0:0:0:
332,108,488099,1,8,1:0:0:0:
352,92,488199,1,0,3:0:0:0:
376,84,488299,1,8,1:0:0:0:
400,88,488399,1,0,1:0:0:0:
420,104,488499,6,0,B|424:152|424:152|416:192|416:192|424:256,1,140,4|8,1:0|1:0,0:0:0:0:
448,340,489099,1,0,1:0:0:0:
300,248,489299,1,0,3:0:0:0:
200,228,489499,1,0,1:0:0:0:
220,128,489699,1,8,1:0:0:0:
312,152,489899,1,0,1:0:0:0:
236,324,490099,6,0,P|188:332|148:324,1,70,4|0,1:2|0:0,0:0:0:0:
44,276,490499,1,8,1:0:0:0:
44,276,490699,2,0,P|32:224|48:120,2,140,4|4|4,1:2|1:2|1:0,0:0:0:0:
200,228,491699,5,4,1:0:0:0:
300,248,491899,1,0,3:0:0:0:
220,128,492099,5,8,1:0:0:0:
120,108,492299,1,0,1:0:0:0:
268,36,492499,6,0,P|316:32|356:24,1,70,0|0,3:0|1:0,0:0:0:0:
440,124,492899,2,0,L|448:208,1,70,8|0,1:0|1:0,0:0:0:0:
440,220,493199,1,0,3:0:0:0:
429,248,493299,2,0,P|393:240|285:260,1,140,4|8,1:2|1:0,0:0:0:0:
83,136,493899,2,0,P|119:144|227:124,1,140,4|0,1:2|1:0,0:0:0:0:
324,24,494499,1,8,1:0:0:0:
176,16,494699,1,0,1:0:0:0:
324,24,494899,6,0,P|336:68|340:104,1,70,4|0,1:0|0:0,0:0:0:0:
300,220,495298,1,8,1:0:0:0:
219,127,495498,1,0,1:0:0:0:
408,184,495698,1,2,0:0:0:0:
268,324,495898,2,0,P|216:324|120:340,1,140,0|0,1:0|1:0,0:0:0:0:
384,280,496498,2,0,P|448:276|484:264,1,70,4|0,1:2|0:0,0:0:0:0:
408,184,496898,1,8,1:0:0:0:
219,127,497098,2,0,P|167:127|71:143,1,140,4|0,1:2|1:0,0:0:0:0:
16,256,497698,2,0,P|80:252|116:240,1,70,8|0,1:0|1:0,0:0:0:0:
196,240,498098,6,0,P|196:292|208:332,1,70,0|0,1:0|0:0,0:0:0:0:
320,164,498498,2,0,P|320:112|308:72,1,70,8|0,1:0|1:0,0:0:0:0:
96,64,498898,1,2,0:0:0:0:
128,159,499098,1,0,1:0:0:0:
219,127,499298,1,8,1:0:0:0:
187,32,499498,1,0,1:0:0:0:
96,64,499698,2,0,L|4:60,1,70,4|0,1:2|0:0,0:0:0:0:
0,184,500098,1,8,1:0:0:0:
96,276,500298,2,0,L|244:284,1,140,4|0,1:2|1:0,0:0:0:0:
376,364,500898,2,0,L|284:356,1,70,8|0,1:0|1:0,0:0:0:0:
484,244,501298,6,0,B|504:204|504:204|500:156|484:92,1,140,4|8,1:0|1:0,0:0:0:0:
352,227,501898,2,0,P|352:279|384:379,1,140,4|0,1:0|1:0,0:0:0:0:
484,244,502498,1,8,1:0:0:0:
368,152,502697,1,0,1:0:0:0:
228,196,502897,2,0,P|185:208|128:206,1,70,4|0,1:0|0:0,0:0:0:0:
12,184,503297,2,0,L|8:108,1,70,8|0,1:0|0:0,0:0:0:0:
120,0,503697,2,0,L|124:76,1,70,0|0,1:0|0:0,0:0:0:0:
224,80,504097,1,8,1:0:0:0:
316,92,504297,1,8,0:0:0:0:
160,345,504497,6,0,B|144:305|144:305|148:255|160:207,1,140,4|8,1:0|1:0,0:0:0:0:
316,92,505097,2,0,L|464:88,1,140,4|0,1:0|0:0,0:0:0:0:
508,264,505697,2,0,L|432:260,1,70,8|0,1:0|0:0,0:0:0:0:
260,336,506090,5,4,1:0:0:0:
160,345,506292,1,0,3:0:0:0:
8,272,506494,5,8,1:0:0:0:
108,263,506696,1,0,3:0:0:0:
236,164,506898,5,0,1:0:0:0:
200,168,506999,1,8,1:0:0:0:
164,172,507100,1,0,3:0:0:0:
368,28,507302,1,8,1:0:0:0:
328,40,507403,1,0,3:0:0:0:
288,48,507504,1,8,1:0:0:0:
248,56,507605,1,8,1:0:0:0:
209,60,507700,6,0,B|141:76|125:40|41:60,1,167.999994873047,4|8,1:0|1:0,0:0:0:0:
42,59,508699,1,0,1:0:0:0:
212,292,509299,2,0,L|224:244,1,41.9999987182618,0|0,1:0|3:0,0:0:0:0:
312,204,509699,1,0,1:0:0:0:
312,204,510099,1,8,1:0:0:0:
308,300,510299,1,0,1:0:0:0:
116,320,510499,1,4,1:3:0:0:
468,232,510899,6,0,B|448:160|496:140|472:64,1,167.999994873047,4|8,1:0|1:0,0:0:0:0:
472,66,511898,1,0,1:0:0:0:
224,32,512498,2,0,L|220:80,1,41.9999987182618,0|0,1:0|3:0,0:0:0:0:
128,128,512898,2,0,L|120:72,1,41.9999987182618,0|0,1:0|0:0,0:0:0:0:
224,32,513298,1,8,1:0:0:0:
128,128,513498,1,0,1:0:0:0:
24,204,513698,1,4,1:3:0:0:
24,204,514098,6,0,B|44:276|-4:296|20:372,1,167.999994873047,4|8,1:0|1:0,0:0:0:0:
19,369,515098,1,0,1:0:0:0:
264,228,515697,2,0,P|320:224|360:224,1,83.9999974365235,0|0,1:0|1:0,0:0:0:0:
347,223,516297,1,0,3:0:0:0:
347,223,516497,1,8,1:0:0:0:
272,128,516697,1,0,1:0:0:0:
172,216,516897,1,4,1:3:0:0:
112,144,517097,1,0,3:0:0:0:
260,332,517297,6,0,B|328:348|344:312|428:332,1,167.999994873047,4|8,1:0|1:0,0:0:0:0:
426,331,518297,2,0,B|430:295|430:295|430:243,1,83.9999974365235
512,128,518897,2,0,B|508:164|508:164|508:216,1,83.9999974365235,0|0,1:0|1:0,0:0:0:0:
508,211,519496,1,0,3:0:0:0:
416,204,519696,1,8,1:0:0:0:
320,208,519896,1,0,1:0:0:0:
224,204,520096,1,4,1:3:0:0:
224,204,520496,5,4,1:0:0:0:
416,148,523695,6,0,B|420:112|420:112|416:72,1,70,4|0,1:0|0:0,0:0:0:0:
332,8,524094,1,8,1:0:0:0:
260,188,524294,2,0,B|256:224|256:224|260:264,1,70,0|0,1:0|0:0,0:0:0:0:
368,352,524693,1,0,1:0:0:0:
368,352,524893,2,0,L|444:360,1,70,8|0,1:0|0:0,0:0:0:0:
259,257,525292,2,0,L|183:249,1,70,0|0,1:0|0:0,0:0:0:0:
68,344,525692,1,8,1:0:0:0:
48,180,525892,2,0,P|40:128|48:8,1,140,0|0,1:0|3:0,0:0:0:0:
176,60,526491,1,8,1:0:0:0:
272,156,526691,1,2,0:0:0:0:
189,249,526890,6,0,P|177:205|173:153,1,70,4|0,1:0|0:0,0:0:0:0:
360,80,527290,2,0,P|372:124|376:176,1,70,8|0,1:0|1:0,0:0:0:0:
272,348,527689,2,0,L|128:352,2,140,2|8|0,0:0|1:0|1:0,0:0:0:0:
189,249,528688,2,0,L|101:245,1,70,0|8,1:0|1:0,0:0:0:0:
333,276,529087,2,0,P|361:236|373:136,1,140,0|0,1:0|1:0,0:0:0:0:
472,276,529687,2,0,P|476:332|488:368,1,70,8|0,1:0|0:0,0:0:0:0:
488,96,530086,5,4,1:0:0:0:
360,48,530286,1,0,1:0:0:0:
240,120,530485,2,0,P|228:160|208:192,1,70,8|0,1:0|3:0,0:0:0:0:
152,296,530885,2,0,P|92:280|0:292,1,140,4|8,0:0|1:0,0:0:0:0:
228,380,531484,2,0,P|244:340|248:288,2,70,4|0|0,0:0|1:0|0:0,0:0:0:0:
88,248,532083,1,8,1:0:0:0:
32,152,532283,1,0,1:0:0:0:
100,72,532483,2,0,L|176:64,1,70,0|0,1:0|3:0,0:0:0:0:
283,176,532882,2,0,L|207:184,1,70,8|0,1:0|0:0,0:0:0:0:
360,40,533282,5,4,1:0:0:0:
512,80,533481,1,0,3:0:0:0:
368,136,533681,1,8,1:0:0:0:
448,0,533881,1,0,1:0:0:0:
460,156,534081,2,0,P|464:208|460:240,1,70,2|0,0:0|1:0,0:0:0:0:
332,244,534480,1,8,1:0:0:0:
472,360,534680,1,0,3:0:0:0:
284,344,534880,6,0,P|228:344|124:364,1,140,0|8,1:0|1:0,0:0:0:0:
24,268,535479,2,0,P|84:256|104:248,1,70,0|2,1:0|0:0,0:0:0:0:
184,192,535878,1,0,1:0:0:0:
288,168,536078,1,8,1:0:0:0:
392,184,536278,1,0,1:0:0:0:
184,192,536477,6,0,P|168:140|168:104,1,70,4|0,1:2|0:0,0:0:0:0:
392,64,536877,2,0,B|444:72|472:84|472:84|488:116|500:160,1,140,12|0,1:0|0:0,0:0:0:0:
285,265,537476,2,0,B|233:257|205:245|205:245|189:213|177:169,1,140,12|0,1:0|0:0,0:0:0:0:
392,184,538075,2,0,P|408:236|408:272,1,70,12|0,1:0|0:0,0:0:0:0:
288,168,538475,1,0,1:0:0:0:
392,64,538675,1,0,1:0:0:0:
228,24,538874,2,0,P|172:20|72:40,1,140,8|0,1:0|1:0,0:0:0:0:
8,128,539473,1,8,1:0:0:0:
80,344,539673,6,0,P|104:324|132:288,1,70,4|0,1:2|0:0,0:0:0:0:
112,120,540073,2,0,P|117:150|134:193,1,70,12|0,1:0|3:0,0:0:0:0:
131,186,540372,1,0,1:0:0:0:
131,186,540472,1,0,1:0:0:0:
300,272,540672,2,0,P|270:261|225:254,1,70,4|0,1:0|0:0,0:0:0:0:
80,344,541071,1,0,1:0:0:0:
372,384,541271,2,0,P|392:344|408:232,1,140,12|0,1:0|0:0,0:0:0:0:
408,250,541870,5,4,3:0:0:0:
420,224,541970,1,8,3:0:0:0:
416,196,542071,1,0,1:0:0:0:
400,172,542172,1,8,3:0:0:0:
376,156,542272,1,0,3:0:0:0:
356,136,542373,1,8,3:0:0:0:
344,112,542474,1,8,1:0:0:0:
344,84,542574,1,0,1:0:0:0:
352,56,542675,1,0,3:0:0:0:
372,36,542776,1,0,3:0:0:0:
400,28,542875,5,4,1:0:0:0:
324,236,543074,1,0,3:0:0:0:
224,104,543274,2,0,P|216:68|212:20,1,70,4|0,1:2|0:0,0:0:0:0:
416,152,543673,1,12,1:0:0:0:
184,296,543873,2,0,P|204:248|212:212,1,70,4|0,1:2|0:0,0:0:0:0:
212,35,544272,1,0,1:0:0:0:
52,224,544471,2,0,P|52:300|72:384,1,140,4|0,1:2|3:0,0:0:0:0:
204,384,545070,1,4,1:2:0:0:
136,148,545270,2,0,L|4:140,2,112,12|4|4,1:0|0:0|1:0,0:0:0:0:
268,80,546268,5,0,3:0:0:0:
416,152,546467,2,0,P|423:208|419:248,1,70,4|0,1:2|0:0,0:0:0:0:
500,328,546867,1,12,1:0:0:0:
269,218,547066,2,0,P|261:158|269:70,1,140,4|0,1:2|1:0,0:0:0:0:
400,48,547665,2,0,L|484:44,1,70,4|0,1:2|0:0,0:0:0:0:
180,8,548064,1,0,3:0:0:0:
88,100,548264,1,4,1:2:0:0:
130,226,548463,2,0,P|190:230|278:214,1,140,12|4,1:0|0:0,0:0:0:0:
268,217,549262,6,0,L|280:308,1,70,4|0,1:0|0:0,0:0:0:0:
88,100,549661,2,0,L|76:9,1,70,4|0,1:2|0:0,0:0:0:0:
392,100,550060,1,12,1:0:0:0:
392,100,550260,2,0,P|400:168|404:256,1,140,4|0,1:2|1:0,0:0:0:0:
152,356,550859,2,0,P|160:320|180:272,2,70,4|0|0,1:2|3:0|3:0,0:0:0:0:
320,376,551457,1,4,1:2:0:0:
268,217,551657,2,0,P|220:201|184:197,1,70,12|0,1:0|0:0,0:0:0:0:
20,256,552056,1,4,1:2:0:0:
324,81,552455,6,0,P|372:97|408:101,1,70,4|0,1:0|3:0,0:0:0:0:
160,52,552855,2,0,P|108:64|8:108,1,140,4|12,1:2|1:0,0:0:0:0:
249,284,553453,2,0,P|261:248|269:196,2,70,4|0|0,1:2|0:0|1:0,0:0:0:0:
144,360,554052,5,4,1:2:0:0:
68,260,554252,1,8,1:0:0:0:
168,180,554451,1,0,3:0:0:0:
249,284,554651,1,4,1:2:0:0:
68,260,554851,2,0,P|64:220|64:180,1,70,12|0,1:0|0:0,0:0:0:0:
240,48,555250,2,0,P|244:88|244:128,1,70,4|0,1:2|0:0,0:0:0:0:
249,284,555649,5,4,1:0:0:0:
249,284,555849,1,0,3:0:0:0:
360,280,556048,1,0,1:0:0:0:
360,280,556248,1,0,3:0:0:0:
464,312,556447,1,8,1:0:0:0:
464,312,556647,2,0,P|472:272|480:236,1,52.5000020027161,0|0,3:0|0:0,0:0:0:0:
500,160,557046,1,0,1:0:0:0:
360,280,557246,6,0,L|344:344,1,52.5000020027161,0|0,3:0|0:0,0:0:0:0:
264,204,557645,2,0,L|280:140,1,52.5000020027161,0|0,3:0|1:0,0:0:0:0:
400,80,558044,2,0,P|396:124|376:196,2,105.000004005432,8|4|4,1:0|0:0|1:0,0:0:0:0:
264,204,559042,5,2,1:2:0:0:
244,48,559242,1,2,1:2:0:0:
116,176,559441,1,2,1:2:0:0:
88,24,559641,1,8,1:0:0:0:
88,24,559841,2,0,P|48:24|12:32,1,52.5000020027161,2|0,1:2|0:0,0:0:0:0:
11,184,560240,1,2,1:2:0:0:
11,184,560439,6,0,P|51:184|115:176,1,105.000004005432,2|0,1:2|3:0,0:0:0:0:
204,128,561038,1,0,1:0:0:0:
264,204,561238,2,0,P|260:248|260:268,1,52.5000020027161,8|0,1:0|0:0,0:0:0:0:
356,352,561637,2,0,P|360:308|360:288,1,52.5000020027161,4|0,0:0|0:0,0:0:0:0:
151,332,562036,5,4,1:0:0:0:
243,348,562236,1,2,0:0:0:0:
259,256,562435,1,2,0:0:0:0:
167,240,562635,1,2,0:0:0:0:
360,299,562835,2,0,P|404:303|424:303,1,52.5000020027161,8|2,1:0|0:0,0:0:0:0:
328,176,563234,2,0,P|284:172|264:172,1,52.5000020027161,0|2,3:0|0:0,0:0:0:0:
167,240,563633,6,0,P|122:239|57:229,2,105.000004005432,4|0|10,0:0|1:0|1:2,0:0:0:0:
188,240,564531,1,2,0:0:0:0:
208,236,564631,1,2,0:0:0:0:
144,124,564831,1,2,0:0:0:0:
124,124,564930,1,2,0:0:0:0:
104,116,565030,1,2,0:0:0:0:
256,44,565230,6,0,L|336:52,1,70,4|0,1:0|0:0,0:0:0:0:
476,184,565629,1,8,1:0:0:0:
388,212,565829,1,8,1:0:0:0:
300,248,566029,2,0,B|316:300|316:300|288:404,1,140,2|8,0:0|1:0,0:0:0:0:
293,382,566629,1,2,0:0:0:0:
208,296,566828,5,0,1:0:0:0:
116,260,567028,1,0,1:0:0:0:
36,308,567228,1,8,1:0:0:0:
300,248,567428,2,0,P|352:256|448:236,1,140,8|0,1:0|1:0,0:0:0:0:
407,78,568028,2,0,P|399:130|411:170,1,70,8|0,1:0|0:0,0:0:0:0:
196,204,568427,6,0,P|204:140|196:92,1,105,4|0,1:0|0:0,0:0:0:0:
192,60,568827,1,8,1:0:0:0:
304,108,569027,1,8,1:0:0:0:
108,144,569227,2,0,P|74:142|28:152,1,70,2|0,0:0|1:0,0:0:0:0:
168,300,569627,2,0,P|201:301|248:292,1,70,8|0,1:0|0:0,0:0:0:0:
84,172,570026,2,0,P|50:170|4:180,1,70,0|0,1:0|1:0,0:0:0:0:
24,352,570426,1,8,1:0:0:0:
196,204,570626,2,0,P|244:196|340:204,1,140,8|0,1:0|1:0,0:0:0:0:
432,232,571226,1,8,1:0:0:0:
432,232,571425,1,2,0:0:0:0:
84,172,571625,6,0,P|60:128|52:76,1,70,4|0,1:0|0:0,0:0:0:0:
112,280,572025,2,8,P|85:322|44:355,1,70,8|8,1:0|1:0,1:0:0:0:
196,204,572425,2,0,P|246:205|295:224,1,70,0|0,3:0|0:0,0:0:0:0:
432,232,572824,2,0,B|448:184|448:184|444:104,1,105,8|0,1:0|0:0,0:0:0:0:
440,48,573224,5,0,1:0:0:0:
440,48,573424,1,0,1:0:0:0:
308,40,573624,1,8,1:0:0:0:
184,40,573824,2,0,P|168:100|180:188,1,140,8|0,1:0|1:0,0:0:0:0:
328,336,574423,2,0,P|336:296|332:260,1,70,8|0,1:0|1:0,0:0:0:0:
246,173,574823,6,0,L|162:177,1,70,4|0,1:0|1:0,0:0:0:0:
84,224,575223,1,8,1:0:0:0:
333,267,575423,2,0,L|417:263,1,70,8|2,1:0|0:0,0:0:0:0:
236,328,575822,1,2,1:2:0:0:
144,308,576022,1,8,1:0:0:0:
60,352,576222,1,2,0:0:0:0:
24,152,576422,5,4,1:0:0:0:
20,124,576522,1,8,1:0:0:0:
16,96,576622,1,0,1:0:0:0:
184,80,576822,1,8,1:0:0:0:
344,68,577022,1,0,3:0:0:0:
356,68,577122,1,0,3:0:0:0:
368,64,577222,1,0,1:0:0:0:
380,64,577321,1,0,3:0:0:0:
392,64,577421,1,0,3:0:0:0:
404,60,577521,1,0,3:0:0:0:
416,60,577621,5,8,1:0:0:0:
428,56,577721,1,0,1:0:0:0:
440,52,577821,1,0,3:0:0:0:
452,52,577921,1,8,1:0:0:0:
464,48,578021,6,0,P|468:88|468:128,1,70,4|0,1:0|0:0,0:0:0:0:
184,210,578421,2,0,P|165:168|197:64,1,140,12|0,1:0|0:0,0:0:0:0:
372,304,579020,2,0,P|330:294|244:349,1,140,4|0,1:0|0:0,0:0:0:0:
480,360,579618,2,0,P|496:320|492:284,1,70,4|0,1:0|0:0,0:0:0:0:
396,172,580018,1,8,1:0:0:0:
264,208,580217,2,0,L|116:196,1,140,0|0,1:0|1:0,0:0:0:0:
52,276,580816,1,8,1:0:0:0:
124,196,581016,1,0,1:0:0:0:
72,100,581215,6,0,P|68:48|72:8,1,70,0|0,1:0|1:0,0:0:0:0:
264,208,581614,2,0,P|280:260|248:344,1,140,12|0,1:0|0:0,0:0:0:0:
192,96,582213,2,0,P|244:72|336:104,1,140,4|0,1:0|0:0,0:0:0:0:
460,264,582812,2,0,P|416:272|380:256,1,70,4|0,1:0|0:0,0:0:0:0:
264,208,583211,1,8,1:0:0:0:
176,312,583411,1,0,1:0:0:0:
300,368,583610,1,8,1:0:0:0:
393,264,583810,6,0,P|397:232|397:180,1,70,0|0,1:0|0:0,0:0:0:0:
300,368,584409,5,4,1:0:0:0:
492,256,584608,1,0,3:0:0:0:
268,138,584808,2,0,P|264:170|264:222,1,70,4|0,1:2|0:0,0:0:0:0:
392,308,585207,1,8,1:0:0:0:
404,116,585407,2,0,P|407:81|407:46,1,70,4|0,1:2|0:0,0:0:0:0:
268,138,585806,1,0,1:0:0:0:
140,236,586006,1,4,1:2:0:0:
140,236,586405,5,0,0:0:0:0:
268,264,586604,1,4,1:2:0:0:
148,112,586804,2,0,P|142:50|148:0,2,112,12|4|4,1:0|0:0|1:0,0:0:0:0:
268,138,587802,6,0,P|272:190|264:226,1,70,0|4,3:0|1:2,0:0:0:0:
180,320,588201,1,0,0:0:0:0:
148,112,588401,2,0,P|144:64|148:36,1,70,12|4,1:0|0:0,0:0:0:0:
432,184,588800,2,0,P|396:200|360:204,1,70
46,293,589199,2,0,P|94:289|186:325,1,140,4|0,1:2|0:0,0:0:0:0:
320,384,589798,1,4,1:2:0:0:
268,138,589998,1,8,1:0:0:0:
179,319,590197,5,2,0:0:0:0:
260,272,590397,1,6,0:0:0:0:
360,284,590596,1,2,0:0:0:0:
46,293,590796,6,0,P|42:237|46:205,1,70,4|0,1:0|0:0,0:0:0:0:
460,240,591195,2,0,P|464:296|460:328,1,70,4|0,1:2|0:0,0:0:0:0:
179,319,591594,1,12,1:0:0:0:
179,319,591794,2,0,P|239:295|323:295,1,140,4|0,1:2|1:0,0:0:0:0:
88,136,592393,2,0,P|128:148|184:148,1,70,4|0,1:2|0:0,0:0:0:0:
308,16,592792,1,0,3:0:0:0:
168,4,592992,1,4,1:2:0:0:
313,293,593191,2,0,P|313:245|285:141,1,140,12|4,1:0|1:2,0:0:0:0:
291,155,593790,1,0,3:0:0:0:
208,300,593990,5,4,1:0:0:0:
404,200,594189,1,0,3:0:0:0:
156,150,594389,2,0,P|144:198|140:234,1,70,4|0,1:2|0:0,0:0:0:0:
372,72,594788,1,12,1:0:0:0:
372,72,594988,2,0,P|320:44|228:44,1,140,4|0,1:2|1:0,0:0:0:0:
404,200,595586,2,0,P|456:216|488:216,1,70,4|0,1:2|0:0,0:0:0:0:
156,150,595986,2,0,P|104:134|72:134,1,70,0|4,3:0|1:2,0:0:0:0:
298,361,596385,2,0,L|314:285,1,70,12|0,1:0|0:0,0:0:0:0:
256,144,596784,2,0,L|240:220,1,70,4|0,1:2|1:0,0:0:0:0:
241,212,597083,1,8,1:2:0:0:
241,212,597183,6,0,P|196:244|100:252,1,140,4|0,1:0|1:0,0:0:0:0:
0,196,597790,1,0,3:0:0:0:
68,324,597995,1,8,1:0:0:0:
86,155,598189,2,0,L|186:147,1,70,0|0,3:0|0:0,0:0:0:0:
444,264,598579,1,0,1:0:0:0:
336,332,598779,2,0,L|192:344,1,140,4|0,0:0|0:0,0:0:0:0:
86,155,599379,1,0,1:0:0:0:
86,155,599583,2,0,P|78:103|82:63,1,70,8|0,1:0|0:0,0:0:0:0:
268,164,599991,2,0,P|276:216|272:256,1,70,0|0,3:0|0:0,0:0:0:0:
180,40,600381,5,4,1:0:0:0:
344,40,600582,1,2,1:2:0:0:
180,40,600783,1,2,1:2:0:0:
344,40,600985,1,2,1:2:0:0:
436,168,601186,1,8,1:0:0:0:
268,164,601383,2,0,P|208:164|104:176,1,140,2|2,1:2|1:2,0:0:0:0:
32,288,601983,2,0,P|92:284|116:278,1,70,2|0,1:2|0:0,0:0:0:0:
208,352,602342,1,0,1:0:0:0:
374,314,602572,1,0,1:0:0:0:
402,310,602679,1,0,3:0:0:0:
430,306,602786,2,0,P|442:230|433:156,1,140,8|0,1:0|0:0,0:0:0:0:
435,167,603399,1,0,3:0:0:0:
376,72,603584,6,0,L|300:76,1,70,4|0,1:0|0:0,0:0:0:0:
256,192,603981,2,0,L|336:188,1,70,0|0,3:0|0:0,0:0:0:0:
248,296,604378,1,8,0:0:0:0:
248,296,604610,2,0,P|248:348|240:380,1,70,2|0,0:0|0:0,0:0:0:0:
128,296,605010,2,0,P|124:236|136:144,1,140,2|0,3:2|0:0,0:0:0:0:
164,36,605554,5,2,1:2:0:0:
345,36,605768,1,0,3:0:0:0:
256,192,605982,1,12,0:0:0:0:
256,192,606779,12,0,609963,0:0:0:0:
