osu file format v14

[General]
AudioFilename: audio.mp3
AudioLeadIn: 0
PreviewTime: 151738
Countdown: 0
SampleSet: Soft
StackLeniency: 0.7
Mode: 0
LetterboxInBreaks: 0
WidescreenStoryboard: 0

[Editor]
Bookmarks: 3813,24011,57279,95299,152332,209358,228368,304408
DistanceSpacing: 0.9
BeatDivisor: 8
GridSize: 32
TimelineZoom: 2.2

[Metadata]
Title:Somebody Else
TitleUnicode:Somebody Else
Artist:The 1975
ArtistUnicode:The 1975
Creator:AirinCat
Version:Extra
Source:
Tags:english electronic r&b rnb synth pop The1975 alternative indie rock I Like It When You Sleep, for You Are So Beautiful Yet Unaware of It Matty Healy Adam Hann Ross MacDonald George Daniel
BeatmapID:4271944
BeatmapSetID:2046501

[Difficulty]
HPDrainRate:6
CircleSize:3.6
OverallDifficulty:8
ApproachRate:9
SliderMultiplier:2.2
SliderTickRate:1

[Events]
//Background and Video events
0,0,"110dfs.png",0,0
//Break Periods
//Storyboard Layer 0 (Background)
//Storyboard Layer 1 (Fail)
//Storyboard Layer 2 (Pass)
//Storyboard Layer 3 (Foreground)
//Storyboard Layer 4 (Overlay)
//Storyboard Sound Samples

[TimingPoints]
2630,594.059405940594,4,2,1,30,1,0
3818,-142.857142857143,4,2,1,30,0,0
4709,-333.333333333333,4,2,1,30,0,0
5006,-333.333333333333,4,2,1,5,0,0
8570,-111.111111111111,4,2,1,30,0,0
9461,-500,4,2,1,30,0,0
9757,-500,4,2,1,5,0,0
13323,-142.857142857143,4,2,1,30,0,0
14214,-333.333333333336,4,2,1,30,0,0
14510,-333.333333333336,4,2,1,5,0,0
17481,-250.000000000001,4,2,1,30,0,0
18075,-142.857142857143,4,2,1,30,0,0
18966,-1000,4,2,1,30,0,0
19262,-1000,4,2,1,5,0,0
22828,-111.111111111111,4,2,1,30,0,0
23719,-166.666666666666,4,2,1,30,0,0
24461,-142.857142857143,4,2,1,30,0,0
26095,-111.111111111111,4,2,1,30,0,0
26986,-142.857142857143,4,2,1,30,0,0
28768,-111.111111111111,4,2,1,30,0,0
29362,-125,4,2,1,30,0,0
32629,-111.111111111111,4,2,1,30,0,0
33521,-142.857142857143,4,2,1,30,0,0
35303,-111.111111111111,4,2,1,30,0,0
36491,-142.857142857143,4,2,1,30,0,0
37382,-111.111111111111,4,2,1,30,0,0
38867,-125,4,2,1,30,0,0
39461,-142.857142857143,4,2,1,30,0,0
41540,-111.111111111111,4,2,1,30,0,0
43026,-142.857142857143,4,2,1,30,0,0
43917,-111.111111111111,4,2,1,30,0,0
45996,-142.857142857143,4,2,1,30,0,0
48966,-111.111111111111,4,2,1,30,0,0
51936,-142.857142857143,4,2,1,30,0,0
56095,-142.857142857143,4,2,1,40,0,0
56986,-142.857142857143,4,2,1,60,0,0
57283,-71.4285714285714,4,2,1,60,0,0
94115,-62.5,4,2,1,70,0,0
114313,-71.4285714285714,4,2,1,50,0,0
133322,-71.4285714285714,4,2,1,56,0,0
149362,-90.9090909090909,4,2,1,40,0,0
152035,-90.9090909090909,4,2,1,60,0,0
152332,-66.6666666666667,4,2,1,60,0,0
188570,-66.6666666666667,4,2,1,70,0,0
209362,-83.3333333333333,4,2,1,60,0,0
211144,-66.6666666666667,4,2,1,60,0,0
211738,-83.3333333333333,4,2,1,60,0,0
213520,-66.6666666666667,4,2,1,60,0,0
214115,-83.3333333333333,4,2,1,60,0,0
215897,-66.6666666666667,4,2,1,60,0,0
216342,-83.3333333333333,4,2,1,60,0,0
220649,-66.6666666666667,4,2,1,60,0,0
221540,-83.3333333333333,4,2,1,60,0,0
225402,-66.6666666666667,4,2,1,60,0,0
232604,-66.6666666666667,4,2,1,20,0,0
232678,-66.6666666666667,4,2,1,60,0,0
232752,-66.6666666666667,4,2,1,20,0,0
232827,-66.6666666666667,4,2,1,60,0,0
232901,-66.6666666666667,4,2,1,20,0,0
232975,-66.6666666666667,4,2,1,60,0,0
233049,-66.6666666666667,4,2,1,20,0,0
233124,-66.6666666666667,4,2,1,60,0,0
239065,-83.3333333333333,4,2,1,60,0,0
239659,-66.6666666666667,4,2,1,60,0,0
241441,-83.3333333333333,4,2,1,60,0,0
242109,-83.3333333333333,4,2,1,20,0,0
242183,-83.3333333333333,4,2,1,60,0,0
242257,-83.3333333333333,4,2,1,20,0,0
242331,-83.3333333333333,4,2,1,60,0,0
242406,-83.3333333333333,4,2,1,20,0,0
242480,-83.3333333333333,4,2,1,60,0,0
242554,-83.3333333333333,4,2,1,20,0,0
242628,-83.3333333333333,4,2,1,60,0,0
244412,-66.6666666666667,4,2,1,60,0,0
245600,-66.6666666666667,4,2,1,64,0,0
247382,-66.6666666666667,4,2,1,70,0,0
266392,-62.5,4,2,1,70,0,0
266689,-62.5,4,2,1,76,0,1
294610,-55.5555555555556,4,2,1,76,0,1
294907,-62.5,4,2,1,76,0,1
304115,-62.5,4,2,1,56,0,0
304412,-83.3333333333333,4,2,1,50,0,0

[Colours]
Combo1 : 198,141,138
Combo2 : 241,186,146

[HitObjects]
149,308,3818,6,0,P|74:311|18:361,1,153.999995300293,2|0,0:0|0:0,0:0:0:0:
98,199,4709,2,0,P|233:322|437:313,1,395.999987915039,2|0,0:0|0:0,0:0:0:0:
436,313,8570,6,0,B|406:226|446:200|412:117,1,197.99999395752,2|0,0:0|0:0,0:0:0:0:
510,54,9461,2,0,B|369:71|398:115|260:136,1,264,2|0,0:0|0:0,0:0:0:0:
262,136,13323,6,0,P|217:75|233:2,1,153.999995300293,2|0,0:0|0:0,0:0:0:0:
0,98,14214,2,0,P|145:162|165:323,1,329.9999899292,2|0,0:0|0:0,0:0:0:0:
360,371,17481,2,2,B|386:356|386:356|396:353|396:353|403:348|403:348|425:343,1,66,2|0,0:1|0:0,0:1:0:0:
512,271,18075,6,0,B|443:248|416:273|352:245,1,153.999995300293,2|0,0:0|0:0,0:0:0:0:
60,364,18966,2,0,B|122:352|120:333|185:324,1,132,2|0,0:0|0:0,0:0:0:0:
185,323,22828,6,0,P|194:272|207:214,2,98.9999969787599,2|0|0,0:0|0:0|0:0,0:0:0:0:
36,31,23719,2,0,P|66:43|109:53,1,65.9999979858399,2|0,0:0|0:0,0:0:0:0:
105,60,24461,5,0,3:0:0:0:
105,60,24610,2,0,P|75:157|65:219,1,153.999995300293,8|0,0:0|0:0,0:0:0:0:
127,298,25501,1,0,3:0:0:0:
127,298,25649,1,0,3:0:0:0:
127,298,25798,1,8,0:0:0:0:
344,147,26095,6,0,P|312:133|285:127,1,49.4999984893799,0|0,3:0|0:0,0:0:0:0:
225,252,26392,2,0,P|274:278|334:290,1,98.9999969787599,2|0,0:0|3:0,0:0:0:0:
379,374,26837,1,0,3:0:0:0:
379,374,26986,2,0,P|409:304|423:215,1,153.999995300293,8|0,0:0|0:0,0:0:0:0:
240,16,27877,5,0,3:0:0:0:
240,16,28026,1,0,3:0:0:0:
240,16,28174,2,0,P|222:70|215:127,1,115.49999647522,8|0,0:0|0:0,0:0:0:0:
281,191,28768,2,0,P|325:210|372:199,1,98.9999969787599,2|0,3:2|3:0,0:0:0:0:
188,221,29214,1,0,3:0:0:0:
188,221,29362,2,0,P|106:194|33:238,1,176,8|0,0:0|0:0,0:0:0:0:
299,370,30253,1,0,3:0:0:0:
299,370,30402,1,0,3:0:0:0:
299,370,30550,2,0,P|410:349|486:349,1,176,8|0,0:0|0:0,0:0:0:0:
250,151,31441,1,0,3:0:0:0:
250,151,31590,1,0,3:0:0:0:
250,151,31738,2,0,P|156:175|63:185,1,176,8|0,0:0|0:0,0:0:0:0:
77,184,32629,6,0,P|71:158|66:125,1,49.4999984893799,0|0,3:0|0:0,0:0:0:0:
151,284,32927,2,0,P|157:309|162:343,1,49.4999984893799,8|0,3:2|0:0,0:0:0:0:
57,273,33224,2,0,P|33:279|10:288,1,49.4999984893799,0|0,3:0|0:0,0:0:0:0:
177,193,33521,2,0,P|247:216|288:224,1,115.49999647522,2|0,0:0|0:0,0:0:0:0:
359,275,34115,2,0,P|392:149|391:120,1,153.999995300293,8|0,0:0|0:0,0:0:0:0:
211,24,35006,1,0,3:0:0:0:
211,24,35154,1,0,3:0:0:0:
211,24,35303,1,8,0:0:0:0:
286,183,35600,6,0,P|295:145|296:116,1,49.4999984893799,0|0,3:0|0:0,0:0:0:0:
81,58,35897,2,0,P|61:113|60:159,1,98.9999969787599,2|0,0:0|3:0,0:0:0:0:
148,279,36342,1,0,3:0:0:0:
148,279,36491,2,0,P|169:205|181:129,1,153.999995300293,8|0,0:0|0:0,0:0:0:0:
181,128,37382,6,0,P|214:117|235:114,1,49.4999984893799,0|0,3:0|0:0,0:0:0:0:
388,195,37679,2,0,P|354:189|326:180,1,49.4999984893799,8|0,3:2|0:0,0:0:0:0:
320,43,37976,2,0,P|333:67|338:98,1,49.4999984893799,0|0,3:0|0:0,0:0:0:0:
277,340,38273,2,0,P|243:274|244:200,1,148.49999546814,2|0,0:0|0:0,0:0:0:0:
96,107,38867,2,0,P|125:166|128:235,1,132,8|0,0:0|0:0,0:0:0:0:
144,241,39461,2,0,P|100:278|44:287,1,115.49999647522,0|0,3:0|0:0,0:0:0:0:
37,300,40055,2,0,P|0:234|0:158,1,153.999995300293,8|0,0:0|0:0,0:0:0:0:
131,189,40946,1,0,3:0:0:0:
131,189,41095,1,0,3:0:0:0:
131,189,41243,1,8,0:0:0:0:
312,101,41540,5,2,0:0:0:0:
399,314,41837,2,0,P|408:288|414:261,1,49.4999984893799,0|0,3:0|0:0,0:0:0:0:
215,202,42134,2,0,P|206:220|201:254,1,49.4999984893799,0|0,3:0|0:0,0:0:0:0:
271,373,42431,2,0,B|282:300|314:296|321:227,1,148.49999546814,10|0,0:0|0:0,0:0:0:0:
284,117,43026,2,0,P|373:157|446:156,1,153.999995300293,0|8,3:0|0:0,0:0:0:0:
253,0,43917,6,0,P|204:11|160:34,1,98.9999969787599,0|0,3:0|0:0,0:0:0:0:
160,33,44511,2,0,P|176:79|182:128,1,98.9999969787599,0|8,3:0|0:0,0:0:0:0:
60,362,45105,2,0,P|48:339|44:304,1,49.4999984893799,0|0,3:0|0:0,0:0:0:0:
97,236,45402,2,0,B|146:235|177:267|252:268,1,148.49999546814,2|0,0:0|0:0,0:0:0:0:
317,349,45996,2,0,P|345:277|348:201,1,153.999995300293,8|0,0:0|0:0,0:0:0:0:
233,8,46887,5,0,3:0:0:0:
233,8,47035,1,0,3:0:0:0:
233,8,47184,2,0,P|219:45|215:125,1,115.49999647522,8|0,0:0|0:0,0:0:0:0:
150,181,47778,2,0,P|106:169|71:167,1,76.9999976501466,2|0,0:0|3:0,0:0:0:0:
312,136,48224,1,0,3:0:0:0:
312,136,48372,2,0,P|353:149|390:157,1,76.9999976501466,8|0,0:0|0:0,0:0:0:0:
82,384,48966,2,0,B|56:314|78:287|50:231,1,148.49999546814,2|0,3:2|0:0,0:0:0:0:
116,165,49560,1,8,0:0:0:0:
116,165,50006,6,0,P|191:231|297:228,1,197.99999395752,2|0,0:0|0:0,0:0:0:0:
373,261,50748,2,0,P|430:182|425:85,1,197.99999395752,8|0,0:0|0:0,0:0:0:0:
281,0,51639,1,0,3:0:0:0:
281,0,51788,1,0,3:0:0:0:
281,0,51936,2,0,B|245:7|245:7|226:15|226:15|210:15|167:28,1,115.49999647522,8|0,0:0|0:0,0:0:0:0:
169,27,52530,6,0,P|186:103|188:194,2,153.999995300293,2|8|0,0:0|0:0|0:0,0:0:0:0:
65,191,54313,2,0,P|40:102|47:33,1,153.999995300293,8|0,0:0|0:0,0:0:0:0:
256,192,55055,12,2,56095,0:0:0:0:
125,305,56689,5,8,0:1:0:0:
125,305,56986,5,8,0:3:0:0:
358,227,57134,1,4,0:3:0:0:
254,354,57283,1,2,1:2:0:0:
254,354,57580,6,0,P|249:315|246:277,1,76.9999976501466,0|0,3:2|3:2,0:0:0:0:
0,183,57877,2,0,P|77:180|164:165,1,153.999995300293,8|0,0:2|3:2,0:0:0:0:
512,31,58471,2,0,P|435:33|348:49,1,153.999995300293,0|0,1:2|3:2,0:0:0:0:
323,128,58916,1,0,3:2:0:0:
167,76,59065,2,0,P|155:23|157:-29,1,76.9999976501466,8|0,0:2|0:0,0:0:0:0:
262,55,59362,5,0,3:2:0:0:
177,162,59511,1,0,3:2:0:0:
75,126,59659,2,0,P|36:128|0:138,1,76.9999976501466,0|0,1:2|0:0,0:0:0:0:
176,343,59956,2,0,P|175:303|165:250,1,76.9999976501466,0|0,3:2|3:2,0:0:0:0:
350,149,60253,2,0,P|402:175|459:181,1,115.49999647522,8|0,0:2|0:0,0:0:0:0:
458,181,60550,2,0,P|469:143|472:101,1,76.9999976501466,0|0,3:2|3:2,0:0:0:0:
355,296,60847,2,0,P|317:304|282:320,1,76.9999976501466,2|0,1:2|0:0,0:0:0:0:
108,159,61144,2,0,P|188:123|266:114,1,153.999995300293,0|10,3:2|0:2,0:0:0:0:
254,114,61738,6,0,P|242:153|235:204,1,76.9999976501466,0|0,3:2|3:0,0:0:0:0:
487,384,62035,2,0,P|501:327|511:264,1,115.49999647522,2|0,1:2|0:0,0:0:0:0:
510,270,62332,2,0,P|471:259|432:256,1,76.9999976501466,0|0,3:2|3:2,0:0:0:0:
276,358,62629,2,0,P|187:348|119:330,1,153.999995300293,10|0,0:2|3:2,0:0:0:0:
12,55,63223,2,0,P|100:64|169:83,1,153.999995300293,0|0,1:2|3:2,0:0:0:0:
224,152,63669,1,0,3:2:0:0:
382,95,63817,2,0,P|385:56|395:16,1,76.9999976501466,8|0,0:2|0:0,0:0:0:0:
304,0,64115,5,0,3:2:0:0:
304,0,64412,1,2,1:3:0:0:
246,73,64560,1,2,0:3:0:0:
326,169,64709,1,2,0:3:0:0:
266,234,64857,1,2,0:3:0:0:
137,179,65006,2,0,B|62:176|48:203|-25:210,1,153.999995300293,8|0,0:0|3:2,0:0:0:0:
0,125,65451,1,0,3:2:0:0:
124,325,65600,2,0,P|221:271|233:161,1,230.99999295044,2|0,1:2|3:2,0:0:0:0:
182,82,66194,5,10,0:2:0:0:
182,82,66491,1,2,3:1:0:0:
341,174,66639,1,0,3:2:0:0:
484,89,66788,1,2,1:2:0:0:
484,89,67085,6,0,P|446:81|408:74,1,76.9999976501466,0|0,3:2|3:2,0:0:0:0:
235,266,67382,2,0,P|246:221|256:169,1,76.9999976501466,8|0,0:2|0:0,0:0:0:0:
271,0,67679,2,0,P|280:37|288:74,1,76.9999976501466,0|0,3:2|3:0,0:0:0:0:
0,132,67976,2,0,P|73:158|154:175,1,153.999995300293,0|2,1:2|3:3,0:0:0:0:
147,174,68421,1,2,3:3:0:0:
86,279,68570,2,0,P|44:262|-2:251,1,76.9999976501466,8|0,0:2|0:0,0:0:0:0:
77,35,68867,2,0,P|118:51|200:78,1,115.49999647522,0|0,3:2|3:2,0:0:0:0:
190,89,69164,5,0,1:2:0:0:
401,1,69387,1,0,3:2:0:0:
401,1,69461,2,0,P|374:73|360:148,2,153.999995300293,0|8|0,3:2|0:2|3:2,0:0:0:0:
473,37,70204,1,0,3:2:0:0:
230,113,70352,6,0,P|119:105|62:11,1,230.99999295044,2|0,1:2|3:0,0:0:0:0:
188,214,70946,2,0,P|177:251|167:288,1,76.9999976501466,8|0,0:0|0:0,0:0:0:0:
0,231,71243,2,0,P|8:193|20:156,1,76.9999976501466,0|0,3:0|3:0,0:0:0:0:
313,170,71540,5,2,1:2:0:0:
313,170,71837,2,0,P|349:178|397:197,1,76.9999976501466,0|0,3:2|3:2,0:0:0:0:
453,363,72134,2,0,P|376:353|304:325,1,153.999995300293,10|0,0:2|3:2,0:0:0:0:
89,53,72728,2,0,P|165:62|237:90,1,153.999995300293,0|0,1:2|3:2,0:0:0:0:
259,172,73174,1,0,3:2:0:0:
129,321,73322,2,0,P|137:244|162:171,1,153.999995300293,8|0,0:2|3:2,0:0:0:0:
162,171,73916,5,2,1:3:0:0:
271,259,74065,1,2,0:3:0:0:
348,215,74214,1,2,0:3:0:0:
437,263,74362,1,2,0:3:0:0:
511,167,74511,2,0,P|501:130|494:93,1,76.9999976501466,8|0,0:0|0:0,0:0:0:0:
441,21,74808,1,0,3:2:0:0:
441,21,74956,1,0,3:2:0:0:
182,64,75105,2,0,P|240:88|305:106,1,115.49999647522,2|0,1:2|0:0,0:0:0:0:
290,102,75402,6,0,P|303:65|311:28,1,76.9999976501466,0|0,3:2|3:2,0:0:0:0:
72,140,75699,2,0,P|34:130|0:114,1,76.9999976501466,10|0,0:2|0:0,0:0:0:0:
213,279,75996,2,0,P|228:314|238:351,1,76.9999976501466,0|0,3:2|3:2,0:0:0:0:
0,248,76293,5,2,1:2:0:0:
0,248,76590,1,0,3:2:0:0:
0,248,76887,2,0,P|73:220|147:209,1,153.999995300293,8|0,0:2|3:2,0:0:0:0:
277,264,77332,1,0,3:0:0:0:
347,168,77481,2,0,P|341:129|327:94,1,76.9999976501466,0|0,1:2|0:0,0:0:0:0:
259,165,77778,1,0,3:2:0:0:
383,257,77926,1,0,3:2:0:0:
437,189,78075,2,0,P|477:178|515:173,1,76.9999976501466,8|0,0:2|0:0,0:0:0:0:
368,356,78372,2,0,P|328:367|290:372,1,76.9999976501466,2|2,3:3|3:3,0:0:0:0:
109,244,78669,6,0,P|90:150|88:84,1,153.999995300293,0|0,1:2|3:2,0:0:0:0:
152,32,79115,1,0,3:2:0:0:
241,118,79263,2,0,P|249:151|252:196,1,76.9999976501466,8|0,0:2|0:0,0:0:0:0:
11,261,79560,2,0,P|2:227|0:183,1,76.9999976501466,0|0,3:2|3:2,0:0:0:0:
312,277,79857,6,0,P|367:259|443:249,1,115.49999647522,2|0,1:2|0:0,0:0:0:0:
424,250,80154,2,0,P|485:264|513:276,1,76.9999976501466,0|0,3:0|3:0,0:0:0:0:
246,384,80451,1,10,0:0:0:0:
246,384,80748,2,0,P|232:343|226:303,1,76.9999976501466,0|0,3:0|3:0,0:0:0:0:
276,0,81045,6,0,P|294:58|308:126,1,115.49999647522,2|0,1:2|0:0,0:0:0:0:
305,111,81342,1,0,3:2:0:0:
250,179,81491,1,0,3:2:0:0:
491,172,81639,2,0,P|414:179|341:204,1,153.999995300293,10|0,0:2|3:2,0:0:0:0:
0,359,82233,2,0,P|76:351|149:326,1,153.999995300293,0|0,1:2|3:2,0:0:0:0:
204,248,82679,1,0,3:2:0:0:
92,86,82827,2,0,P|84:162|101:236,1,153.999995300293,8|0,0:2|3:2,0:0:0:0:
101,236,83421,5,2,1:3:0:0:
258,149,83570,1,2,0:3:0:0:
204,90,83718,1,2,0:3:0:0:
176,166,83867,1,2,0:3:0:0:
313,214,84015,1,8,0:0:0:0:
313,214,84313,2,0,P|355:198|392:192,1,76.9999976501466,0|0,3:2|3:2,0:0:0:0:
219,372,84610,1,2,1:2:0:0:
219,372,84907,2,0,P|206:333|203:290,1,76.9999976501466,2|0,3:2|3:2,0:0:0:0:
452,115,85204,1,10,0:2:0:0:
452,115,85501,6,0,B|465:150|487:182|487:182|491:225|484:260,1,153.999995300293,2|2,3:1|1:2,0:0:0:0:
99,291,86095,1,0,3:2:0:0:
191,240,86243,1,0,3:2:0:0:
322,362,86392,2,0,P|222:352|171:329,1,153.999995300293,8|0,0:2|3:2,0:0:0:0:
77,22,86986,2,0,P|106:103|109:177,1,153.999995300293,0|2,1:2|3:3,0:0:0:0:
27,148,87431,1,2,3:3:0:0:
190,9,87580,2,0,P|203:57|205:88,1,76.9999976501466,8|0,0:2|0:0,0:0:0:0:
375,212,87877,1,0,3:2:0:0:
375,212,88025,1,0,3:2:0:0:
318,148,88174,6,0,P|242:162|198:183,1,115.49999647522,0|0,1:2|0:0,0:0:0:0:
207,177,88471,2,0,P|219:215|226:256,1,76.9999976501466,0|0,3:2|3:2,0:0:0:0:
2,384,88768,2,0,P|72:352|164:339,1,153.999995300293,8|0,0:2|3:2,0:0:0:0:
331,277,89214,1,0,3:2:0:0:
336,377,89362,2,0,P|297:368|255:348,1,76.9999976501466,2|0,1:2|0:0,0:0:0:0:
421,203,89659,2,0,P|438:240|444:279,1,76.9999976501466,0|0,3:0|3:0,0:0:0:0:
223,199,89956,2,0,P|230:123|258:52,1,153.999995300293,10|0,0:0|3:0,0:0:0:0:
483,370,90550,5,2,1:2:0:0:
483,370,90847,2,0,P|446:363|407:355,1,76.9999976501466,0|0,3:2|3:2,0:0:0:0:
188,321,91144,2,0,P|111:325|44:361,1,153.999995300293,10|0,0:2|3:2,0:0:0:0:
44,361,91738,2,0,P|48:303|39:246,1,115.49999647522,0|0,1:2|0:0,0:0:0:0:
36,245,92035,2,0,P|29:207|10:173,1,76.9999976501466,2|0,3:2|3:2,0:0:0:0:
200,255,92332,2,0,P|227:204|242:148,1,115.49999647522,8|0,0:2|0:0,0:0:0:0:
240,146,92629,2,0,P|249:108|245:70,1,76.9999976501466,2|0,3:2|3:2,0:0:0:0:
431,241,92926,2,0,P|459:213|481:180,1,76.9999976501466,2|2,1:3|0:3,0:0:0:0:
419,116,93223,1,2,0:3:0:0:
359,328,93372,5,10,0:3:0:0:
482,333,93520,1,8,1:2:0:0:
331,170,93669,1,8,0:3:0:0:
228,368,93817,2,0,P|187:364|148:345,1,76.9999976501466,4|4,3:3|3:3,0:0:0:0:
180,8,94115,6,0,B|194:52|216:84|216:84|226:128|213:175,1,176,4|0,1:1|3:2,0:0:0:0:
0,272,94560,1,4,3:3:0:0:
86,132,94709,2,0,P|42:123|0:108,1,88,8|0,0:2|3:0,0:0:0:0:
329,183,95006,5,8,3:3:0:0:
100,255,95154,1,8,3:3:0:0:
273,384,95303,1,2,1:2:0:0:
273,384,95600,6,0,P|285:336|288:292,1,88,0|0,3:2|3:2,0:0:0:0:
171,56,95897,2,0,P|154:117|150:209,1,132,10|0,0:2|0:0,0:0:0:0:
148,185,96194,2,0,P|102:182|36:157,1,88,0|0,3:2|3:0,0:0:0:0:
340,14,96491,2,0,P|438:26|517:53,1,176,2|0,1:2|3:2,0:0:0:0:
511,50,96936,1,0,3:2:0:0:
322,214,97085,1,10,0:2:0:0:
322,214,97382,5,2,3:1:0:0:
463,170,97530,1,0,3:2:0:0:
470,337,97679,1,2,1:2:0:0:
470,337,97976,6,0,P|426:345|379:361,1,88,0|0,3:2|3:2,0:0:0:0:
171,211,98273,2,0,P|106:222|45:247,1,132,10|0,0:2|0:0,0:0:0:0:
44,247,98570,1,0,3:2:0:0:
104,320,98718,1,0,3:2:0:0:
316,170,98867,6,0,P|302:65|273:-15,1,176,6|0,1:2|3:0,0:0:0:0:
196,38,99313,1,0,3:0:0:0:
405,105,99461,2,0,P|398:61|385:19,1,88,8|0,0:0|0:0,0:0:0:0:
0,56,99758,2,0,P|54:121|160:119,1,176,4|2,3:2|1:2,0:0:0:0:
140,127,100352,6,0,P|95:137|43:158,1,88,0|0,3:2|3:2,0:0:0:0:
202,384,100649,2,0,P|193:306|170:249,1,132,10|0,0:2|0:0,0:0:0:0:
173,256,100946,2,0,P|212:236|255:226,1,88,0|0,3:2|3:0,0:0:0:0:
512,338,101243,2,0,P|427:343|371:279,1,176,2|0,1:2|3:2,0:0:0:0:
364,104,101689,1,0,3:2:0:0:
512,161,101837,2,0,P|455:177|415:201,1,88,10|0,0:2|0:0,0:0:0:0:
66,143,102134,6,0,P|135:109|248:89,1,176,2|2,3:1|1:2,0:0:0:0:
231,89,102728,1,0,3:2:0:0:
274,190,102877,1,0,3:2:0:0:
391,34,103025,1,10,0:2:0:0:
391,34,103322,1,0,3:2:0:0:
374,226,103471,1,0,3:2:0:0:
512,165,103619,2,0,P|434:131|343:118,1,176,6|0,1:2|3:0,0:0:0:0:
191,191,104065,1,0,3:0:0:0:
107,92,104214,2,0,P|113:48|128:4,1,88,8|0,0:0|0:0,0:0:0:0:
423,211,104511,2,0,P|410:298|381:380,1,176,4|2,3:2|1:2,0:0:0:0:
380,380,105105,5,0,3:2:0:0:
313,273,105253,1,0,3:2:0:0:
77,338,105402,2,0,P|138:360|205:365,1,132,10|0,0:2|0:0,0:0:0:0:
204,365,105699,2,0,P|218:318|223:273,1,88,0|0,3:2|3:0,0:0:0:0:
80,78,105996,2,0,P|67:119|61:163,1,88,2|0,1:2|0:0,0:0:0:0:
280,186,106293,1,0,3:2:0:0:
146,214,106441,1,0,3:2:0:0:
231,70,106590,1,10,0:2:0:0:
231,70,106887,5,2,3:1:0:0:
367,204,107035,1,0,3:2:0:0:
491,89,107184,1,2,1:2:0:0:
491,89,107481,6,0,P|444:97|399:112,1,88,0|0,3:2|3:2,0:0:0:0:
216,339,107778,2,0,P|299:325|392:295,1,176,10|0,0:2|3:2,0:0:0:0:
269,213,108223,1,0,3:2:0:0:
33,371,108372,6,0,P|2:288|1:192,1,176,6|0,1:2|3:0,0:0:0:0:
66,141,108817,1,0,3:0:0:0:
123,318,108966,2,0,P|112:273|108:232,1,88,8|0,0:0|0:0,0:0:0:0:
376,29,109263,2,0,P|308:82|221:82,1,176,4|2,3:2|1:2,0:0:0:0:
221,82,109857,5,0,3:2:0:0:
261,1,110006,1,0,3:2:0:0:
407,124,110154,2,0,P|445:135|509:142,1,88,10|0,0:2|0:0,0:0:0:0:
266,202,110451,2,0,P|251:244|244:291,1,88,0|0,3:2|3:0,0:0:0:0:
487,380,110748,2,0,P|479:312|446:246,1,132,2|0,1:2|0:0,0:0:0:0:
452,254,111045,2,0,P|407:267|367:285,1,88,0|0,3:2|3:2,0:0:0:0:
85,349,111342,1,10,0:2:0:0:
85,349,111639,2,0,P|126:366|177:377,1,88,2|0,3:1|3:2,0:0:0:0:
332,138,111936,5,2,1:3:0:0:
176,174,112085,1,2,0:3:0:0:
264,368,112233,1,2,3:3:0:0:
335,286,112382,1,2,3:3:0:0:
51,217,112530,2,0,P|119:251|225:274,1,176,10|0,0:2|3:2,0:0:0:0:
284,222,112976,1,0,3:2:0:0:
214,100,113124,2,0,P|223:56|240:5,1,88,2|0,1:2|3:0,0:0:0:0:
512,143,113421,6,0,P|454:149|375:193,1,132,0|0,3:0|0:0,0:0:0:0:
377,177,113718,1,10,0:0:0:0:
465,379,113867,2,0,P|480:325|494:262,1,88,2|0,0:2|3:2,0:0:0:0:
144,251,114164,5,0,3:0:0:0:
144,251,114238,1,0,3:0:0:0:
144,251,114313,2,0,P|205:294|280:287,1,153.999995300293,2|0,1:2|0:0,0:0:0:0:
271,207,114758,1,0,3:2:0:0:
280,286,114907,1,8,0:2:0:0:
224,4,115204,2,0,P|188:18|150:27,1,76.9999976501466,2|0,3:2|0:0,0:0:0:0:
168,141,115501,2,0,P|236:106|312:94,1,153.999995300293,0|2,1:2|3:3,0:0:0:0:
311,94,115946,1,2,3:3:0:0:
348,211,116095,1,8,0:2:0:0:
348,211,116540,5,0,3:2:0:0:
475,197,116689,1,0,1:2:0:0:
475,197,116986,6,0,L|498:112,1,76.9999976501466,0|0,3:2|3:2,0:0:0:0:
185,281,117283,2,0,P|258:306|334:317,1,153.999995300293,8|0,0:2|3:2,0:0:0:0:
390,252,117728,1,0,3:2:0:0:
316,161,117877,2,0,P|280:153|236:146,1,76.9999976501466,2|0,1:2|0:0,0:0:0:0:
105,234,118174,2,0,P|66:228|30:217,1,76.9999976501466,0|0,3:0|3:0,0:0:0:0:
67,34,118471,2,0,P|133:81|143:157,1,153.999995300293,10|0,0:2|3:2,0:0:0:0:
114,380,119065,6,0,P|150:369|189:365,1,76.9999976501466,2|0,1:2|0:0,0:0:0:0:
243,208,119362,2,0,P|254:244|262:282,1,76.9999976501466,0|0,0:0|3:2,0:0:0:0:
444,357,119659,2,0,P|519:274|504:163,1,230.99999295044,10|0,0:2|0:0,0:0:0:0:
418,101,120253,1,0,1:2:0:0:
418,101,120699,1,0,3:2:0:0:
297,173,120847,2,0,P|288:131|273:85,2,76.9999976501466,8|0|0,0:2|0:0|3:2,0:0:0:0:
297,173,121441,5,2,1:3:0:0:
397,287,121590,1,2,0:3:0:0:
397,188,121738,1,2,0:3:0:0:
397,188,121887,1,2,0:3:0:0:
161,304,122035,2,0,P|237:294|309:269,1,153.999995300293,8|0,0:0|3:2,0:0:0:0:
309,268,122481,1,0,3:2:0:0:
214,197,122629,2,0,P|177:208|139:214,1,76.9999976501466,2|0,1:2|0:0,0:0:0:0:
29,364,122926,2,0,P|48:321|52:282,1,76.9999976501466,0|0,3:2|3:2,0:0:0:0:
54,64,123223,1,10,0:2:0:0:
29,201,123372,2,0,P|8:156|-1:110,2,76.9999976501466,2|0|0,0:0|3:2|3:2,0:0:0:0:
246,288,123817,6,0,P|320:276|375:224,1,153.999995300293,2|0,1:2|0:0,0:0:0:0:
319,162,124263,1,0,3:2:0:0:
375,223,124412,1,8,0:2:0:0:
483,39,124709,2,0,P|499:73|511:110,1,76.9999976501466,2|0,3:2|0:0,0:0:0:0:
243,52,125006,2,0,P|325:10|409:4,1,153.999995300293,0|2,1:2|3:3,0:0:0:0:
385,2,125451,1,2,3:3:0:0:
368,111,125600,1,8,0:2:0:0:
368,111,126045,5,0,3:2:0:0:
233,139,126194,1,0,1:2:0:0:
233,139,126491,6,0,P|198:153|156:166,1,76.9999976501466,0|0,3:2|3:2,0:0:0:0:
385,362,126788,2,0,P|446:319|458:245,1,153.999995300293,8|0,0:2|3:2,0:0:0:0:
415,167,127233,1,0,3:2:0:0:
491,124,127382,2,0,P|501:86|508:49,1,76.9999976501466,2|0,1:2|0:0,0:0:0:0:
268,183,127679,2,0,P|302:201|340:210,1,76.9999976501466,0|0,3:0|3:0,0:0:0:0:
285,52,127976,2,0,P|209:57|159:125,1,153.999995300293,10|0,0:2|3:2,0:0:0:0:
31,384,128570,6,0,P|14:352|6:308,1,76.9999976501466,2|0,1:2|0:0,0:0:0:0:
192,250,128867,2,0,P|209:282|217:326,1,76.9999976501466,0|0,0:0|3:2,0:0:0:0:
104,331,129164,2,0,P|67:221|42:108,1,230.99999295044,10|0,0:2|0:0,0:0:0:0:
239,45,129758,2,0,P|275:154|300:267,1,230.99999295044,2|0,1:2|3:2,0:0:0:0:
429,348,130352,2,0,P|464:233|486:112,1,230.99999295044,10|0,0:2|0:0,0:0:0:0:
422,7,130946,5,2,1:3:0:0:
296,82,131095,1,2,0:3:0:0:
379,182,131243,1,2,0:3:0:0:
393,94,131392,1,2,0:3:0:0:
143,155,131540,2,0,P|200:177|302:188,1,153.999995300293,8|8,0:0|3:3,0:0:0:0:
198,69,131986,5,4,3:3:0:0:
22,197,132134,2,0,P|-15:145|10:48,1,153.999995300293,2|0,1:2|3:2,0:0:0:0:
83,0,132580,1,0,3:2:0:0:
83,0,132654,1,0,3:2:0:0:
83,0,132728,2,0,P|98:33|107:85,1,76.9999976501466,10|0,0:2|0:0,0:0:0:0:
3,303,133025,5,2,3:1:0:0:
115,176,133174,1,0,3:2:0:0:
302,194,133322,1,2,1:2:0:0:
302,194,133619,6,0,P|313:157|318:119,1,76.9999976501466,2|0,3:2|3:2,0:0:0:0:
85,275,133916,2,0,P|143:277|252:321,2,153.999995300293,10|2|2,0:2|3:2|1:2,0:0:0:0:
464,212,134808,2,0,P|423:205|376:187,1,76.9999976501466,2|0,3:2|3:2,0:0:0:0:
306,89,135105,1,8,0:2:0:0:
306,89,135402,5,2,3:1:0:0:
194,184,135550,1,0,3:2:0:0:
281,329,135699,1,0,1:2:0:0:
281,329,135996,6,0,P|294:293|300:245,1,76.9999976501466,2|0,3:2|3:2,0:0:0:0:
116,57,136293,2,0,P|85:123|71:211,1,153.999995300293,10|2,0:2|3:2,0:0:0:0:
124,277,136738,1,0,3:2:0:0:
364,181,136887,2,0,P|312:155|255:144,1,115.49999647522,2|0,1:2|0:0,0:0:0:0:
255,144,137184,2,0,P|214:150|173:167,1,76.9999976501466,2|0,3:2|3:0,0:0:0:0:
349,354,137481,1,8,0:2:0:0:
349,354,137778,6,0,P|361:319|371:277,1,76.9999976501466,2|0,3:1|3:0,0:0:0:0:
126,228,138075,1,2,1:2:0:0:
126,228,138372,5,2,3:2:0:0:
164,297,138520,1,0,3:2:0:0:
280,170,138669,2,0,P|271:82|241:12,1,153.999995300293,10|0,0:2|3:2,0:0:0:0:
417,224,139263,2,0,P|453:211|491:205,1,76.9999976501466,2|0,1:2|0:0,0:0:0:0:
366,384,139560,2,0,P|356:347|345:301,1,76.9999976501466,0|0,3:2|3:2,0:0:0:0:
512,100,139857,1,10,0:2:0:0:
512,100,140451,5,2,1:3:0:0:
429,77,140600,1,2,0:3:0:0:
371,157,140748,1,2,0:3:0:0:
274,94,140897,1,2,0:3:0:0:
214,246,141045,2,0,P|185:152|189:76,1,153.999995300293,8|0,0:0|3:2,0:0:0:0:
287,180,141491,1,0,3:2:0:0:
167,317,141639,2,0,P|116:326|84:340,1,76.9999976501466,2|0,1:2|0:0,0:0:0:0:
21,125,141936,2,0,P|60:145|102:159,1,76.9999976501466,2|0,3:2|3:2,0:0:0:0:
317,86,142233,2,0,P|333:51|343:11,1,76.9999976501466,8|0,0:2|0:0,0:0:0:0:
170,73,142530,5,2,3:1:0:0:
281,194,142679,1,0,3:2:0:0:
461,184,142827,1,2,1:2:0:0:
461,184,143124,6,0,P|424:171|382:161,1,76.9999976501466,2|0,3:2|3:2,0:0:0:0:
177,293,143421,2,0,P|248:320|339:335,2,153.999995300293,10|2|2,0:2|3:2|1:2,0:0:0:0:
15,86,144313,2,0,P|62:96|101:116,1,76.9999976501466,2|0,3:2|3:2,0:0:0:0:
78,293,144610,1,8,0:2:0:0:
78,293,144907,5,2,3:1:0:0:
156,179,145055,1,0,3:2:0:0:
287,210,145204,1,0,1:2:0:0:
287,210,145501,6,0,P|301:174|307:136,1,76.9999976501466,2|0,3:2|3:2,0:0:0:0:
76,0,145798,2,0,P|138:19|207:31,1,115.49999647522,10|0,0:2|0:0,0:0:0:0:
187,28,146095,2,0,P|168:65|163:108,1,76.9999976501466,2|0,3:2|3:2,0:0:0:0:
383,251,146392,2,0,P|412:154|417:82,2,153.999995300293,2|0|10,1:2|3:2|0:2,0:0:0:0:
162,375,147283,1,0,3:2:0:0:
383,251,147580,6,0,P|345:243|308:231,1,76.9999976501466,2|0,1:2|0:0,0:0:0:0:
93,235,147877,2,0,P|133:243|183:266,1,76.9999976501466,0|0,3:2|3:2,0:0:0:0:
266,28,148174,2,0,P|241:78|226:186,1,153.999995300293,10|0,0:2|3:2,0:0:0:0:
406,376,148768,2,0,P|421:337|427:292,1,76.9999976501466,2|0,1:2|0:0,0:0:0:0:
492,154,149065,2,0,P|505:190|512:227,1,76.9999976501466,0|0,3:2|3:2,0:0:0:0:
225,174,149362,6,0,P|260:186|349:189,1,121.000003692627,10|0,0:2|0:0,0:0:0:0:
116,105,149956,2,0,P|26:119|-17:141,1,121.000003692627,0|0,3:0|0:0,0:0:0:0:
102,232,150550,2,2,B|140:86|173:145|197:-11,1,242.000007385254,0|2,3:0|0:0,0:1:0:0:
330,330,151738,5,8,0:1:0:0:
330,330,152035,5,8,0:3:0:0:
195,249,152184,1,4,0:3:0:0:
42,342,152332,1,2,1:2:0:0:
42,342,152629,6,0,P|27:303|20:262,1,82.5000031471254,0|0,3:2|3:2,0:0:0:0:
197,35,152926,2,0,P|216:93|228:154,1,123.750004720688,8|0,0:2|0:0,0:0:0:0:
228,154,153223,2,0,P|188:167|148:177,1,82.5000031471254,0|0,3:2|3:0,0:0:0:0:
341,382,153520,2,0,P|390:318|387:237,1,165.000006294251,0|0,1:2|3:2,0:0:0:0:
296,241,153966,1,0,3:2:0:0:
459,84,154115,6,0,P|470:123|484:162,1,82.5000031471254,8|0,0:2|0:0,0:0:0:0:
305,153,154412,1,0,3:2:0:0:
365,58,154560,1,0,3:2:0:0:
83,13,154709,2,0,P|160:51|241:66,1,165.000006294251,0|0,1:2|3:2,0:0:0:0:
237,65,155154,1,0,3:2:0:0:
167,254,155303,2,0,P|188:208|196:161,1,82.5000031471254,8|0,0:2|0:0,0:0:0:0:
65,122,155600,2,0,P|44:168|36:215,1,82.5000031471254,0|0,3:2|3:2,0:0:0:0:
326,260,155897,6,0,P|399:220|480:206,1,165.000006294251,2|0,1:2|3:2,0:0:0:0:
471,288,156342,1,0,3:0:0:0:
299,20,156491,2,0,P|260:92|245:173,1,165.000006294251,10|0,0:2|3:2,0:0:0:0:
245,173,157085,6,0,P|232:134|222:92,1,82.5000031471254,2|0,1:2|0:0,0:0:0:0:
126,305,157382,2,0,P|139:344|148:384,1,82.5000031471254,0|0,3:2|3:2,0:0:0:0:
284,303,157679,2,0,P|397:260|512:315,1,247.500009441376,10|0,0:2|3:0,0:0:0:0:
433,384,158273,2,0,P|387:317|399:237,1,165.000006294251,0|0,1:2|3:2,0:0:0:0:
479,183,158718,1,0,3:2:0:0:
416,40,158867,2,0,P|351:87|339:167,1,165.000006294251,8|0,0:2|3:2,0:0:0:0:
338,166,159461,5,2,1:3:0:0:
220,313,159610,1,2,0:3:0:0:
145,142,159758,1,2,0:3:0:0:
258,184,159907,1,2,0:3:0:0:
29,272,160055,2,0,P|90:246|193:232,1,165.000006294251,8|0,0:0|3:2,0:0:0:0:
123,333,160501,1,0,3:2:0:0:
7,160,160649,2,0,P|30:81|45:0,1,165.000006294251,2|0,1:2|3:2,0:0:0:0:
45,0,161095,1,0,3:2:0:0:
181,145,161243,2,0,P|194:102|200:55,1,82.5000031471254,10|0,0:2|0:0,0:0:0:0:
64,92,161540,5,2,3:1:0:0:
184,236,161689,1,0,3:2:0:0:
369,176,161837,1,2,1:2:0:0:
369,176,162134,6,0,P|328:168|288:158,1,82.5000031471254,0|0,3:2|3:2,0:0:0:0:
44,313,162431,2,0,P|126:326|215:355,1,165.000006294251,8|0,0:2|3:2,0:0:0:0:
512,48,163025,2,0,P|486:127|470:227,1,165.000006294251,0|2,1:2|3:3,0:0:0:0:
378,228,163471,1,2,3:3:0:0:
441,383,163619,2,0,P|451:339|458:287,1,82.5000031471254,8|0,0:2|0:0,0:0:0:0:
293,86,163916,2,0,P|272:144|262:205,1,123.750004720688,0|0,3:2|3:2,0:0:0:0:
269,216,164214,5,0,1:2:0:0:
30,317,164436,1,0,3:2:0:0:
30,316,164511,2,0,P|89:257|172:254,2,165.000006294251,0|8|0,3:2|0:2|3:2,0:0:0:0:
107,350,165253,1,0,3:2:0:0:
0,88,165402,6,0,P|58:144|138:148,1,165.000006294251,2|0,1:2|3:0,0:0:0:0:
103,62,165847,1,0,3:0:0:0:
254,140,165996,2,0,P|266:98|273:51,1,82.5000031471254,8|0,0:0|0:0,0:0:0:0:
108,265,166293,2,0,P|119:303|127:353,1,82.5000031471254,0|0,3:0|3:0,0:0:0:0:
399,299,166590,5,2,1:2:0:0:
399,299,166887,1,0,3:2:0:0:
399,299,167184,2,0,P|315:271|235:255,2,165.000006294251,10|0|0,0:2|3:2|1:2,0:0:0:0:
399,299,168075,1,0,3:2:0:0:
512,228,168223,1,0,3:2:0:0:
449,33,168372,2,0,P|424:101|402:207,1,165.000006294251,8|0,0:2|3:2,0:0:0:0:
404,191,168966,5,2,1:3:0:0:
274,309,169115,1,2,0:3:0:0:
237,118,169263,1,2,0:3:0:0:
322,208,169412,1,2,0:3:0:0:
67,248,169560,2,0,P|148:242|224:211,1,165.000006294251,8|0,0:0|3:2,0:0:0:0:
130,149,170006,1,0,3:2:0:0:
169,374,170154,5,2,1:2:0:0:
169,374,170451,2,0,P|162:333|150:293,1,82.5000031471254,0|0,3:2|3:2,0:0:0:0:
17,112,170748,2,0,P|6:152|0:193,1,82.5000031471254,10|0,0:2|0:0,0:0:0:0:
120,205,171045,1,0,3:2:0:0:
120,205,171194,1,0,3:2:0:0:
399,108,171342,6,0,P|316:117|227:153,1,165.000006294251,2|0,1:2|3:2,0:0:0:0:
213,234,171788,1,0,3:2:0:0:
43,79,171936,2,0,P|79:98|118:111,1,82.5000031471254,8|0,0:2|0:0,0:0:0:0:
295,17,172233,2,0,P|253:27|205:51,1,82.5000031471254,0|0,3:2|3:0,0:0:0:0:
256,315,172530,5,0,1:2:0:0:
256,315,172827,1,0,3:2:0:0:
213,188,172976,1,0,3:2:0:0:
467,148,173124,2,0,P|388:168|319:129,1,165.000006294251,8|2,0:2|3:3,0:0:0:0:
319,254,173570,1,2,3:3:0:0:
319,129,173718,6,0,P|431:158|469:278,1,247.500009441376,0|0,1:2|3:2,0:0:0:0:
286,383,174313,2,0,P|217:341|198:263,1,165.000006294251,8|0,0:2|3:2,0:0:0:0:
241,196,174758,1,0,3:2:0:0:
115,303,174907,2,0,P|80:314|21:325,1,82.5000031471254,2|0,1:2|0:0,0:0:0:0:
304,284,175204,2,0,P|344:273|393:264,1,82.5000031471254,0|0,3:0|3:0,0:0:0:0:
160,0,175501,2,0,P|143:52|126:173,1,165.000006294251,10|0,0:0|3:0,0:0:0:0:
126,160,176095,6,0,P|118:123|103:71,1,82.5000031471254,2|0,1:2|0:0,0:0:0:0:
313,0,176392,2,0,P|305:37|290:89,1,82.5000031471254,0|0,3:2|3:2,0:0:0:0:
412,246,176689,2,0,P|343:202|261:202,2,165.000006294251,10|0|0,0:2|3:2|1:2,0:0:0:0:
412,246,177580,1,0,3:2:0:0:
349,307,177728,1,0,3:2:0:0:
475,384,177877,2,0,P|496:293|516:197,1,165.000006294251,8|0,0:2|3:2,0:0:0:0:
511,223,178471,5,2,1:3:0:0:
300,207,178619,1,2,0:3:0:0:
349,349,178768,1,2,0:3:0:0:
393,270,178916,1,2,0:3:0:0:
192,303,179065,2,0,P|118:266|37:256,1,165.000006294251,8|0,0:0|3:2,0:0:0:0:
55,343,179511,1,0,3:2:0:0:
173,186,179659,1,2,1:2:0:0:
173,186,179956,2,0,P|133:174|92:167,1,82.5000031471254,2|0,3:2|3:2,0:0:0:0:
276,380,180253,1,10,0:2:0:0:
276,380,180550,6,0,B|299:334|307:292|307:292|304:258|308:218,1,165.000006294251,2|2,3:1|1:2,0:0:0:0:
232,0,181144,1,0,3:2:0:0:
184,101,181293,1,0,3:2:0:0:
0,82,181441,2,0,P|70:39|151:25,1,165.000006294251,8|0,0:2|3:2,0:0:0:0:
501,53,182035,2,0,P|425:87|336:96,1,165.000006294251,0|2,1:2|3:3,0:0:0:0:
258,74,182481,1,2,3:3:0:0:
330,277,182629,2,0,P|346:233|349:180,1,82.5000031471254,8|0,0:2|0:0,0:0:0:0:
114,116,182926,2,0,P|98:160|95:213,1,82.5000031471254,0|0,3:2|3:2,0:0:0:0:
174,384,183223,2,0,B|178:308|216:287|218:214,2,165.000006294251,0|0|8,1:2|3:2|0:2,0:0:0:0:
174,384,184115,5,0,3:2:0:0:
280,343,184263,1,0,3:2:0:0:
62,178,184412,2,0,P|127:226|210:218,1,165.000006294251,2|0,1:2|3:0,0:0:0:0:
296,177,184857,1,0,3:0:0:0:
227,10,185006,2,0,P|213:45|207:98,1,82.5000031471254,10|0,0:0|0:0,0:0:0:0:
403,145,185303,2,0,P|417:110|423:57,1,82.5000031471254,0|0,3:0|3:0,0:0:0:0:
161,322,185600,5,2,1:2:0:0:
161,322,185897,1,0,3:2:0:0:
161,322,186194,2,0,P|243:322|309:274,1,165.000006294251,10|0,0:2|3:2,0:0:0:0:
108,2,186788,2,0,P|81:49|65:126,1,123.750004720688,0|0,1:2|0:0,0:0:0:0:
60,125,187085,2,0,P|62:166|72:206,1,82.5000031471254,2|0,3:2|3:2,0:0:0:0:
362,16,187382,2,0,P|311:35|250:85,1,123.750004720688,8|0,0:2|0:0,0:0:0:0:
247,81,187679,2,0,P|223:114|205:151,1,82.5000031471254,2|0,3:2|3:2,0:0:0:0:
489,195,187976,2,0,P|448:186|407:182,1,82.5000031471254,2|2,1:3|0:3,0:0:0:0:
339,243,188273,1,2,0:3:0:0:
482,103,188421,5,10,0:3:0:0:
303,149,188570,1,8,1:2:0:0:
480,296,188718,1,8,0:3:0:0:
246,267,188867,2,0,P|209:277|147:288,1,82.5000031471254,4|4,3:3|3:3,0:0:0:0:
322,0,189164,2,0,P|372:61|393:148,1,165.000006294251,4|0,1:1|3:2,0:0:0:0:
299,335,189610,1,4,3:3:0:0:
87,202,189758,2,0,P|95:156|114:93,1,82.5000031471254,8|0,0:2|3:0,0:0:0:0:
251,152,190055,5,8,3:3:0:0:
80,303,190204,1,8,3:3:0:0:
367,244,190352,1,2,1:2:0:0:
367,244,190649,5,0,3:2:0:0:
287,311,190798,1,0,3:2:0:0:
195,61,190946,2,0,P|285:67|369:123,1,165.000006294251,10|0,0:2|3:2,0:0:0:0:
59,337,191540,2,0,P|24:264|28:177,1,165.000006294251,2|0,1:2|3:2,0:0:0:0:
89,109,191986,1,0,3:2:0:0:
256,176,192134,2,0,P|270:212|278:261,1,82.5000031471254,10|0,0:2|0:0,0:0:0:0:
133,238,192431,5,2,3:1:0:0:
246,72,192580,1,0,3:2:0:0:
421,174,192728,1,2,1:2:0:0:
421,174,193025,6,0,P|436:132|449:85,1,82.5000031471254,0|0,3:2|3:2,0:0:0:0:
130,90,193322,2,0,P|176:155|255:175,1,165.000006294251,10|0,0:2|3:2,0:0:0:0:
328,104,193768,1,0,3:2:0:0:
192,384,193916,2,0,P|302:334|343:207,1,247.500009441376,6|0,1:2|3:0,0:0:0:0:
458,156,194511,2,0,P|461:196|479:244,1,82.5000031471254,8|0,0:0|0:0,0:0:0:0:
195,269,194808,2,0,P|170:183|164:101,1,165.000006294251,4|2,3:2|1:2,0:0:0:0:
163,107,195402,5,0,3:2:0:0:
287,167,195550,1,0,3:2:0:0:
406,14,195699,2,0,P|310:26|230:62,1,165.000006294251,10|0,0:2|3:2,0:0:0:0:
0,284,196293,2,0,P|81:276|157:243,1,165.000006294251,2|0,1:2|3:2,0:0:0:0:
88,177,196738,1,0,3:2:0:0:
89,365,196887,2,0,P|138:357|178:341,1,82.5000031471254,10|0,0:2|0:0,0:0:0:0:
504,241,197184,2,0,P|429:205|348:195,1,165.000006294251,2|2,3:1|1:2,0:0:0:0:
348,195,197778,5,0,3:2:0:0:
407,314,197926,1,0,3:2:0:0:
503,147,198075,1,10,0:2:0:0:
503,147,198372,5,0,3:2:0:0:
424,31,198520,1,0,3:2:0:0:
192,209,198669,2,0,P|304:172|326:56,1,247.500009441376,6|0,1:2|3:0,0:0:0:0:
142,0,199263,2,0,P|188:12|248:23,1,82.5000031471254,8|0,0:0|0:0,0:0:0:0:
51,237,199560,2,0,P|-5:180|0:101,1,165.000006294251,4|2,3:2|1:2,0:0:0:0:
0,101,200154,6,0,P|38:91|90:69,1,82.5000031471254,0|0,3:2|3:2,0:0:0:0:
238,302,200451,2,0,P|135:325|76:354,1,165.000006294251,10|0,0:2|3:2,0:0:0:0:
395,7,201045,2,0,P|425:68|430:129,1,123.750004720688,2|0,1:2|0:0,0:0:0:0:
431,122,201342,2,0,P|397:139|339:150,1,82.5000031471254,0|0,3:2|3:2,0:0:0:0:
214,29,201639,1,10,0:2:0:0:
214,29,201936,5,2,3:1:0:0:
75,169,202085,1,0,3:2:0:0:
227,291,202233,1,2,1:2:0:0:
227,291,202530,6,0,P|238:251|246:211,1,82.5000031471254,0|0,3:2|3:2,0:0:0:0:
36,20,202827,2,0,P|76:89|154:106,1,165.000006294251,10|0,0:2|3:2,0:0:0:0:
175,14,203273,1,0,3:2:0:0:
438,25,203421,2,0,P|317:27|249:126,1,247.500009441376,6|0,1:2|3:0,0:0:0:0:
399,228,204015,2,0,P|394:187|382:147,1,82.5000031471254,8|0,0:0|0:0,0:0:0:0:
80,164,204313,2,0,P|86:245|116:322,1,165.000006294251,4|2,3:2|1:2,0:0:0:0:
116,322,204907,5,0,3:2:0:0:
218,333,205055,1,0,3:2:0:0:
313,196,205204,2,0,P|245:209|192:232,1,123.750004720688,10|0,0:2|0:0,0:0:0:0:
195,230,205501,2,0,P|185:180|169:141,1,82.5000031471254,0|0,3:2|3:0,0:0:0:0:
429,0,205798,2,0,P|461:88|468:167,1,165.000006294251,2|0,1:2|3:2,0:0:0:0:
394,218,206243,1,0,3:2:0:0:
232,89,206392,1,10,0:2:0:0:
232,89,206689,2,0,P|272:83|312:72,1,82.5000031471254,2|0,3:1|3:2,0:0:0:0:
404,350,206986,5,2,1:3:0:0:
223,245,207134,1,2,0:3:0:0:
322,172,207283,1,2,3:3:0:0:
265,361,207431,1,2,3:3:0:0:
47,327,207580,6,0,P|20:271|20:195,1,123.750004720688,14|0,0:2|0:0,0:0:0:0:
5,207,207877,2,0,P|16:157|41:120,1,82.5000031471254,0|0,3:2|3:2,0:0:0:0:
431,223,208174,2,0,P|458:167|458:91,1,123.750004720688,4|0,1:2|0:0,0:0:0:0:
473,103,208471,2,0,P|462:53|437:16,1,82.5000031471254,0|0,3:2|3:2,0:0:0:0:
160,129,208768,5,8,0:2:0:0:
160,129,209065,1,2,3:2:0:0:
337,228,209214,1,0,3:2:0:0:
80,237,209362,1,0,1:2:0:0:
80,237,209659,6,0,P|120:227|147:220,1,65.9999979858399,0|0,3:0|0:0,0:0:0:0:
325,369,209956,1,8,0:2:0:0:
205,335,210105,1,0,3:0:0:0:
299,258,210253,1,0,3:0:0:0:
205,335,210402,1,0,3:0:0:0:
398,293,210550,2,0,P|431:200|415:104,1,197.99999395752,0|0,1:2|0:0,0:0:0:0:
160,0,211144,6,2,P|142:79|164:158,1,165.000006294251,12|2,0:2|0:0,0:1:0:0:
164,158,211590,1,2,0:0:0:0:
320,14,211738,5,0,1:2:0:0:
320,14,212035,2,0,P|311:47|305:90,1,65.9999979858399,0|0,3:0|0:0,0:0:0:0:
384,245,212332,1,8,0:2:0:0:
480,176,212481,1,0,3:0:0:0:
299,177,212629,1,0,3:0:0:0:
424,82,212778,1,0,3:0:0:0:
299,177,212926,2,0,P|216:126|118:115,1,197.99999395752,0|0,1:2|0:0,0:0:0:0:
52,314,213520,6,2,P|125:358|217:363,1,165.000006294251,12|2,0:2|0:0,0:1:0:0:
203,365,213966,1,2,0:0:0:0:
193,199,214115,5,0,1:2:0:0:
193,199,214412,2,0,P|182:230|172:261,1,65.9999979858399,0|0,3:2|0:2,0:2:0:0:
442,137,214709,2,0,P|431:105|424:73,1,65.9999979858399,8|0,0:2|0:0,0:0:0:0:
202,16,215006,2,0,P|193:47|182:79,1,65.9999979858399,0|0,3:2|0:2,0:2:0:0:
336,152,215303,5,0,1:2:0:0:
180,90,215451,2,0,P|234:55|298:66,1,131.99999597168,0|0,3:2|0:2,0:2:0:0:
400,382,215897,6,2,P|328:348|317:269,1,165.000006294251,12|0,0:2|0:0,0:1:0:0:
406,226,216342,6,0,P|445:237|472:246,1,65.9999979858399,2|0,0:0|1:2,0:0:0:0:
227,208,216639,2,0,P|192:224|164:232,1,65.9999979858399,2|0,0:0|0:0,0:0:0:0:
298,66,216936,2,0,P|289:30|280:2,2,65.9999979858399,2|8|0,0:0|0:2|0:0,0:0:0:0:
405,121,217382,2,0,P|437:115|479:105,1,65.9999979858399,2|0,0:0|0:0,0:0:0:0:
201,87,217679,6,0,P|137:97|76:123,1,131.99999597168,2|0,1:2|0:0,0:0:0:0:
48,50,218124,1,0,3:0:0:0:
187,192,218273,1,8,0:2:0:0:
14,187,218421,1,2,3:3:0:0:
104,244,218570,1,2,3:3:0:0:
14,187,218718,1,2,3:3:0:0:
155,83,218867,5,0,1:2:0:0:
155,83,219164,2,0,P|165:48|171:10,1,65.9999979858399,0|0,3:0|0:0,0:0:0:0:
392,80,219461,1,8,0:2:0:0:
267,152,219610,1,0,3:0:0:0:
392,80,219758,1,0,3:0:0:0:
283,61,219907,1,0,3:0:0:0:
366,166,220055,2,0,P|427:194|493:191,1,131.99999597168,0|0,1:2|0:0,0:0:0:0:
490,191,220501,1,0,0:0:0:0:
239,347,220649,6,2,P|307:303|394:304,1,165.000006294251,12|2,0:2|0:0,0:1:0:0:
389,302,221095,1,2,0:0:0:0:
220,126,221243,5,0,1:2:0:0:
220,126,221540,2,0,P|212:158|205:194,1,65.9999979858399,0|0,3:0|0:0,0:0:0:0:
82,336,221837,1,8,0:2:0:0:
38,213,221986,1,0,3:0:0:0:
156,264,222134,1,0,3:0:0:0:
0,298,222283,1,0,3:0:0:0:
0,111,222431,2,0,P|64:121|124:148,1,131.99999597168,0|0,1:2|3:0,0:0:0:0:
124,148,222877,1,0,3:0:0:0:
316,63,223025,5,10,0:2:0:0:
253,160,223174,1,2,0:0:0:0:
316,63,223322,1,2,0:0:0:0:
253,160,223471,1,2,0:0:0:0:
133,21,223619,5,0,1:2:0:0:
133,21,223916,2,0,P|158:33|203:46,1,65.9999979858399,0|0,3:0|0:0,0:0:0:0:
491,112,224214,2,0,P|418:126|355:161,1,131.99999597168,10|0,0:2|3:0,0:0:0:0:
313,229,224659,1,0,0:0:0:0:
447,304,224808,1,2,1:2:0:0:
353,382,224956,2,0,P|339:352|332:319,1,65.9999979858399,0|0,3:0|3:0,0:0:0:0:
332,319,225253,1,0,3:0:0:0:
175,212,225402,6,2,P|95:218|46:282,1,165.000006294251,12|0,0:2|0:0,0:1:0:0:
106,339,225847,1,2,1:0:0:0:
82,127,225996,5,0,1:2:0:0:
271,260,226144,2,0,P|282:220|290:179,1,82.5000031471254,8|8,0:0|0:3,0:0:0:0:
247,66,226441,5,10,0:3:0:0:
439,277,226590,2,0,P|452:231|458:176,1,82.5000031471254,0|0,1:2|0:0,0:0:0:0:
386,115,226887,1,2,0:0:0:0:
386,115,227035,1,0,3:0:0:0:
290,179,227184,6,0,P|208:169|131:138,1,165.000006294251,0|0,1:2|0:0,0:0:0:0:
0,283,227629,1,2,0:2:0:0:
0,283,227704,1,2,0:2:0:0:
0,283,227778,2,0,P|16:244|22:191,1,82.5000031471254,8|2,0:2|0:0,0:0:0:0:
52,36,228075,2,2,B|49:120|12:129|3:196,1,165.000006294251,2|0,0:0|1:2,0:1:0:0:
3,192,228520,6,0,P|84:191|143:266,1,165.000006294251,0|0,3:0|3:0,0:0:0:0:
275,384,228966,2,0,P|257:342|255:301,1,82.5000031471254,8|0,0:2|0:0,0:0:0:0:
418,196,229263,2,0,P|379:210|339:220,1,82.5000031471254,0|0,3:0|0:0,0:0:0:0:
184,26,229560,2,0,P|214:115|218:193,1,165.000006294251,0|0,1:2|3:0,0:0:0:0:
218,185,230006,1,0,3:0:0:0:
95,384,230154,6,2,P|67:306|62:224,1,165.000006294251,12|2,0:2|0:0,0:1:0:0:
62,224,230600,1,2,0:0:0:0:
294,296,230748,5,0,1:2:0:0:
315,171,230897,1,0,3:0:0:0:
461,222,231045,2,0,P|421:226|381:238,1,82.5000031471254,0|0,3:0|0:0,0:0:0:0:
160,40,231342,5,8,0:2:0:0:
213,138,231491,1,0,3:0:0:0:
306,84,231639,1,0,3:0:0:0:
248,2,231788,1,0,3:0:0:0:
113,125,231936,2,0,P|113:196|140:295,1,165.000006294251,0|0,1:2|3:0,0:0:0:0:
136,286,232382,1,0,3:0:0:0:
364,217,232530,6,0,L|349:162,1,41.2500015735627,10|0,0:0|0:0,0:0:0:0:
290,333,232679,2,0,L|305:388,1,41.2500015735627,8|0,0:1|0:0,0:0:0:0:
375,214,232827,2,0,L|360:159,1,41.2500015735627,8|0,0:1|0:0,0:0:0:0:
280,339,232976,2,0,L|295:394,1,41.2500015735627,8|0,0:1|0:0,0:0:0:0:
189,217,233124,6,0,P|224:221|270:241,1,82.5000031471254,0|0,1:2|0:0,0:0:0:0:
512,313,233421,2,0,P|475:331|434:339,1,82.5000031471254,0|0,3:0|0:0,0:0:0:0:
399,24,233718,2,0,P|424:70|437:166,1,123.750004720688,8|0,0:2|0:0,0:0:0:0:
449,139,234015,2,0,P|466:95|472:52,1,82.5000031471254,0|0,3:0|0:0,0:0:0:0:
157,113,234313,5,0,1:2:0:0:
330,127,234461,2,0,P|291:57|213:41,1,165.000006294251,0|0,3:0|0:0,0:0:0:0:
30,284,234907,2,2,P|105:277|154:190,1,165.000006294251,12|0,0:2|0:0,0:1:0:0:
78,150,235352,1,2,1:2:0:0:
182,328,235501,5,0,1:2:0:0:
342,165,235649,2,0,P|307:152|263:138,1,82.5000031471254,10|0,0:0|0:0,0:0:0:0:
153,207,235946,5,10,0:3:0:0:
156,0,236095,2,0,P|166:42|179:91,1,82.5000031471254,0|0,1:2|0:0,0:0:0:0:
287,48,236392,1,2,0:0:0:0:
287,48,236540,1,0,3:0:0:0:
102,284,236689,6,0,P|168:237|249:243,1,165.000006294251,0|0,1:2|0:0,0:0:0:0:
354,311,237134,1,2,0:0:0:0:
354,311,237209,1,2,0:0:0:0:
354,311,237283,1,10,0:2:0:0:
249,243,237431,1,2,0:0:0:0:
320,137,237580,1,2,0:0:0:0:
422,198,237728,1,2,0:0:0:0:
338,220,237877,5,0,1:2:0:0:
69,116,238174,5,0,3:0:0:0:
69,116,238471,1,8,0:2:0:0:
210,172,238619,1,0,3:0:0:0:
261,35,238768,1,0,3:0:0:0:
121,2,238916,1,0,3:0:0:0:
168,99,239065,2,0,P|203:190|213:289,1,197.99999395752,0|0,1:2|3:0,0:0:0:0:
43,372,239659,6,2,P|9:294|8:203,1,165.000006294251,12|2,0:2|0:0,0:1:0:0:
6,214,240105,1,2,0:0:0:0:
124,283,240253,5,0,1:2:0:0:
124,283,240402,1,0,3:0:0:0:
216,133,240550,2,0,P|168:145|128:161,1,82.5000031471254,0|0,3:0|0:0,0:0:0:0:
273,338,240847,1,8,0:2:0:0:
361,205,240996,1,0,3:0:0:0:
258,219,241144,1,0,3:0:0:0:
371,313,241293,1,0,3:0:0:0:
449,264,241441,2,0,P|472:181|476:68,1,197.99999395752,0|0,1:2|3:0,0:0:0:0:
248,0,242035,6,0,L|239:55,1,32.99999899292,10|0,0:2|0:0,0:0:0:0:
320,167,242184,2,0,L|329:112,1,32.99999899292,8|0,0:1|0:0,0:0:0:0:
239,2,242332,2,0,L|230:57,1,32.99999899292,8|0,0:1|0:0,0:0:0:0:
310,163,242481,2,0,L|319:108,1,32.99999899292,8|0,0:1|0:0,0:0:0:0:
403,10,242629,5,0,1:2:0:0:
403,10,242926,2,0,P|376:22|330:39,1,65.9999979858399,0|0,3:0|0:0,0:0:0:0:
57,157,243223,2,0,P|105:129|191:114,1,131.99999597168,8|0,0:2|3:0,0:0:0:0:
179,113,243669,1,0,0:0:0:0:
196,248,243817,1,0,1:2:0:0:
396,217,243966,2,0,P|337:186|273:174,1,131.99999597168,0|0,3:0|3:0,0:0:0:0:
0,315,244412,6,2,P|63:351|171:359,1,165.000006294251,12|0,0:2|0:0,0:1:0:0:
112,160,244857,2,0,P|90:204|82:252,1,82.5000031471254,2|0,0:0|1:2,0:0:0:0:
272,384,245154,2,0,P|287:344|295:298,1,82.5000031471254,2|0,0:0|0:0,0:0:0:0:
234,135,245451,1,8,1:3:0:0:
398,283,245600,5,8,1:2:0:0:
201,219,245748,1,8,0:3:0:0:
369,28,245897,2,0,P|389:67|395:110,1,82.5000031471254,4|0,0:3|0:0,0:0:0:0:
0,182,246194,2,0,P|61:128|150:129,1,165.000006294251,4|0,1:1|0:0,0:0:0:0:
319,248,246639,1,8,0:3:0:0:
246,0,246788,5,8,0:2:0:0:
319,248,246936,1,4,0:3:0:0:
394,104,247085,1,12,0:3:0:0:
172,219,247233,1,4,0:3:0:0:
496,211,247382,1,0,1:2:0:0:
496,211,247679,6,0,P|455:204|417:189,1,82.5000031471254,2|0,3:1|0:0,0:0:0:0:
99,365,247976,2,0,P|179:359|230:297,1,165.000006294251,10|2,0:2|0:1,0:0:0:0:
230,296,248570,2,0,P|219:256|201:219,1,82.5000031471254,2|0,1:1|0:0,0:0:0:0:
285,0,248867,1,2,3:1:0:0:
313,138,249015,1,0,3:2:0:0:
63,143,249164,2,0,P|124:90|219:72,1,165.000006294251,8|0,0:2|3:0,0:0:0:0:
396,186,249610,1,0,3:0:0:0:
462,89,249758,5,2,1:3:0:0:
366,23,249907,1,2,0:3:0:0:
230,157,250055,2,0,P|233:201|246:248,1,82.5000031471254,2|2,0:1|0:3,0:3:0:0:
512,371,250352,2,0,P|446:322|365:323,1,165.000006294251,10|0,0:2|3:0,0:0:0:0:
317,384,250798,1,0,3:0:0:0:
442,234,250946,6,0,P|442:192|435:152,1,82.5000031471254,2|0,1:1|0:0,0:0:0:0:
288,20,251243,1,2,3:1:0:0:
232,165,251392,1,0,3:0:0:0:
20,128,251540,2,0,P|90:86|171:73,1,165.000006294251,8|0,0:2|3:0,0:0:0:0:
171,73,251986,1,0,3:0:0:0:
126,177,252134,5,2,1:3:0:0:
58,11,252283,1,2,0:3:0:0:
266,3,252431,2,0,P|280:41|284:82,1,82.5000031471254,2|2,0:1|0:3,0:3:0:0:
62,360,252728,2,0,P|35:285|31:179,2,165.000006294251,10|2|2,0:2|0:1|1:1,0:0:0:0:
423,182,253619,1,2,3:1:0:0:
253,142,253768,1,0,3:0:0:0:
314,303,253916,1,8,0:2:0:0:
314,303,254214,2,0,P|325:263|328:222,1,82.5000031471254,0|0,3:0|3:0,0:0:0:0:
92,33,254511,1,0,1:2:0:0:
92,33,254808,6,0,P|80:72|77:113,1,82.5000031471254,2|0,3:1|0:0,0:0:0:0:
442,72,255105,2,0,P|372:113|291:105,1,165.000006294251,10|0,0:2|3:0,0:0:0:0:
339,26,255550,1,0,3:0:0:0:
409,204,255699,2,0,P|455:215|501:235,1,82.5000031471254,2|0,1:1|0:0,0:0:0:0:
238,384,255996,2,0,P|184:323|194:248,1,123.750004720688,2|0,0:1|0:0,0:0:0:0:
184,273,256293,2,0,P|224:256|273:244,1,82.5000031471254,10|0,0:2|0:0,0:0:0:0:
229,0,256590,2,0,P|128:18|58:43,1,165.000006294251,2|0,0:1|1:2,0:0:0:0:
69,38,257184,6,0,P|87:78|98:130,1,82.5000031471254,2|0,3:1|0:0,0:0:0:0:
329,289,257481,1,10,0:2:0:0:
428,124,257629,1,2,0:1:0:0:
212,133,257778,1,2,0:1:0:0:
315,206,257926,1,2,0:1:0:0:
332,76,258075,2,0,P|325:36|311:-2,1,82.5000031471254,2|0,1:1|0:0,0:0:0:0:
62,267,258372,2,0,P|162:251|227:222,1,165.000006294251,2|8,0:1|0:2,0:0:0:0:
220,225,258966,5,0,3:0:0:0:
174,339,259115,1,0,3:0:0:0:
33,164,259263,2,0,P|39:119|54:71,1,82.5000031471254,0|0,1:2|0:0,0:0:0:0:
376,248,259560,2,0,P|370:293|355:341,1,82.5000031471254,2|0,0:1|0:0,0:0:0:0:
156,159,259857,6,0,P|217:106|299:110,1,165.000006294251,10|0,0:2|3:0,0:0:0:0:
470,190,260303,1,0,3:0:0:0:
490,0,260451,2,0,P|419:53|405:133,2,165.000006294251,2|2|8,1:1|0:1|0:2,0:0:0:0:
130,144,261342,2,0,P|194:192|276:193,1,165.000006294251,0|0,3:0|1:2,0:0:0:0:
276,193,261936,6,0,P|290:152|294:110,1,82.5000031471254,2|0,3:1|0:0,0:0:0:0:
50,50,262233,1,10,0:2:0:0:
50,50,262530,2,0,P|36:91|32:133,1,82.5000031471254,2|0,0:1|0:0,0:0:0:0:
130,363,262827,1,2,1:1:0:0:
213,199,262976,1,0,3:0:0:0:
132,267,263124,2,0,P|207:300|286:283,2,165.000006294251,2|8|0,0:1|0:2|0:0,0:0:0:0:
132,267,264015,6,0,P|115:229|107:189,1,82.5000031471254,2|0,1:1|3:0,0:0:0:0:
266,37,264313,1,2,3:1:0:0:
267,202,264461,1,8,3:0:0:0:
131,11,264610,5,8,1:2:0:0:
374,162,264758,1,8,0:3:0:0:
108,190,264907,2,0,P|147:173|189:160,1,82.5000031471254,4|0,0:3|0:0,0:0:0:0:
512,21,265204,2,0,P|432:57|341:71,1,165.000006294251,4|2,1:1|0:1,0:0:0:0:
196,55,265649,1,8,0:3:0:0:
254,310,265798,2,0,P|270:272|278:224,1,82.5000031471254,8|0,1:0|0:0,0:0:0:0:
109,172,266095,5,10,0:3:0:0:
371,280,266243,1,10,0:3:0:0:
109,172,266392,1,2,1:2:0:0:
109,172,266689,6,0,P|152:165|194:151,1,88,2|0,3:2|3:2,0:0:0:0:
448,0,266986,2,0,P|420:60|403:132,1,132,10|0,0:2|0:0,0:0:0:0:
415,126,267283,2,0,P|405:81|378:31,1,88,2|0,3:2|3:0,0:0:0:0:
205,284,267580,2,0,P|278:333|374:318,1,176,2|2,1:2|3:2,0:0:0:0:
392,234,268025,1,0,3:2:0:0:
154,179,268174,2,0,P|106:196|72:216,1,88,8|0,0:2|0:0,0:0:0:0:
205,19,268471,5,2,3:2:0:0:
287,141,268619,1,0,3:2:0:0:
75,92,268768,2,0,P|89:49|98:2,1,88,2|0,1:2|0:0,0:0:0:0:
403,55,269065,2,0,P|385:101|380:139,1,88,2|2,3:2|3:3,0:0:0:0:
226,364,269362,2,0,P|174:297|182:211,1,176,10|2,0:2|3:2,0:0:0:0:
268,176,269808,1,0,3:2:0:0:
14,125,269956,2,0,P|84:76|169:90,1,176,6|2,1:2|3:2,0:0:0:0:
169,90,270402,1,0,3:0:0:0:
431,44,270550,2,0,P|380:2|315:0,1,132,10|0,0:2|0:0,0:0:0:0:
315,0,270847,2,0,P|306:36|299:102,1,88,6|0,3:2|3:0,0:0:0:0:
339,366,271144,5,2,1:3:0:0:
459,230,271293,1,2,0:3:0:0:
235,150,271441,1,2,3:3:0:0:
316,269,271590,1,2,3:3:0:0:
512,136,271738,2,0,P|424:135|342:166,1,176,10|0,0:2|3:2,0:0:0:0:
0,332,272332,2,0,P|87:332|169:301,1,176,2|0,1:2|3:2,0:0:0:0:
212,226,272778,1,0,3:2:0:0:
106,158,272926,2,0,P|94:115|86:72,1,88,10|0,0:2|0:0,0:0:0:0:
367,0,273223,2,0,P|378:42|386:85,1,88,2|0,3:1|3:2,0:0:0:0:
310,302,273520,5,2,1:3:0:0:
202,113,273669,1,2,0:3:0:0:
351,164,273817,1,2,0:3:0:0:
211,315,273966,1,2,0:3:0:0:
395,375,274115,2,0,P|432:358|496:341,1,88,10|0,0:0|0:0,0:0:0:0:
204,224,274412,2,0,P|164:241|117:252,1,88,2|0,3:2|3:2,0:0:0:0:
505,205,274709,6,0,P|507:118|452:53,1,176,6|0,1:2|3:2,0:0:0:0:
331,34,275154,1,0,3:2:0:0:
307,247,275303,2,0,P|344:231|398:220,1,88,10|0,0:2|0:0,0:0:0:0:
157,62,275600,6,0,P|68:76|-5:26,1,176,6|2,3:1|1:3,0:0:0:0:
0,31,276045,1,2,0:3:0:0:
31,258,276194,2,0,P|7:209|-2:161,1,88,2|2,3:3|3:3,0:0:0:0:
256,0,276491,2,0,P|294:80|311:169,1,176,10|0,0:2|3:2,0:0:0:0:
96,379,277085,2,0,P|160:321|247:314,1,176,2|2,1:2|3:3,0:0:0:0:
246,313,277530,1,2,3:3:0:0:
418,379,277679,2,0,P|430:338|435:294,1,88,10|0,0:2|0:0,0:0:0:0:
252,21,277976,2,0,P|231:67|228:161,1,132,2|0,3:2|3:2,0:0:0:0:
234,152,278273,5,0,1:2:0:0:
20,279,278496,1,0,3:2:0:0:
21,288,278570,2,0,P|64:280|105:265,1,88,2|0,3:2|3:2,0:0:0:0:
435,294,278867,2,0,P|365:243|280:253,1,176,10|2,0:2|3:2,0:0:0:0:
217,307,279313,1,0,3:2:0:0:
91,85,279461,2,0,P|176:87|233:151,1,176,6|0,1:2|3:0,0:0:0:0:
233,151,279907,1,0,3:0:0:0:
105,264,280055,2,0,P|84:228|75:172,1,88,10|0,0:0|0:0,0:0:0:0:
340,5,280352,6,0,P|389:98|400:194,2,176,6|2|2,3:2|1:2|3:3,0:0:0:0:
280,112,281095,1,2,3:3:0:0:
512,167,281243,2,0,P|500:71|459:-14,1,176,10|0,0:2|3:2,0:0:0:0:
467,0,281689,1,0,3:0:0:0:
351,234,281837,2,0,P|386:242|444:244,1,88,2|0,1:2|0:0,0:0:0:0:
205,50,282134,2,0,P|157:60|115:84,1,88,0|0,3:2|3:2,0:0:0:0:
139,355,282431,5,10,0:2:0:0:
139,355,282728,1,2,3:1:0:0:
238,230,282877,1,0,3:2:0:0:
0,208,283025,2,0,P|34:227|94:242,1,88,2|2,1:3|0:3,0:0:0:0:
219,119,283322,1,2,0:3:0:0:
80,240,283471,1,10,0:3:0:0:
122,74,283619,5,8,1:2:0:0:
326,227,283768,1,8,0:3:0:0:
392,0,283916,2,0,P|349:12|308:26,1,88,4|4,3:3|3:3,0:0:0:0:
464,376,284214,2,0,P|498:296|509:209,1,176,4|8,1:1|3:3,0:0:0:0:
441,82,284659,1,8,3:3:0:0:
228,156,284808,2,0,P|210:196|200:239,1,88,12|0,0:2|0:0,0:0:0:0:
279,356,285105,5,12,3:3:0:0:
110,147,285253,1,12,3:3:0:0:
321,213,285402,2,0,P|363:203|405:187,1,88,4|0,1:1|3:0,0:0:0:0:
147,322,285699,2,0,P|100:335|59:354,1,88,2|0,3:2|3:2,0:0:0:0:
157,0,285996,2,0,P|197:70|225:168,1,176,10|2,0:2|3:2,0:0:0:0:
42,363,286590,2,0,P|20:312|15:265,1,88,2|0,1:2|0:0,0:0:0:0:
315,287,286887,2,0,P|277:309|235:323,1,88,2|0,3:2|3:2,0:0:0:0:
0,92,287184,2,0,P|82:100|135:123,1,132,10|0,0:2|0:0,0:0:0:0:
127,118,287481,2,0,P|118:158|97:205,1,88,2|0,3:2|3:2,0:0:0:0:
307,381,287778,5,0,1:3:0:0:
405,135,287926,1,2,0:3:0:0:
241,194,288075,1,2,3:3:0:0:
382,330,288223,1,2,3:3:0:0:
512,171,288372,2,0,P|424:175|343:209,1,176,10|2,0:2|3:2,0:0:0:0:
343,209,288817,1,0,3:2:0:0:
127,0,288966,6,0,P|192:1|258:27,1,132,6|0,1:2|0:0,0:0:0:0:
253,24,289263,2,0,P|251:67|240:110,1,88,2|0,3:2|3:0,0:0:0:0:
112,384,289560,2,0,P|85:304|99:229,1,132,10|2,0:2|3:2,0:0:0:0:
89,257,289857,2,0,P|142:265|178:280,1,88,6|0,0:2|0:0,0:0:0:0:
441,171,290154,6,0,P|399:186|356:193,1,88,2|2,1:2|0:3,0:0:0:0:
28,144,290451,2,0,P|70:127|112:120,1,88,2|2,3:3|3:3,0:0:0:0:
215,0,290748,2,0,P|237:73|251:171,1,176,10|0,0:2|3:2,0:0:0:0:
475,376,291342,2,0,P|470:289|483:202,1,176,2|0,1:2|3:2,0:0:0:0:
483,202,291788,1,0,3:2:0:0:
346,77,291936,2,0,P|395:80|439:95,1,88,10|0,0:2|0:0,0:0:0:0:
217,368,292233,2,0,P|200:321|192:279,1,88,2|0,3:1|3:2,0:0:0:0:
281,135,292530,5,2,1:3:0:0:
192,283,292679,1,2,0:3:0:0:
132,150,292827,1,2,0:3:0:0:
329,248,292976,1,2,0:3:0:0:
194,34,293124,2,0,P|107:51|24:80,1,176,8|0,0:0|3:2,0:0:0:0:
24,80,293570,1,0,3:2:0:0:
332,112,293718,2,0,P|435:93|516:68,1,176,6|0,1:2|3:2,0:0:0:0:
412,7,294164,1,0,3:2:0:0:
421,202,294313,2,0,P|462:188|506:181,1,88,10|0,0:2|0:0,0:0:0:0:
88,257,294610,6,0,P|114:323|182:345,1,148.49999546814,6|0,3:1|0:0,0:0:0:0:
191,340,294907,2,0,P|208:293|214:244,1,88,2|2,1:3|0:3,0:0:0:0:
192,82,295204,1,2,3:3:0:0:
24,161,295352,1,2,3:3:0:0:
21,6,295501,2,0,P|65:16|109:40,1,88,10|0,0:2|0:0,0:0:0:0:
398,73,295798,2,0,P|364:94|301:112,1,88,2|0,3:2|3:0,0:0:0:0:
227,364,296095,6,0,P|196:274|196:188,1,176,2|2,1:2|3:2,0:0:0:0:
290,204,296540,1,0,3:3:0:0:
91,322,296689,2,0,P|78:272|78:219,1,88,10|0,0:2|0:0,0:0:0:0:
133,22,296986,1,2,3:2:0:0:
237,127,297134,1,0,3:2:0:0:
0,150,297283,6,0,P|42:139|84:125,1,88,2|2,1:2|0:3,0:0:0:0:
367,48,297580,2,0,P|327:40|266:22,1,88,2|2,3:3|3:3,0:0:0:0:
371,335,297877,2,0,P|429:271|432:185,1,176,10|2,0:2|3:2,0:0:0:0:
432,185,298322,1,0,3:2:0:0:
210,95,298471,2,0,P|151:158|148:244,1,176,6|2,1:2|3:0,0:0:0:0:
246,227,298916,1,0,3:0:0:0:
83,379,299065,2,0,P|61:336|60:291,1,88,10|0,0:0|0:0,0:0:0:0:
341,227,299362,2,0,P|363:270|364:315,1,88,6|0,3:2|3:0,0:0:0:0:
75,136,299659,5,2,1:2:0:0:
297,27,299808,1,2,0:3:0:0:
161,186,299956,1,2,3:3:0:0:
322,126,300105,1,2,3:3:0:0:
46,1,300253,2,0,P|118:50|204:66,1,176,10|0,0:2|3:2,0:0:0:0:
480,223,300847,2,0,P|415:237|353:272,1,132,2|0,1:2|0:0,0:0:0:0:
358,268,301144,2,0,P|372:309|381:366,1,88,0|0,3:2|3:2,0:0:0:0:
496,102,301441,2,0,P|480:60|472:10,1,88,10|0,0:2|0:0,0:0:0:0:
231,69,301738,5,2,3:1:0:0:
408,155,301887,1,0,3:2:0:0:
121,143,302035,1,2,1:3:0:0:
222,254,302184,1,2,0:3:0:0:
350,62,302332,2,0,P|327:100|318:146,1,88,2|10,0:3|0:3,0:0:0:0:
512,347,302629,6,0,P|433:297|350:282,1,176,8|4,1:2|3:3,0:0:0:0:
236,353,303075,1,4,3:3:0:0:
112,174,303223,2,0,P|123:132|141:91,1,88,2|0,1:2|0:0,0:0:0:0:
278,222,303520,5,4,0:3:0:0:
78,321,303669,1,4,0:3:0:0:
5,145,303817,1,12,0:2:0:0:
5,145,304115,5,0,3:0:0:0:
95,205,304263,1,0,3:0:0:0:
196,269,304412,1,0,3:0:0:0:
